osu file format v14

[General]
AudioFilename: audio.mp3
AudioLeadIn: 0
PreviewTime: 55699
Countdown: 0
SampleSet: Soft
StackLeniency: 0.7
Mode: 0
LetterboxInBreaks: 0
WidescreenStoryboard: 1

[Editor]
DistanceSpacing: 1.2
BeatDivisor: 2
GridSize: 32
TimelineZoom: 1

[Metadata]
Title:Doin' Time
TitleUnicode:Doin' Time
Artist:Lana Del Rey
ArtistUnicode:Lana Del Rey
Creator:jas
Version:Normal
Source:
Tags:craezy mkguh norman fucking rockwell nfr ldr elizabeth lizzy grant sublime summertime george gershwin alternative alt indie english trip pop trippop ska cover
BeatmapID:2587908
BeatmapSetID:1207252

[Difficulty]
HPDrainRate:3
CircleSize:3.7
OverallDifficulty:4
ApproachRate:5
SliderMultiplier:1.2
SliderTickRate:1

[Events]
//Background and Video events
0,0,"rsz_1czl2f90kkvk21.jpg",0,0
//Break Periods
2,102863,107671
2,162450,173878
//Storyboard Layer 0 (Background)
//Storyboard Layer 1 (Fail)
//Storyboard Layer 2 (Pass)
//Storyboard Layer 3 (Foreground)
//Storyboard Layer 4 (Overlay)
//Storyboard Sound Samples

[TimingPoints]
44,413.793103448276,4,2,2,40,1,0
29837,-100,4,2,1,70,0,0
55906,-100,4,2,1,70,0,0
56061,-100,4,2,1,70,0,0
56112,-100,4,2,1,70,0,0
56268,-100,4,2,1,70,0,0
56319,-100,4,2,2,50,0,0
69561,-100,4,2,1,80,0,1
76181,-100,4,2,1,75,0,0
82802,-100,4,2,1,60,0,0
96044,-100,4,2,1,70,0,0
108768,-100,4,2,2,5,0,0
108871,-100,4,2,2,80,0,0
109026,-100,4,2,2,80,0,0
109078,-100,4,2,2,80,0,0
109233,-100,4,2,2,80,0,0
109285,-100,4,2,1,80,0,1
122319,-90.9090909090909,4,2,1,80,0,0
122526,-100,4,2,1,80,0,1
129147,-100,4,2,1,75,0,0
135768,-100,4,2,1,70,0,0
161837,-100,4,2,1,70,0,0
161992,-100,4,2,1,70,0,0
162044,-100,4,2,1,70,0,0
162199,-100,4,2,1,70,0,0
162250,-100,4,2,1,70,0,0
162302,-100,4,2,2,60,0,0
175078,-100,4,2,2,85,0,0
175233,-100,4,2,2,85,0,0
175285,-100,4,2,2,85,0,0
175440,-100,4,2,2,85,0,0
175492,-100,4,2,1,85,0,1
188526,-90.9090909090909,4,2,1,85,0,0
188733,-100,4,2,1,85,0,1
192044,-100,4,2,2,75,0,0
195561,-100,4,2,2,5,0,0

[Colours]
Combo1 : 163,228,135
Combo2 : 138,149,242
Combo3 : 238,68,68
Combo4 : 235,202,139

[HitObjects]
199,331,6250,5,2,0:0:0:0:
199,331,6457,1,2,0:0:0:0:
199,331,6664,6,0,P|233:202|276:362,1,420,2|0,0:0|0:0,0:0:0:0:
86,295,8733,6,0,L|76:220,1,60,2|0,0:0|0:0,0:0:0:0:
42,172,9147,2,0,L|32:97,1,60,2|0,0:0|0:0,0:0:0:0:
0,48,9561,2,0,P|48:78|146:41,1,120,2|2,0:0|0:0,0:0:0:0:
389,7,10802,6,0,L|370:145,1,120,2|2,0:0|0:0,0:0:0:0:
324,179,11423,1,2,0:0:0:0:
273,230,11630,2,0,L|134:248,1,120,2|2,0:0|0:0,0:0:0:0:
28,174,12457,1,2,0:0:0:0:
99,48,12871,1,0,0:0:0:0:
225,119,13285,1,2,0:0:0:0:
346,379,14112,6,0,P|404:385|455:354,1,120,2|2,0:0|0:0,0:0:0:0:
438,283,14733,1,0,0:0:0:0:
422,213,14940,2,0,P|363:206|312:237,1,120,2|2,0:0|0:0,0:0:0:0:
205,334,15768,2,0,L|66:315,2,120,2|0|2,0:0|0:0|0:0,0:0:0:0:
136,54,17423,6,0,L|17:69,1,120,2|2,0:0|0:0,0:0:0:0:
25,140,18044,1,2,0:0:0:0:
36,212,18250,2,0,L|154:196,1,120,2|0,0:0|0:0,0:0:0:0:
269,107,19078,1,2,0:0:0:0:
359,218,19492,1,2,0:0:0:0:
497,164,19906,5,2,0:0:0:0:
259,325,20733,1,2,0:0:0:0:
18,165,21561,2,0,P|102:163|167:239,2,180,2|2|2,0:0|0:0|0:0,0:0:0:0:
87,291,23216,6,0,P|163:265|359:275,1,240,2|2,0:0|0:0,0:0:0:0:
507,374,24664,1,2,0:0:0:0:
256,192,26733,12,0,29837,3:0:0:0:
155,0,30664,6,0,L|163:64,1,60,10|2,0:0|0:0,0:0:0:0:
179,134,31078,1,2,1:2:0:0:
179,134,31285,2,0,L|323:152,1,120,2|8,0:0|0:0,0:0:0:0:
359,110,31906,1,0,1:0:0:0:
483,181,32319,2,0,L|491:245,1,60,10|2,0:0|0:0,0:0:0:0:
500,312,32733,1,2,3:2:0:0:
372,379,33147,6,0,P|303:367|262:316,1,120,0|0,3:0|1:0,0:0:0:0:
261,265,33768,1,0,3:0:0:0:
261,265,33975,2,0,L|243:121,1,120,10|0,0:0|1:0,0:0:0:0:
236,74,34595,2,0,B|203:63|203:63|72:80,1,120,0|8,3:0|0:0,0:0:0:0:
46,84,35216,1,0,1:0:0:0:
14,224,35630,1,8,0:0:0:0:
124,316,36044,2,0,L|188:308,1,60,12|8,0:0|0:0,0:0:0:0:
255,300,36457,5,0,3:0:0:0:
470,348,37078,1,2,3:2:0:0:
470,348,37285,2,0,B|481:315|481:315|464:184,1,120,10|2,0:0|1:2,0:0:0:0:
419,178,37906,2,0,P|350:190|309:241,1,120,2|10,0:0|0:0,0:0:0:0:
303,295,38526,1,0,1:0:0:0:
160,313,38940,2,0,L|96:321,1,60,8|2,0:0|0:0,0:0:0:0:
28,330,39354,1,2,3:2:0:0:
46,187,39768,6,0,L|53:127,2,60,2|0|2,3:2|0:0|1:2,0:0:0:0:
28,330,40595,2,0,L|172:348,1,120,10|0,0:0|1:0,0:0:0:0:
214,318,41216,2,0,B|232:288|232:288|247:157,1,120,0|8,3:0|0:0,0:0:0:0:
254,132,41837,1,0,1:0:0:0:
196,0,42250,1,8,0:0:0:0:
108,114,42664,2,0,L|100:173,1,60,12|8,0:0|0:0,0:0:0:0:
91,245,43078,5,0,3:0:0:0:
200,338,43492,2,0,L|259:330,1,60,2|0,1:2|3:0,0:0:0:0:
318,288,43906,2,0,L|462:306,1,120,10|2,0:0|1:2,0:0:0:0:
501,267,44526,1,0,0:0:0:0:
501,267,44733,2,0,P|507:242|509:208,1,60,2|10,0:0|0:0,0:0:0:0:
459,154,45147,2,0,P|460:124|466:94,1,60,2|2,1:2|3:2,0:0:0:0:
508,35,45561,1,10,0:0:0:0:
367,67,45975,2,0,L|308:59,1,60,2|2,3:2|0:0,0:0:0:0:
235,51,46388,6,0,B|159:36|161:117|70:99,1,180,2|0,3:2|3:0,0:0:0:0:
14,145,47216,2,0,P|1:202|25:256,1,120,8|0,0:0|1:0,0:0:0:0:
92,282,47837,2,0,L|236:264,1,120,0|8,3:0|0:0,0:0:0:0:
281,254,48457,1,0,1:0:0:0:
412,313,48871,1,8,0:0:0:0:
496,193,49285,2,0,L|488:134,1,60,14|10,0:0|0:0,0:0:0:0:
441,78,49699,6,0,P|416:72|382:70,1,60,2|2,3:2|0:0,0:0:0:0:
313,91,50112,1,2,1:2:0:0:
202,183,50526,2,0,L|215:295,1,60,10|2,0:0|0:0,0:0:0:0:
224,317,50940,1,2,1:2:0:0:
224,317,51147,2,0,B|257:328|257:328|388:311,1,120,2|10,0:0|0:0,0:0:0:0:
413,308,51768,2,0,L|472:315,2,60,2|2|8,1:2|3:2|0:0,0:0:0:0:
364,172,52595,1,2,3:2:0:0:
237,184,53009,6,0,P|224:241|248:295,1,120,2|0,3:2|1:0,0:0:0:0:
315,322,53630,1,2,3:2:0:0:
375,283,53837,2,0,P|388:226|364:172,1,120,8|0,0:0|1:0,0:0:0:0:
301,135,54457,2,0,B|268:146|268:146|137:129,1,120,0|8,3:0|0:0,0:0:0:0:
112,120,55078,1,0,1:0:0:0:
32,240,55492,1,8,0:0:0:0:
181,274,55906,5,14,0:0:0:0:
181,274,56112,1,2,0:0:0:0:
181,274,56319,6,0,B|281:263|270:344|337:349|359:348|359:348|414:345|446:290|422:219|347:214|302:258,1,420,6|2,0:0|0:0,0:0:0:0:
120,334,59630,6,0,B|98:375|51:379|51:379|10:47,1,420,6|2,0:0|0:0,0:0:0:0:
297,68,62940,6,0,P|287:184|267:138,1,420,6|2,0:0|0:0,0:0:0:0:
435,373,66250,6,0,B|394:353|379:310|379:310|48:270,1,420,6|2,0:0|0:0,0:0:0:0:
201,25,69561,6,0,P|265:39|298:97,1,120,6|0,3:2|1:0,0:0:0:0:
349,214,70388,2,0,L|229:229,1,120,10|0,0:0|0:0,0:0:0:0:
158,236,71009,1,0,3:0:0:0:
88,219,71216,2,0,L|76:131,2,60,2|10|2,3:2|0:0|1:2,0:0:0:0:
45,277,71837,2,0,P|76:339|131:352,1,120,2|2,3:2|0:0,0:0:0:0:
189,331,72457,1,6,3:2:0:0:
325,284,72871,6,0,L|340:165,1,120,6|2,3:2|1:2,0:0:0:0:
300,110,73492,1,2,3:2:0:0:
300,110,73699,2,0,L|288:24,2,60,10|2|2,0:0|0:0|1:2,0:0:0:0:
263,171,74319,2,0,P|213:208|130:185,2,120,2|10|0,0:0|0:0|3:0,0:0:0:0:
300,110,75354,2,0,L|386:98,1,60,10|2,0:0|0:0,0:0:0:0:
431,91,75768,1,14,0:0:0:0:
404,230,76181,6,0,P|347:244|262:168,1,180,0|0,3:0|3:0,0:0:0:0:
300,110,77009,2,0,P|249:125|173:91,1,120,10|0,0:0|1:0,0:0:0:0:
125,67,77630,2,0,B|114:100|114:100|131:231,1,120,2|8,0:0|0:0,0:0:0:0:
142,254,78250,1,0,1:0:0:0:
282,222,78664,1,8,0:0:0:0:
383,324,79078,2,0,L|478:311,1,60,0|0,3:0|0:0,0:0:0:0:
500,272,79492,6,0,P|515:173|527:73,1,180,0|0,3:0|3:0,0:0:0:0:
492,29,80319,2,0,P|435:16|381:40,1,120,10|0,0:0|1:0,0:0:0:0:
349,105,80940,2,0,B|316:116|316:116|185:99,1,120,2|8,3:2|0:0,0:0:0:0:
160,93,81561,1,8,0:0:0:0:
73,208,81975,1,8,0:0:0:0:
129,340,82388,2,0,L|224:353,1,60,12|8,0:0|0:0,0:0:0:0:
260,358,82802,6,0,B|351:370|335:306|429:317,1,180,0|0,3:0|3:0,0:0:0:0:
497,343,83630,1,8,0:0:0:0:
511,199,84044,1,0,1:0:0:0:
367,185,84457,1,0,1:0:0:0:
313,232,84664,2,0,P|253:229|206:194,1,120,8|0,0:0|3:0,0:0:0:0:
206,121,85285,1,8,0:0:0:0:
326,41,85699,2,0,L|385:49,1,60,0|10,3:0|0:0,0:0:0:0:
456,62,86112,6,0,P|467:127|477:216,1,120,10|2,3:2|1:2,0:0:0:0:
452,252,86733,1,0,3:0:0:0:
452,252,86940,2,0,P|376:265|324:205,1,120,10|0,0:0|1:0,0:0:0:0:
272,117,87768,2,0,B|261:84|261:84|278:-47,2,120,0|0|8,1:0|1:0|0:0,0:0:0:0:
343,243,89009,2,0,L|334:302,1,60,4|8,3:2|0:0,0:0:0:0:
290,359,89423,6,0,L|110:384,1,180,0|0,3:0|3:0,0:0:0:0:
61,332,90250,1,8,0:0:0:0:
94,191,90664,1,0,1:0:0:0:
235,224,91078,1,2,1:2:0:0:
304,205,91285,2,0,L|424:221,1,120,8|0,0:0|3:0,0:0:0:0:
491,198,91906,1,8,0:0:0:0:
466,56,92319,2,0,L|406:64,1,60,0|10,3:0|0:0,0:0:0:0:
334,74,92733,6,0,B|240:85|256:21|165:33,1,180,8|0,3:2|3:0,0:0:0:0:
92,45,93561,1,10,0:0:0:0:
60,185,93975,1,0,1:0:0:0:
163,284,94388,2,0,P|240:259|276:180,2,120,0|0|8,1:0|1:0|0:0,0:0:0:0:
60,185,95630,1,4,3:2:0:0:
92,45,96044,6,0,L|151:53,1,60,2|2,3:2|0:0,0:0:0:0:
222,39,96457,2,0,L|281:47,1,60,2|2,1:2|3:2,0:0:0:0:
352,32,96871,2,0,L|370:169,2,120,10|2|2,0:0|1:2|1:2,0:0:0:0:
252,302,98526,2,0,P|200:343|134:336,1,120,10|2,0:2|3:2,0:0:0:0:
95,301,99147,1,2,1:2:0:0:
95,301,99354,6,0,L|111:182,1,120,2|2,3:2|1:2,0:0:0:0:
123,113,99975,1,2,3:2:0:0:
123,113,100181,2,0,B|218:91|194:169|292:152,1,180,10|0,0:2|1:0,0:0:0:0:
360,134,101009,2,0,P|416:128|481:177,2,120,0|0|8,1:0|1:0|0:0,0:0:0:0:
383,276,102250,1,4,0:0:0:0:
448,306,102457,2,0,L|507:297,1,60,8|0,0:0|3:0,0:0:0:0:
410,192,108871,5,2,0:2:0:0:
410,192,109078,1,2,0:2:0:0:
410,192,109285,6,0,P|427:250|393:304,1,120,6|0,3:2|1:0,0:0:0:0:
328,313,109906,1,0,3:0:0:0:
257,325,110112,2,0,L|133:309,1,120,10|0,0:2|1:0,0:0:0:0:
82,263,110733,2,0,B|65:236|65:236|52:117,1,120,2|8,0:2|0:0,0:0:0:0:
94,87,111354,2,0,L|199:72,1,60,2|2,1:2|3:2,0:0:0:0:
221,103,111768,2,0,L|326:89,1,60,10|2,0:2|0:2,0:0:0:0:
348,119,112181,1,6,3:2:0:0:
488,82,112595,6,0,P|477:170|469:247,1,120,2|0,3:2|1:0,0:0:0:0:
472,273,113216,1,0,3:0:0:0:
429,332,113423,2,0,P|380:324|333:337,1,60,10|2,0:2|0:2,0:0:0:0:
304,354,113837,2,0,P|274:354|245:348,1,60,2|2,1:2|0:2,0:0:0:0:
185,307,114250,1,2,0:2:0:0:
49,356,114664,1,2,1:2:0:0:
66,212,115078,2,0,L|83:88,2,120,10|6|2,0:2|3:2|3:2,0:0:0:0:
186,309,116319,5,2,1:2:0:0:
186,309,116526,1,2,3:2:0:0:
186,309,116733,2,0,L|291:324,1,60,10|2,0:2|0:2,0:0:0:0:
315,300,117147,2,0,L|420:314,1,60,2|2,1:2|0:2,0:0:0:0:
444,291,117561,2,0,B|456:228|423:240|436:173,1,120,2|2,0:2|1:2,0:0:0:0:
466,107,118181,1,2,3:2:0:0:
425,47,118388,2,0,P|365:45|318:97,1,120,10|2,0:2|3:2,0:0:0:0:
289,224,119216,6,0,P|223:234|120:243,1,120,2|2,3:2|1:2,0:0:0:0:
47,162,120044,2,0,P|40:113|53:66,1,60,10|2,0:2|0:2,0:0:0:0:
91,51,120457,2,0,L|196:66,1,60,2|2,1:2|0:2,0:0:0:0:
221,74,120871,1,2,0:2:0:0:
354,19,121285,1,2,3:2:0:0:
412,150,121699,2,0,B|422:180|422:180|407:299,2,120,10|14|6,0:2|0:2|3:2,0:0:0:0:
196,341,123354,6,0,B|134:330|145:370|74:358,1,120,10|0,0:0|0:0,0:0:0:0:
25,311,123975,1,0,3:0:0:0:
37,240,124181,2,0,L|52:134,1,60,2|10,3:2|0:0,0:0:0:0:
60,113,124595,1,2,1:2:0:0:
60,113,124802,2,0,B|121:102|110:142|181:130,1,120,2|2,3:2|0:0,0:0:0:0:
243,104,125423,1,6,3:2:0:0:
385,124,125837,6,0,L|400:243,1,120,6|2,3:2|1:2,0:0:0:0:
439,309,126457,1,2,3:2:0:0:
439,309,126664,2,0,L|545:324,2,60,10|2|2,0:0|0:0|1:2,0:0:0:0:
367,306,127285,2,0,L|247:322,2,120,2|10|0,0:0|3:2|3:0,0:0:0:0:
372,234,128319,2,0,L|285:222,1,60,10|2,0:0|0:0,0:0:0:0:
240,216,128733,1,14,0:0:0:0:
97,196,129147,6,0,B|82:77|82:77|88:31|130:8,1,180,0|0,3:0|3:0,0:0:0:0:
176,0,129975,2,0,L|320:18,1,120,8|0,0:0|1:0,0:0:0:0:
355,54,130595,2,0,P|379:107|366:165,1,120,0|8,1:0|0:0,0:0:0:0:
304,203,131216,1,0,1:0:0:0:
167,155,131630,1,8,0:0:0:0:
75,267,132044,2,0,P|76:299|83:326,1,60,0|8,3:0|0:0,0:0:0:0:
143,365,132457,6,0,B|234:377|218:313|312:324,1,180,8|0,3:2|3:0,0:0:0:0:
384,337,133285,2,0,B|395:304|395:304|378:173,1,120,8|0,0:0|1:0,0:0:0:0:
374,147,133906,2,0,L|254:132,1,120,0|8,1:0|0:0,0:0:0:0:
183,123,134526,1,8,0:0:0:0:
58,187,134940,1,8,0:0:0:0:
58,187,135147,1,8,0:0:0:0:
58,187,135354,2,0,L|46:282,1,60,12|0,0:0|1:0,0:0:0:0:
37,317,135768,6,0,P|112:333|192:200,1,240,2|10,3:2|0:2,0:0:0:0:
104,102,137009,1,0,1:0:0:0:
150,47,137216,1,2,1:2:0:0:
150,47,137423,2,0,L|245:59,1,60,2|10,1:2|0:2,0:0:0:0:
268,96,137837,2,0,L|363:108,1,60,2|2,1:2|3:2,0:0:0:0:
391,69,138250,1,10,0:2:0:0:
412,211,138664,1,2,3:2:0:0:
270,240,139078,6,0,L|150:225,1,120,2|2,3:2|1:2,0:0:0:0:
7,205,139906,1,8,0:0:0:0:
29,346,140319,2,0,L|134:332,1,60,2|0,1:2|1:0,0:0:0:0:
167,332,140733,1,2,1:2:0:0:
167,332,140940,1,10,0:2:0:0:
167,332,141147,2,0,L|272:318,1,60,2|0,1:2|3:0,0:0:0:0:
296,307,141561,2,0,P|320:254|307:196,1,120,10|4,0:2|3:2,0:0:0:0:
169,151,142388,6,0,B|114:144|114:144|41:214|82:312,1,240,2|10,3:2|0:2,0:0:0:0:
226,324,143630,1,0,1:0:0:0:
345,243,144044,2,0,P|352:205|331:138,1,60,2|10,1:2|0:2,0:0:0:0:
322,117,144457,2,0,P|320:87|327:57,1,60,2|2,1:2|3:2,0:0:0:0:
372,1,144871,1,10,0:2:0:0:
476,100,145285,1,2,3:2:0:0:
368,196,145699,6,0,L|248:211,1,120,2|2,3:2|1:2,0:0:0:0:
106,229,146526,1,8,0:0:0:0:
129,86,146940,2,0,L|234:100,1,60,2|0,1:2|1:0,0:0:0:0:
267,110,147354,1,2,1:2:0:0:
267,110,147561,1,10,0:2:0:0:
267,110,147768,2,0,L|372:124,1,60,2|0,1:2|3:0,0:0:0:0:
396,133,148181,2,0,P|420:186|407:244,1,120,10|4,0:2|3:2,0:0:0:0:
298,339,149009,6,0,B|203:315|216:386|122:367,1,180,2|0,3:2|3:0,0:0:0:0:
66,326,149837,2,0,L|51:206,1,120,10|0,0:2|1:0,0:0:0:0:
77,139,150457,2,0,B|110:128|110:128|241:145,1,120,2|8,1:2|0:0,0:0:0:0:
266,149,151078,1,0,1:0:0:0:
398,92,151492,1,8,0:0:0:0:
460,222,151906,2,0,L|446:327,1,60,2|2,3:2|0:2,0:0:0:0:
443,353,152319,6,0,P|381:368|289:298,1,180,2|0,3:2|3:0,0:0:0:0:
271,235,153147,2,0,L|256:115,1,120,10|0,0:2|1:0,0:0:0:0:
282,48,153768,2,0,P|335:23|393:37,1,120,2|8,1:2|0:0,0:0:0:0:
448,82,154388,1,2,1:2:0:0:
415,222,154802,1,10,0:2:0:0:
271,235,155216,1,6,3:2:0:0:
167,335,155630,6,0,B|146:313|141:285|141:285|151:159,1,180,2|0,3:2|3:0,0:0:0:0:
157,90,156457,2,0,P|103:65|45:79,1,120,10|0,0:2|1:0,0:0:0:0:
6,138,157078,2,0,B|-5:171|-5:171|12:302,1,120,2|8,1:2|0:0,0:0:0:0:
18,326,157699,1,2,1:2:0:0:
158,295,158112,1,10,0:2:0:0:
284,366,158526,1,2,3:2:0:0:
410,297,158940,6,0,P|425:195|438:87,1,180,2|0,3:2|3:0,0:0:0:0:
392,59,159768,2,0,B|359:48|359:48|228:65,1,120,10|0,0:2|1:0,0:0:0:0:
217,102,160388,2,0,L|97:117,1,120,2|8,1:2|0:0,0:0:0:0:
40,161,161009,1,0,1:0:0:0:
74,300,161423,1,8,0:0:0:0:
214,269,161837,2,0,L|315:281,2,60,6|2|4,3:2|1:2|3:2,0:0:0:0:
102,192,175078,5,2,0:2:0:0:
102,192,175285,1,2,0:2:0:0:
102,192,175492,6,0,P|85:249|119:304,1,120,6|0,3:2|1:0,0:0:0:0:
183,313,176113,1,0,3:0:0:0:
254,324,176319,2,0,L|378:308,1,120,10|0,0:2|1:0,0:0:0:0:
428,263,176940,2,0,B|444:236|444:236|458:117,1,120,2|8,0:2|0:0,0:0:0:0:
416,88,177561,2,0,L|312:73,1,60,2|2,1:2|3:2,0:0:0:0:
290,104,177975,2,0,L|185:89,1,60,10|2,0:2|0:2,0:0:0:0:
163,119,178388,1,6,3:2:0:0:
25,83,178802,6,0,P|36:170|43:247,1,120,2|0,3:2|1:0,0:0:0:0:
39,275,179423,1,0,3:0:0:0:
83,331,179630,2,0,P|132:323|179:336,1,60,10|2,0:2|0:2,0:0:0:0:
208,353,180044,2,0,P|237:353|266:347,1,60,2|2,1:2|0:2,0:0:0:0:
326,306,180457,1,2,0:2:0:0:
461,355,180871,1,2,1:2:0:0:
444,212,181285,2,0,L|427:88,2,120,10|6|2,0:2|3:2|3:2,0:0:0:0:
330,297,182526,5,2,1:2:0:0:
330,297,182733,1,2,3:2:0:0:
330,297,182940,2,0,L|225:312,1,60,10|2,0:2|0:2,0:0:0:0:
197,299,183354,2,0,L|92:314,1,60,2|2,1:2|0:2,0:0:0:0:
68,290,183768,2,0,B|57:227|89:239|77:172,1,120,2|2,0:2|1:2,0:0:0:0:
46,107,184388,1,2,3:2:0:0:
87,48,184595,2,0,P|147:46|193:97,1,120,10|2,0:2|3:2,0:0:0:0:
222,224,185423,6,0,P|288:234|390:243,1,120,2|2,3:2|1:2,0:0:0:0:
463,163,186251,2,0,P|470:114|457:67,1,60,10|2,0:2|0:2,0:0:0:0:
419,52,186664,2,0,L|314:67,1,60,2|2,1:2|1:2,0:0:0:0:
290,75,187078,1,2,3:2:0:0:
158,20,187492,1,2,1:2:0:0:
100,150,187906,2,0,B|90:180|90:180|105:298,2,120,10|14|6,0:2|0:2|3:2,0:0:0:0:
314,340,189561,6,0,B|376:329|365:369|435:357,1,120,10|0,0:0|0:0,0:0:0:0:
484,310,190182,1,0,3:0:0:0:
472,239,190388,2,0,L|458:135,1,60,2|10,3:2|0:0,0:0:0:0:
451,114,190802,1,2,1:2:0:0:
451,114,191009,2,0,B|389:103|400:143|330:131,1,120,2|2,3:2|0:0,0:0:0:0:
268,107,191630,1,6,3:2:0:0:
126,131,192044,6,0,P|89:179|92:256,1,120,2|2,0:2|0:2,0:0:0:0:
117,307,192664,1,2,0:2:0:0:
117,307,192871,2,0,B|206:279|197:374|306:343,1,180,2|2,0:2|0:2,0:0:0:0:
256,192,193699,12,0,195561,0:2:0:0:
