osu file format v14

[General]
AudioFilename: audio.mp3
AudioLeadIn: 0
PreviewTime: 127550
Countdown: 0
SampleSet: Soft
StackLeniency: 0.3
Mode: 0
LetterboxInBreaks: 0
WidescreenStoryboard: 1

[Editor]
Bookmarks: 16050,32050,48050,64050,80050,96050,112050,128050,144050,160050,174050,176050,188050,192050,208050,224050,238050
DistanceSpacing: 1.5
BeatDivisor: 4
GridSize: 16
TimelineZoom: 1.7

[Metadata]
Title:Dark Paradise
TitleUnicode:Dark Paradise
Artist:Lana Del Rey
ArtistUnicode:Lana Del Rey
Creator:piroshki
Version:Strider's Hard
Source:
Tags:english alternative pop born to die striderin
BeatmapID:2358491
BeatmapSetID:1115488

[Difficulty]
HPDrainRate:5
CircleSize:5.2
OverallDifficulty:5.5
ApproachRate:8
SliderMultiplier:0.999999999999999
SliderTickRate:1

[Events]
//Background and Video events
0,0,"55550732_p000.jpg",0,0
//Break Periods
//Storyboard Layer 0 (Background)
//Storyboard Layer 1 (Fail)
//Storyboard Layer 2 (Pass)
//Storyboard Layer 3 (Foreground)
//Storyboard Layer 4 (Overlay)
//Storyboard Sound Samples

[TimingPoints]
16050,500,4,2,2,35,1,0
16050,-133.333333333333,4,2,2,35,0,0
30550,-133.333333333333,4,2,2,35,0,0
30800,-133.333333333333,4,2,2,35,0,0
32050,-133.333333333333,4,2,1,45,0,0
48050,-100,4,2,1,45,0,0
63050,-100,4,2,1,55,0,0
63550,-80,4,2,1,63,0,0
64050,-80,4,2,1,70,0,1
95550,-80,4,2,1,60,0,1
96050,-133.333333333333,4,2,1,50,0,0
102300,-133.333333333333,4,2,1,50,0,0
102800,-133.333333333333,4,2,1,50,0,0
109300,-133.333333333333,4,2,1,50,0,0
109550,-133.333333333333,4,2,1,50,0,0
109800,-133.333333333333,4,2,1,50,0,0
110050,-133.333333333333,4,2,1,40,0,0
110550,-133.333333333333,4,2,1,40,0,0
110800,-133.333333333333,4,2,1,40,0,0
111050,-133.333333333333,4,2,1,40,0,0
111300,-133.333333333333,4,2,1,40,0,0
111550,-133.333333333333,4,2,1,45,0,0
111800,-133.333333333333,4,2,1,45,0,0
112050,-100,4,2,1,55,0,0
127050,-100,4,2,1,63,0,0
127550,-100,4,2,1,67,0,0
128050,-80,4,2,1,75,0,1
156425,-80,4,2,1,75,0,1
156800,-80,4,2,1,75,0,1
159050,-80,4,2,1,65,0,1
159550,-80,4,2,1,55,0,1
160050,-100,4,2,1,55,0,0
164300,-100,4,2,1,55,0,0
164425,-100,4,2,1,55,0,0
170550,-100,4,2,2,55,0,0
170675,-100,4,2,1,55,0,0
171050,-100,4,2,1,55,0,0
172300,-100,4,2,1,55,0,0
172425,-100,4,2,1,55,0,0
175050,-100,4,2,2,55,0,0
175800,-100,4,2,2,55,0,0
176050,-100,4,2,1,55,0,0
177300,-100,4,2,2,55,0,0
177800,-100,4,2,2,55,0,0
177925,-100,4,2,1,55,0,0
179175,-100,4,2,2,55,0,0
179550,-100,4,2,2,55,0,0
180050,-100,4,2,1,55,0,0
183550,-100,4,2,2,55,0,0
184050,-100,4,2,1,55,0,0
185300,-100,4,2,2,55,0,0
185800,-100,4,2,1,55,0,0
187175,-100,4,2,2,55,0,0
187550,-100,4,2,2,55,0,0
188050,-100,4,2,1,55,0,0
189050,-100,4,2,2,55,0,0
189800,-100,4,2,1,55,0,0
190050,-66.6666666666667,4,2,1,63,0,0
191050,-66.6666666666667,4,2,1,68,0,0
191800,-66.6666666666667,4,2,1,68,0,0
192050,-66.6666666666667,4,2,1,75,0,1
220425,-66.6666666666667,4,2,1,75,0,1
220800,-66.6666666666667,4,2,1,75,0,1
223050,-66.6666666666667,4,2,1,65,0,1
223550,-66.6666666666667,4,2,1,55,0,1
224050,-100,4,2,1,45,0,0
225425,-100,4,2,1,45,0,0
225800,-100,4,2,1,45,0,0
233425,-100,4,2,1,45,0,0
233800,-100,4,2,1,45,0,0
236050,-100,4,2,1,30,0,0
238050,-100,4,2,1,30,0,0

[Colours]
Combo1 : 167,138,109
Combo2 : 198,81,81
Combo3 : 232,148,98
Combo4 : 192,192,192

[HitObjects]
201,189,16050,5,2,3:2:0:0:
202,192,16300,1,0,0:0:0:0:
203,195,16550,1,0,0:0:0:0:
203,195,17050,2,0,B|199:230|202:255|202:255|207:238,1,75.000002861023,0|0,3:0|0:0,0:0:0:0:
304,256,18050,1,2,3:2:0:0:
303,253,18300,2,0,P|306:194|308:171,1,75.000002861023
309,175,19050,2,0,P|293:150|215:159,1,112.500004291535,0|0,3:0|0:0,0:0:0:0:
168,101,20050,5,2,3:2:0:0:
164,100,20300,1,0,0:0:0:0:
160,99,20550,1,0,0:0:0:0:
156,98,20800,1,0,0:0:0:0:
152,97,21050,2,0,B|108:100|92:105|92:105|116:108,1,75.000002861023,0|0,3:0|0:0,0:0:0:0:
139,182,22050,1,2,3:2:0:0:
142,183,22300,1,0,0:0:0:0:
145,184,22550,1,0,0:0:0:0:
145,184,23050,2,0,P|204:187|232:191,1,75.000002861023,0|0,3:0|0:0,0:0:0:0:
366,90,24050,6,0,P|348:122|344:156,1,56.2500021457673,2|0,3:2|0:0,0:0:0:0:
347,161,24550,1,0,0:0:0:0:
376,224,24800,1,0,0:0:0:0:
362,292,25050,1,0,3:0:0:0:
378,227,25300,1,0,0:0:0:0:
349,164,25550,1,0,0:0:0:0:
368,93,25800,1,0,0:0:0:0:
351,167,26050,1,2,3:2:0:0:
370,96,26300,1,0,0:0:0:0:
353,170,26550,1,0,0:0:0:0:
380,230,26800,1,0,0:0:0:0:
364,295,27050,1,0,3:0:0:0:
154,315,28050,5,2,3:2:0:0:
157,314,28300,2,0,P|210:312|247:315,1,75.000002861023
235,315,29050,1,0,3:0:0:0:
251,222,29550,1,0,0:0:0:0:
253,225,30050,1,2,3:2:0:0:
255,228,30550,1,0,0:0:0:0:
194,252,30800,1,2,0:0:0:0:
132,232,31050,1,2,3:2:0:0:
257,231,31550,1,2,0:0:0:0:
134,235,32050,5,6,3:2:0:0:
195,185,32300,2,0,L|276:196,1,75.000002861023,0|2,3:2|3:2,0:0:0:0:
273,195,33050,1,10,3:2:0:0:
306,91,33550,2,0,P|271:95|246:106,1,56.2500021457672,2|0,0:0|3:2,0:0:0:0:
224,97,34050,5,2,3:2:0:0:
175,157,34300,2,0,L|183:237,1,75.000002861023,0|2,3:2|3:2,0:0:0:0:
182,235,35050,2,0,P|173:284|126:328,1,112.500004291534,10|0,3:2|0:0,0:0:0:0:
125,327,36050,5,2,3:2:0:0:
199,298,36300,2,0,L|283:306,1,75.000002861023,0|0,3:2|3:2,0:0:0:0:
277,306,37050,1,10,3:2:0:0:
332,231,37550,2,0,P|366:237|377:242,1,37.5000014305115,2|0,0:0|3:2,0:0:0:0:
384,262,37925,1,0,3:2:0:0:
399,286,38050,5,2,3:2:0:0:
474,254,38300,2,0,L|482:174,1,75.000002861023,0|0,3:2|3:2,0:0:0:0:
480,175,39050,1,10,3:2:0:0:
410,152,39300,1,2,3:2:0:0:
478,171,39550,2,0,L|475:133,1,37.5000014305115,2|0,3:2|0:0,0:0:0:0:
395,52,40050,6,0,P|385:68|381:86,1,37.5000014305115,6|0,3:2|3:2,0:0:0:0:
395,120,40425,1,0,0:0:0:0:
409,151,40550,1,0,0:0:0:0:
387,223,40800,1,2,3:2:0:0:
414,289,41050,1,10,3:2:0:0:
385,226,41300,1,0,0:0:0:0:
407,154,41550,1,2,0:0:0:0:
377,89,41800,1,0,3:2:0:0:
391,123,41925,1,0,3:2:0:0:
405,157,42050,1,2,3:2:0:0:
375,92,42300,1,2,3:2:0:0:
403,160,42550,1,2,0:0:0:0:
383,229,42800,1,0,3:2:0:0:
412,292,43050,1,10,3:2:0:0:
183,337,44050,5,2,3:2:0:0:
224,275,44300,2,0,L|215:193,1,75.000002861023,0|0,3:2|3:2,0:0:0:0:
215,197,45050,1,10,3:2:0:0:
289,112,45550,2,0,P|262:98|246:96,1,37.5000014305115,2|0,0:0|3:2,0:0:0:0:
225,107,45925,1,0,3:2:0:0:
195,117,46050,5,2,3:2:0:0:
137,64,46300,1,0,3:2:0:0:
133,65,46550,2,0,P|118:95|114:114,1,37.5000014305115,2|0,0:0|3:2,0:0:0:0:
133,176,47050,2,0,L|126:217,1,37.5000014305115,10|2,3:2|3:2,0:0:0:0:
64,191,47550,2,0,L|57:232,1,37.5000014305115,2|2,3:2|0:0,0:0:0:0:
153,284,48050,6,0,P|187:287|213:287,1,50,6|2,3:2|3:2,0:0:0:0:
221,270,48425,2,0,P|158:270|125:273,1,74.9999999999999,0|2,0:0|3:2,0:0:0:0:
80,333,49050,2,0,P|46:336|20:336,1,50,10|2,3:2|0:0,0:0:0:0:
12,319,49425,2,0,P|75:319|108:322,1,74.9999999999999
117,338,49925,1,2,3:2:0:0:
147,355,50050,5,2,3:2:0:0:
208,314,50300,2,0,L|309:324,1,99.9999999999999,2|2,3:2|3:2,0:0:0:0:
338,308,50925,1,2,0:0:0:0:
369,293,51050,2,0,P|371:259|370:237,1,50,10|2,3:2|0:0,0:0:0:0:
344,220,51425,1,0,0:0:0:0:
464,130,52050,5,2,3:2:0:0:
418,193,52300,2,0,L|430:303,1,99.9999999999999,0|0,3:2|3:2,0:0:0:0:
430,297,53050,2,0,P|411:349|376:374,1,99.9999999999999,10|2,3:2|0:0,0:0:0:0:
311,328,53800,1,0,3:2:0:0:
277,335,53925,1,0,3:2:0:0:
244,342,54050,5,2,3:2:0:0:
185,288,54300,2,0,L|82:276,1,99.9999999999999,2|0,3:2|3:2,0:0:0:0:
80,276,55050,1,10,3:2:0:0:
123,210,55300,1,2,3:2:0:0:
157,206,55425,1,0,0:0:0:0:
191,203,55550,2,0,P|195:230|196:264,1,50,2|2,3:2|0:0,0:0:0:0:
288,144,56050,6,0,P|286:185|282:208,1,50,6|2,3:2|3:2,0:0:0:0:
262,209,56425,2,0,P|254:145|254:123,1,74.9999999999999,0|2,0:0|3:2,0:0:0:0:
336,65,57050,2,0,P|334:24|330:1,1,50,10|2,3:2|0:0,0:0:0:0:
310,0,57425,2,0,P|302:64|302:86,1,74.9999999999999,0|2,0:0|3:2,0:0:0:0:
318,105,57925,1,0,3:2:0:0:
334,135,58050,5,2,3:2:0:0:
406,115,58300,1,2,3:2:0:0:
465,163,58550,1,2,0:0:0:0:
408,118,58800,1,2,3:2:0:0:
336,138,59050,2,0,P|249:154|186:128,1,150,10|2,3:2|0:0,0:0:0:0:
192,129,60050,5,2,3:2:0:0:
120,161,60300,2,0,L|112:269,1,99.9999999999999,0|0,3:2|3:2,0:0:0:0:
112,264,61050,1,10,3:2:0:0:
22,384,61550,1,2,0:0:0:0:
94,351,61800,1,2,3:2:0:0:
128,358,61925,1,2,3:2:0:0:
162,365,62050,5,2,3:2:0:0:
229,323,62300,1,0,3:2:0:0:
231,327,62550,1,2,0:0:0:0:
286,378,62800,1,2,3:2:0:0:
352,342,63050,2,0,P|390:332|430:333,1,74.9999999999999,10|2,3:2|0:0,0:0:0:0:
438,365,63550,2,0,P|400:365|368:355,1,62.4999999999999,2|2,3:2|0:0,0:0:0:0:
320,241,64050,5,6,3:2:0:0:
376,295,64300,1,2,3:2:0:0:
341,362,64550,1,2,0:0:0:0:
371,296,64800,1,2,3:2:0:0:
316,242,65050,2,0,L|241:251,1,62.4999999999999,10|0,3:2|0:0,0:0:0:0:
341,167,65550,2,0,L|266:176,1,62.4999999999999,2|0,0:0|0:0,0:0:0:0:
245,165,65925,1,0,3:2:0:0:
211,156,66050,5,6,3:2:0:0:
148,206,66300,2,0,P|101:213|33:267,1,125,2|2,3:2|3:2,0:0:0:0:
42,262,67050,2,0,P|89:255|157:201,1,125,8|2,3:2|0:0,0:0:0:0:
207,255,67800,1,2,0:0:0:0:
291,185,68050,5,6,3:2:0:0:
328,257,68300,1,2,3:2:0:0:
408,247,68550,1,2,0:0:0:0:
330,252,68800,1,2,3:2:0:0:
293,181,69050,2,0,P|302:134|338:60,1,125,10|2,3:2|0:0,0:0:0:0:
380,169,69800,1,0,3:2:0:0:
413,163,69925,1,0,3:2:0:0:
447,158,70050,5,6,3:2:0:0:
503,216,70300,2,0,P|494:263|458:337,1,125,2|0,3:2|3:2,0:0:0:0:
458,335,71050,1,10,3:2:0:0:
383,357,71300,1,2,3:2:0:0:
349,350,71425,1,0,0:0:0:0:
315,343,71550,1,2,3:2:0:0:
238,367,71800,1,2,0:0:0:0:
330,268,72050,5,6,3:2:0:0:
312,341,72300,1,0,3:2:0:0:
308,339,72550,1,2,0:0:0:0:
235,365,72800,1,2,3:2:0:0:
327,266,73050,2,0,P|294:232|155:228,1,187.5,10|2,3:2|3:2,0:0:0:0:
167,258,73925,1,2,3:2:0:0:
173,291,74050,5,6,3:2:0:0:
108,337,74300,1,0,3:2:0:0:
107,342,74550,1,2,0:0:0:0:
37,310,74800,1,2,3:2:0:0:
172,295,75050,2,0,L|187:158,1,125,8|2,3:2|0:0,0:0:0:0:
121,135,75800,1,2,0:0:0:0:
243,117,76050,5,6,3:2:0:0:
123,138,76300,2,0,P|52:130|6:91,1,125,2|2,3:2|3:2,0:0:0:0:
21,65,76925,1,0,0:0:0:0:
31,32,77050,1,10,3:2:0:0:
13,93,77300,2,0,P|84:101|130:140,1,125,2|2,0:0|3:2,0:0:0:0:
135,100,77925,1,2,3:2:0:0:
145,67,78050,5,6,3:2:0:0:
210,112,78300,2,0,L|336:98,1,125,0|2,3:2|3:2,0:0:0:0:
325,9,79050,2,0,L|199:23,1,125,14|6,3:2|3:2,0:0:0:0:
204,56,79675,1,2,0:0:0:0:
207,90,79800,1,2,0:0:0:0:
210,124,79925,1,2,0:0:0:0:
213,158,80050,5,6,3:2:0:0:
285,121,80300,1,2,3:2:0:0:
345,174,80550,1,2,0:0:0:0:
284,125,80800,1,2,3:2:0:0:
212,162,81050,2,0,L|219:231,1,62.4999999999999,10|0,3:2|0:0,0:0:0:0:
139,141,81550,2,0,L|146:210,1,62.4999999999999,2|0,0:0|0:0,0:0:0:0:
136,236,81925,1,0,3:2:0:0:
128,269,82050,5,6,3:2:0:0:
187,323,82300,2,0,P|272:327|319:373,1,125,2|2,3:2|3:2,0:0:0:0:
301,354,83050,2,0,P|216:350|169:304,1,125,8|2,3:2|0:0,0:0:0:0:
112,358,83800,1,2,0:0:0:0:
30,273,84050,5,6,3:2:0:0:
87,217,84300,1,2,3:2:0:0:
162,234,84550,1,2,0:0:0:0:
86,213,84800,1,2,3:2:0:0:
29,269,85050,2,0,P|64:308|137:338,1,125,10|2,3:2|0:0,0:0:0:0:
199,298,85800,1,0,3:2:0:0:
233,294,85925,1,0,3:2:0:0:
267,290,86050,5,6,3:2:0:0:
327,239,86300,2,0,P|384:262|427:306,1,125,2|0,3:2|3:2,0:0:0:0:
430,310,87050,1,10,3:2:0:0:
501,272,87300,1,2,3:2:0:0:
495,238,87425,1,0,0:0:0:0:
489,204,87550,1,2,3:2:0:0:
511,127,87800,1,2,0:0:0:0:
410,212,88050,5,6,3:2:0:0:
489,204,88300,1,0,3:2:0:0:
487,200,88550,1,2,0:0:0:0:
510,124,88800,1,2,3:2:0:0:
409,208,89050,2,0,P|363:156|242:137,1,187.5,10|2,3:2|3:2,0:0:0:0:
256,168,89925,1,2,3:2:0:0:
261,201,90050,5,6,3:2:0:0:
222,268,90300,1,0,3:2:0:0:
224,272,90550,1,2,0:0:0:0:
146,270,90800,1,2,3:2:0:0:
262,205,91050,2,0,L|277:77,1,125,10|2,3:2|0:0,0:0:0:0:
347,52,91800,1,2,0:0:0:0:
225,23,92050,5,6,3:2:0:0:
348,56,92300,2,0,P|404:31|466:37,1,125,2|2,3:2|3:2,0:0:0:0:
474,71,92925,1,0,0:0:0:0:
482,104,93050,1,10,3:2:0:0:
467,41,93300,2,0,P|410:65|348:59,1,125,2|2,0:0|3:2,0:0:0:0:
356,93,93925,1,2,3:2:0:0:
364,126,94050,5,6,3:2:0:0:
284,122,94300,2,0,L|272:253,1,125,0|2,3:2|3:2,0:0:0:0:
178,236,95050,2,0,L|190:105,1,125,14|6,3:2|3:2,0:0:0:0:
64,256,96050,5,6,3:2:0:0:
67,258,96300,1,0,0:0:0:0:
70,259,96550,1,0,0:0:0:0:
115,205,96800,1,0,3:2:0:0:
73,261,97050,2,0,B|69:291|68:317|68:317|80:289,1,75.000002861023,10|2,3:2|0:0,0:0:0:0:
183,218,98050,1,2,3:2:0:0:
184,221,98300,2,0,P|188:272|187:302,1,75.000002861023,2|2,3:2|3:2,0:0:0:0:
201,236,99050,2,0,L|329:240,1,112.500004291534,10|0,3:2|0:0,0:0:0:0:
402,156,100050,5,2,3:2:0:0:
398,156,100300,1,0,0:0:0:0:
394,156,100550,1,0,0:0:0:0:
390,156,100800,1,0,3:2:0:0:
386,156,101050,2,0,B|354:155|328:160|328:160|346:147,1,75.000002861023,10|2,3:2|0:0,0:0:0:0:
231,88,102050,2,0,P|219:131|215:152,2,56.2500021457672,2|2|2,3:2|0:0|3:2,0:0:0:0:
260,164,103050,2,0,L|242:47,1,112.500004291534,10|0,3:2|0:0,0:0:0:0:
140,93,104050,5,6,3:2:0:0:
161,25,104300,1,0,0:0:0:0:
142,96,104550,1,0,0:0:0:0:
185,159,104800,1,0,3:2:0:0:
147,226,105050,1,10,3:2:0:0:
187,162,105300,1,2,0:0:0:0:
144,99,105550,1,2,0:0:0:0:
163,28,105800,1,2,0:0:0:0:
146,102,106050,1,2,3:2:0:0:
165,31,106300,1,0,3:2:0:0:
148,105,106550,1,0,0:0:0:0:
189,165,106800,1,0,3:2:0:0:
149,229,107050,1,10,3:2:0:0:
37,45,108050,5,2,3:2:0:0:
38,48,108300,2,0,P|41:98|41:130,1,75.000002861023,2|2,0:0|3:2,0:0:0:0:
26,202,109050,2,0,L|23:244,1,37.5000014305115,10|0,3:2|0:0,0:0:0:0:
86,170,109550,2,0,L|124:165,1,37.5000014305115,2|0,0:0|0:0,0:0:0:0:
412,259,110550,6,0,P|389:255|374:254,1,37.5000014305115
310,301,111050,2,0,L|256:309,1,37.5000014305115
343,361,111550,2,0,L|289:369,1,37.5000014305115
422,350,112050,6,0,P|447:353|477:355,1,50,6|2,3:2|3:2,0:0:0:0:
482,338,112425,2,0,P|424:337|394:339,1,74.9999999999999,0|2,0:0|3:2,0:0:0:0:
366,238,113050,2,0,P|391:235|421:233,1,50,10|2,3:2|0:0,0:0:0:0:
426,250,113425,2,0,P|368:251|338:249,1,74.9999999999999
319,234,113925,1,2,3:2:0:0:
287,218,114050,5,2,3:2:0:0:
229,272,114300,2,0,L|120:288,1,99.9999999999999,2|2,3:2|3:2,0:0:0:0:
108,258,114925,1,2,0:0:0:0:
87,229,115050,2,0,P|114:224|144:221,1,50,10|2,3:2|0:0,0:0:0:0:
151,189,115425,1,0,0:0:0:0:
26,64,116050,5,2,3:2:0:0:
93,101,116300,2,0,P|141:91|201:85,1,99.9999999999999,0|0,3:2|3:2,0:0:0:0:
195,87,117050,2,0,P|243:105|260:150,1,99.9999999999999,10|2,3:2|0:0,0:0:0:0:
200,201,117800,1,0,3:2:0:0:
194,235,117925,1,0,3:2:0:0:
189,269,118050,5,2,3:2:0:0:
110,256,118300,2,0,L|104:155,1,99.9999999999999,2|0,3:2|3:2,0:0:0:0:
103,152,119050,1,10,3:2:0:0:
143,82,119300,1,2,3:2:0:0:
136,47,119425,1,0,0:0:0:0:
129,12,119550,2,0,P|82:8|71:8,1,50,2|2,3:2|0:0,0:0:0:0:
18,137,120050,6,0,P|15:103|14:74,1,50,6|2,3:2|3:2,0:0:0:0:
40,70,120425,2,0,P|41:123|36:158,1,74.9999999999999,0|2,0:0|3:2,0:0:0:0:
134,230,121050,2,0,P|137:196|138:167,1,50,10|2,3:2|0:0,0:0:0:0:
112,163,121425,2,0,P|111:216|116:251,1,74.9999999999999,0|2,0:0|3:2,0:0:0:0:
126,270,121925,1,0,3:2:0:0:
139,302,122050,5,2,3:2:0:0:
61,297,122300,1,2,3:2:0:0:
4,352,122550,1,2,0:0:0:0:
63,300,122800,1,2,3:2:0:0:
141,305,123050,2,0,P|201:304|297:263,1,150,10|2,3:2|0:0,0:0:0:0:
286,269,124050,5,2,3:2:0:0:
342,323,124300,2,0,L|446:333,1,99.9999999999999,0|0,3:2|3:2,0:0:0:0:
446,333,125050,1,10,3:2:0:0:
506,167,125550,1,2,0:0:0:0:
448,221,125800,1,2,3:2:0:0:
413,225,125925,1,2,3:2:0:0:
378,229,126050,5,2,3:2:0:0:
312,189,126300,1,0,3:2:0:0:
310,193,126550,1,2,0:0:0:0:
265,256,126800,1,2,3:2:0:0:
193,220,127050,2,0,P|165:254|151:275,1,50,10|2,3:2|3:2,0:0:0:0:
96,221,127550,1,2,3:2:0:0:
92,187,127675,1,2,0:0:0:0:
87,152,127800,1,2,0:0:0:0:
83,117,127925,1,2,0:0:0:0:
79,82,128050,5,6,3:2:0:0:
154,111,128300,1,2,3:2:0:0:
210,57,128550,1,2,0:0:0:0:
155,115,128800,1,2,3:2:0:0:
81,85,129050,2,0,L|74:180,1,93.7499999999999,10|0,3:2|0:0,0:0:0:0:
46,199,129550,2,0,L|39:284,1,62.4999999999999,2|0,0:0|0:0,0:0:0:0:
44,295,129925,1,0,3:2:0:0:
47,329,130050,5,6,3:2:0:0:
125,297,130300,2,0,P|188:290|242:324,1,125,2|2,3:2|3:2,0:0:0:0:
238,327,131050,2,0,P|175:334|121:300,1,125,8|2,3:2|0:0,0:0:0:0:
85,236,131800,1,2,0:0:0:0:
197,201,132050,5,6,3:2:0:0:
257,251,132300,1,2,3:2:0:0:
331,227,132550,1,2,0:0:0:0:
256,255,132800,1,2,3:2:0:0:
196,205,133050,2,0,P|169:147|166:68,1,125,10|2,3:2|0:0,0:0:0:0:
274,148,133800,1,0,3:2:0:0:
307,139,133925,1,0,3:2:0:0:
340,131,134050,5,6,3:2:0:0:
411,169,134300,2,0,P|438:227|441:306,1,125,2|0,3:2|3:2,0:0:0:0:
442,291,135050,1,10,3:2:0:0:
382,345,135300,1,2,3:2:0:0:
348,338,135425,1,0,0:0:0:0:
314,331,135550,1,2,3:2:0:0:
281,258,135800,1,2,0:0:0:0:
380,170,136050,5,6,3:2:0:0:
362,247,136300,1,0,3:2:0:0:
364,251,136550,1,2,0:0:0:0:
283,261,136800,1,2,3:2:0:0:
381,173,137050,2,0,P|332:124|205:127,1,187.5,10|2,3:2|3:2,0:0:0:0:
213,153,137925,1,2,3:2:0:0:
208,187,138050,5,6,3:2:0:0:
276,229,138300,1,0,3:2:0:0:
279,226,138550,1,2,0:0:0:0:
267,305,138800,1,2,3:2:0:0:
208,187,139050,2,0,L|195:53,1,125,8|2,3:2|0:0,0:0:0:0:
129,44,139800,1,2,0:0:0:0:
243,9,140050,5,6,3:2:0:0:
129,44,140300,2,0,P|76:19|3:31,1,125,2|2,3:2|3:2,0:0:0:0:
6,60,140925,1,0,0:0:0:0:
0,93,141050,1,10,3:2:0:0:
11,31,141300,2,0,P|64:56|137:44,1,125,2|2,0:0|3:2,0:0:0:0:
122,82,141925,1,2,3:2:0:0:
116,115,142050,5,6,3:2:0:0:
192,101,142300,2,0,L|205:234,1,125,0|2,3:2|3:2,0:0:0:0:
299,215,143050,2,0,L|286:90,1,125,14|6,3:2|3:2,0:0:0:0:
320,96,143675,1,2,0:0:0:0:
353,101,143800,1,2,0:0:0:0:
386,107,143925,1,2,0:0:0:0:
419,113,144050,5,6,3:2:0:0:
492,80,144300,1,2,3:2:0:0:
503,3,144550,1,2,0:0:0:0:
495,83,144800,1,2,3:2:0:0:
422,116,145050,2,0,L|411:210,1,93.7499999999999,10|0,3:2|0:0,0:0:0:0:
439,228,145550,2,0,L|449:302,1,62.4999999999999,2|0,0:0|0:0,0:0:0:0:
445,324,145925,1,0,3:2:0:0:
442,358,146050,5,6,3:2:0:0:
374,323,146300,2,0,P|308:318|249:353,1,125,2|2,3:2|3:2,0:0:0:0:
258,350,147050,2,0,P|324:355|383:320,1,125,8|2,3:2|0:0,0:0:0:0:
411,261,147800,1,2,0:0:0:0:
299,210,148050,5,6,3:2:0:0:
239,260,148300,1,2,3:2:0:0:
164,232,148550,1,2,0:0:0:0:
238,264,148800,1,2,3:2:0:0:
298,214,149050,2,0,P|314:154|365:98,1,125,10|2,3:2|0:0,0:0:0:0:
431,141,149800,1,0,3:2:0:0:
421,173,149925,1,0,3:2:0:0:
411,206,150050,5,6,3:2:0:0:
453,274,150300,2,0,P|437:334|386:390,1,125,2|0,3:2|3:2,0:0:0:0:
393,383,151050,1,10,3:2:0:0:
336,326,151300,1,2,3:2:0:0:
301,330,151425,1,0,0:0:0:0:
266,334,151550,1,2,3:2:0:0:
197,293,151800,1,2,0:0:0:0:
285,195,152050,5,6,3:2:0:0:
210,216,152300,1,0,3:2:0:0:
207,213,152550,1,2,0:0:0:0:
195,290,152800,1,2,3:2:0:0:
284,192,153050,2,0,P|211:130|112:141,1,187.5,10|2,3:2|3:2,0:0:0:0:
127,170,153925,1,2,3:2:0:0:
131,204,154050,5,6,3:2:0:0:
78,260,154300,1,0,3:2:0:0:
79,264,154550,1,2,0:0:0:0:
4,241,154800,1,2,3:2:0:0:
132,208,155050,2,0,L|144:56,1,125,10|2,3:2|0:0,0:0:0:0:
198,38,155800,1,2,0:0:0:0:
74,55,156050,6,0,L|81:140,1,62.4999999999999,6|2,3:2|3:2,0:0:0:0:
44,114,156425,1,0,0:0:0:0:
9,111,156550,1,0,0:0:0:0:
69,188,156800,1,2,3:2:0:0:
161,135,157050,2,0,P|235:117|286:131,1,125,10|0,3:2|0:0,0:0:0:0:
363,60,157800,1,2,3:2:0:0:
360,94,157925,1,2,3:2:0:0:
357,128,158050,5,6,3:2:0:0:
417,180,158300,1,0,3:2:0:0:
399,257,158550,2,0,P|399:309|408:337,1,62.4999999999999,6|2,0:0|3:2,0:0:0:0:
321,283,159050,2,0,P|303:309|294:337,1,62.4999999999999,14|2,3:2|3:2,0:0:0:0:
246,247,159550,1,6,3:2:0:0:
211,250,159675,1,2,0:0:0:0:
178,262,159800,1,2,0:0:0:0:
150,282,159925,1,2,0:0:0:0:
127,310,160050,6,0,B|52:304|52:304|50:340,1,99.9999999999999,6|8,3:2|3:2,0:0:0:0:
51,334,160800,1,0,0:0:0:0:
55,233,161050,2,0,L|58:138,2,74.9999999999999,0|0|0,3:2|3:2|3:2,0:0:0:0:
125,263,162050,2,0,P|165:223|224:213,1,99.9999999999999,6|8,3:2|3:2,0:0:0:0:
405,148,163050,6,0,P|362:152|343:163,1,50,0|0,3:2|0:0,0:0:0:0:
354,189,163425,1,0,3:2:0:0:
351,223,163550,1,8,3:2:0:0:
294,275,163800,1,0,3:2:0:0:
422,253,164050,2,0,P|432:305|433:321,1,50,6|0,3:2|0:0,0:0:0:0:
396,307,164425,1,0,0:0:0:0:
361,312,164550,1,8,3:2:0:0:
319,373,164800,1,0,0:0:0:0:
396,384,165050,5,0,3:2:0:0:
488,284,165425,1,0,3:2:0:0:
469,254,165550,2,0,L|473:193,1,50,8|0,3:2|3:2,0:0:0:0:
473,199,166050,1,6,3:2:0:0:
348,92,166550,6,0,P|392:104|412:113,1,50,8|0,3:2|0:0,0:0:0:0:
431,29,167050,2,0,P|465:58|489:93,1,74.9999999999999,0|0,3:2|3:2,0:0:0:0:
480,117,167550,1,8,3:2:0:0:
505,188,167800,1,0,3:2:0:0:
405,126,168050,6,0,B|331:129|331:129|330:93,1,99.9999999999999,6|8,3:2|3:2,0:0:0:0:
330,98,168800,1,0,0:0:0:0:
336,201,169050,2,0,L|339:294,2,74.9999999999999,0|0|0,3:2|3:2|3:2,0:0:0:0:
270,166,170050,2,0,P|222:192|182:241,1,99.9999999999999,6|0,3:2|3:2,0:0:0:0:
86,23,171050,6,0,P|125:30|151:39,1,50,0|0,3:2|0:0,0:0:0:0:
138,67,171425,1,0,3:2:0:0:
141,101,171550,1,8,3:2:0:0:
206,20,171800,1,0,3:2:0:0:
224,119,172050,2,0,P|215:157|214:189,1,50,6|0,3:2|0:0,0:0:0:0:
249,171,172425,1,0,0:0:0:0:
283,175,172550,1,8,3:2:0:0:
328,118,172800,1,0,0:0:0:0:
351,200,173050,1,0,3:2:0:0:
438,293,173425,1,0,3:2:0:0:
416,320,173550,2,0,L|357:327,2,50,8|0|6,3:2|3:2|3:2,0:0:0:0:
453,24,175800,5,0,3:2:0:0:
473,95,176050,1,6,3:2:0:0:
449,24,176300,2,0,L|343:19,1,99.9999999999999,0|0,3:2|3:2,0:0:0:0:
311,85,177050,2,0,P|258:83|168:122,1,150,2|0,3:2|3:2,0:0:0:0:
205,123,177925,1,0,3:2:0:0:
239,126,178050,5,2,3:2:0:0:
202,194,178300,1,0,3:2:0:0:
241,260,178550,1,0,0:0:0:0:
217,335,178800,1,0,3:2:0:0:
199,195,179050,2,0,L|320:189,1,99.9999999999999,10|0,3:2|3:2,0:0:0:0:
333,193,179675,1,0,3:2:0:0:
367,195,179800,1,0,3:2:0:0:
401,198,179925,1,0,3:2:0:0:
435,201,180050,6,0,L|429:254,1,50,6|0,3:2|3:2,0:0:0:0:
452,277,180425,2,0,L|459:332,1,50
442,358,180800,1,0,3:2:0:0:
366,340,181050,1,2,3:2:0:0:
441,354,181300,2,0,L|429:247,1,99.9999999999999,0|0,3:2|3:2,0:0:0:0:
434,219,181925,1,0,3:2:0:0:
438,184,182050,5,2,3:2:0:0:
399,119,182300,1,0,3:2:0:0:
435,57,182550,1,0,0:0:0:0:
383,2,182800,1,0,3:2:0:0:
403,122,183050,1,10,3:2:0:0:
439,60,183300,1,0,3:2:0:0:
407,125,183550,2,0,L|335:131,1,50,0|0,3:2|3:2,0:0:0:0:
327,110,183925,1,0,3:2:0:0:
297,91,184050,5,6,3:2:0:0:
239,145,184300,2,0,L|124:140,1,99.9999999999999,0|0,3:2|3:2,0:0:0:0:
72,184,185050,2,0,P|49:124|63:36,1,150,2|0,3:2|3:2,0:0:0:0:
66,75,185925,1,0,3:2:0:0:
71,109,186050,5,2,3:2:0:0:
142,76,186300,1,0,3:2:0:0:
204,127,186550,1,0,0:0:0:0:
279,103,186800,1,0,3:2:0:0:
141,80,187050,2,0,L|134:185,1,99.9999999999999,10|0,3:2|3:2,0:0:0:0:
138,214,187675,1,0,3:2:0:0:
142,248,187800,1,0,3:2:0:0:
146,282,187925,1,0,3:2:0:0:
150,316,188050,5,6,3:2:0:0:
223,296,188300,1,2,3:2:0:0:
285,340,188550,2,0,L|358:347,1,50,0|0,0:0|3:2,0:0:0:0:
338,346,189050,1,2,3:2:0:0:
308,273,189300,2,0,P|316:206|339:164,1,99.9999999999999,0|0,3:2|3:2,0:0:0:0:
364,176,189925,1,0,3:2:0:0:
398,175,190050,6,0,B|430:134|416:83|364:69|330:104|330:104|331:144|331:144|328:156|328:156|337:178|337:178|335:183|335:183|339:241|339:241|266:184|266:184|229:159|225:110|260:80|310:94,1,525.000020027161,2|2,3:2|2:2,0:0:0:0:
403,19,192050,5,6,3:2:0:0:
368,90,192300,1,2,3:2:0:0:
408,156,192550,1,2,0:0:0:0:
372,92,192800,1,2,3:2:0:0:
407,21,193050,2,0,L|396:146,1,112.500004291534,10|0,3:2|0:0,0:0:0:0:
374,158,193550,2,0,L|381:268,1,75.000002861023,2|0,0:0|0:0,0:0:0:0:
372,266,193925,1,0,3:2:0:0:
365,299,194050,5,6,3:2:0:0:
289,284,194300,2,0,P|204:281|141:329,1,150.000005722046,2|2,3:2|3:2,0:0:0:0:
154,322,195050,2,0,P|239:325|302:277,1,150.000005722046,8|2,3:2|0:0,0:0:0:0:
299,213,195800,1,2,0:0:0:0:
432,304,196050,5,6,3:2:0:0:
364,265,196300,1,2,3:2:0:0:
291,287,196550,1,2,0:0:0:0:
364,261,196800,1,2,3:2:0:0:
432,300,197050,2,0,P|459:228|448:142,1,150.000005722046,10|2,3:2|0:0,0:0:0:0:
359,184,197800,1,0,3:2:0:0:
325,180,197925,1,0,3:2:0:0:
291,177,198050,5,6,3:2:0:0:
217,208,198300,2,0,P|190:136|201:50,1,150.000005722046,2|0,3:2|3:2,0:0:0:0:
197,60,199050,1,10,3:2:0:0:
130,19,199300,1,2,3:2:0:0:
96,22,199425,1,0,0:0:0:0:
62,25,199550,1,2,3:2:0:0:
5,77,199800,1,2,0:0:0:0:
50,172,200050,5,6,3:2:0:0:
79,100,200300,1,0,3:2:0:0:
75,97,200550,1,2,0:0:0:0:
153,92,200800,1,2,3:2:0:0:
47,170,201050,2,0,P|97:236|244:254,1,225.000008583069,10|2,3:2|3:2,0:0:0:0:
234,225,201925,1,2,3:2:0:0:
237,191,202050,5,6,3:2:0:0:
309,156,202300,1,0,3:2:0:0:
308,152,202550,1,2,0:0:0:0:
368,202,202800,1,2,3:2:0:0:
236,187,203050,2,0,L|248:341,1,150.000005722046,8|2,3:2|0:0,0:0:0:0:
180,365,203800,1,2,0:0:0:0:
306,384,204050,5,6,3:2:0:0:
180,365,204300,2,0,P|134:336|34:348,1,150.000005722046,2|2,3:2|3:2,0:0:0:0:
46,309,204925,1,0,0:0:0:0:
51,275,205050,1,10,3:2:0:0:
41,350,205300,2,0,P|87:379|187:367,1,150.000005722046,2|2,0:0|3:2,0:0:0:0:
184,337,205925,1,2,3:2:0:0:
189,303,206050,5,6,3:2:0:0:
258,342,206300,2,0,L|413:331,1,150.000005722046,0|2,3:2|3:2,0:0:0:0:
399,233,207050,2,0,L|249:243,1,150.000005722046,14|6,3:2|3:2,0:0:0:0:
253,209,207675,1,2,0:0:0:0:
257,175,207800,1,2,0:0:0:0:
261,141,207925,1,2,0:0:0:0:
265,107,208050,5,6,3:2:0:0:
323,56,208300,1,2,3:2:0:0:
401,73,208550,1,2,0:0:0:0:
323,52,208800,1,2,3:2:0:0:
265,103,209050,2,0,L|147:95,1,112.500004291534,10|0,3:2|0:0,0:0:0:0:
131,121,209550,2,0,L|141:198,1,75.000002861023,2|0,0:0|0:0,0:0:0:0:
137,229,209925,1,0,3:2:0:0:
134,262,210050,5,6,3:2:0:0:
207,232,210300,2,0,P|279:225|352:277,1,150.000005722046,2|2,3:2|3:2,0:0:0:0:
342,270,211050,2,0,P|270:277|197:225,1,150.000005722046,8|2,3:2|0:0,0:0:0:0:
179,169,211800,1,2,0:0:0:0:
286,195,212050,5,6,3:2:0:0:
341,139,212300,1,2,3:2:0:0:
419,153,212550,1,2,0:0:0:0:
340,136,212800,1,2,3:2:0:0:
285,192,213050,2,0,P|281:264|329:352,1,150.000005722046,10|2,3:2|0:0,0:0:0:0:
215,302,213800,1,0,3:2:0:0:
181,305,213925,1,0,3:2:0:0:
147,308,214050,5,6,3:2:0:0:
75,278,214300,2,0,P|105:210|102:136,1,150.000005722046,2|0,3:2|3:2,0:0:0:0:
101,132,215050,1,10,3:2:0:0:
154,77,215300,1,2,3:2:0:0:
188,80,215425,1,0,0:0:0:0:
222,83,215550,1,2,3:2:0:0:
298,60,215800,1,2,0:0:0:0:
348,182,216050,5,6,3:2:0:0:
363,105,216300,1,0,3:2:0:0:
367,103,216550,1,2,0:0:0:0:
302,58,216800,1,2,3:2:0:0:
352,180,217050,2,0,P|315:243|155:231,1,225.000008583069,10|2,3:2|3:2,0:0:0:0:
179,215,217925,1,2,3:2:0:0:
183,181,218050,5,6,3:2:0:0:
112,148,218300,1,0,3:2:0:0:
111,144,218550,1,2,0:0:0:0:
53,199,218800,1,2,3:2:0:0:
182,177,219050,2,0,L|193:332,1,150.000005722046,10|2,3:2|0:0,0:0:0:0:
139,376,219800,1,2,0:0:0:0:
263,340,220050,6,0,L|268:246,1,75.000002861023,6|2,3:2|3:2,0:0:0:0:
300,268,220425,1,0,0:0:0:0:
333,271,220550,1,0,0:0:0:0:
398,229,220800,1,2,3:2:0:0:
353,337,221050,2,0,P|411:318|481:327,1,112.500004291534,10|0,3:2|0:0,0:0:0:0:
488,342,221550,2,0,L|496:258,1,75.000002861023,0|2,0:0|3:2,0:0:0:0:
490,233,221925,1,2,3:2:0:0:
485,199,222050,5,6,3:2:0:0:
510,124,222300,1,0,3:2:0:0:
477,57,222550,2,0,P|427:37|386:38,1,75.000002861023,6|2,0:0|3:2,0:0:0:0:
317,133,223050,2,0,P|351:118|388:114,1,75.000002861023,14|2,3:2|3:2,0:0:0:0:
465,177,223550,1,6,3:2:0:0:
431,185,223675,1,2,0:0:0:0:
402,202,223800,1,2,0:0:0:0:
378,226,223925,1,2,0:0:0:0:
364,257,224050,1,6,3:2:0:0:
139,245,224800,5,2,0:0:0:0:
194,198,225050,2,0,L|275:206,2,74.9999999999999,2|0|2,0:0|0:0|0:0,0:0:0:0:
191,197,227050,5,2,3:2:0:0:
152,137,227300,1,2,0:0:0:0:
178,68,227550,1,2,0:0:0:0:
251,56,227800,1,2,0:0:0:0:
306,109,228050,6,0,P|352:131|391:132,2,74.9999999999999,2|0|0,0:0|0:0|0:0,0:0:0:0:
288,181,229050,2,0,P|296:231|301:292,1,99.9999999999999,2|0,0:0|0:0,0:0:0:0:
300,284,229800,2,0,P|245:262|166:312,1,150,2|0,0:0|0:0,0:0:0:0:
292,361,231050,5,2,3:2:0:0:
413,314,231550,1,2,0:0:0:0:
444,199,232050,1,6,3:2:0:0:
443,195,232800,5,2,0:0:0:0:
386,143,233050,2,0,L|291:153,2,74.9999999999999,2|0|2,0:0|0:0|0:0,0:0:0:0:
390,142,235050,5,2,3:2:0:0:
398,70,235300,1,0,0:0:0:0:
342,23,235550,1,0,0:0:0:0:
269,33,235800,1,0,0:0:0:0:
240,96,236050,6,0,L|153:90,2,74.9999999999999,10|2|2,3:2|0:0|0:0,0:0:0:0:
244,97,237050,1,2,0:0:0:0:
338,196,237550,1,2,0:0:0:0:
299,255,237800,2,0,L|305:322,1,50,2|0,0:0|0:0,0:0:0:0:
