osu file format v14

[General]
AudioFilename: audioo.mp3
AudioLeadIn: 0
PreviewTime: 17971
Countdown: 0
SampleSet: Soft
StackLeniency: 0.2
Mode: 0
LetterboxInBreaks: 0
WidescreenStoryboard: 0

[Editor]
DistanceSpacing: 0.5
BeatDivisor: 8
GridSize: 32
TimelineZoom: 1

[Metadata]
Title:Cola
TitleUnicode:Cola
Artist:Lana Del Rey
ArtistUnicode:Lana Del Rey
Creator:jas
Version:Exotic Ecstasy
Source:
Tags:craezy alt alternative pop english btd born to die the paradise edition ep ldr lizzy elizabeth grant
BeatmapID:2592619
BeatmapSetID:1247344

[Difficulty]
HPDrainRate:5
CircleSize:4.5
OverallDifficulty:6.5
ApproachRate:7.7
SliderMultiplier:1.4
SliderTickRate:1

[Events]
//Background and Video events
0,0,"bURyYXB - Imgur.jpg",0,0
//Break Periods
//Storyboard Layer 0 (Background)
//Storyboard Layer 1 (Fail)
//Storyboard Layer 2 (Pass)
//Storyboard Layer 3 (Foreground)
//Storyboard Layer 4 (Overlay)
//Storyboard Sound Samples

[TimingPoints]
517,600,4,2,2,15,1,0
517,-200,4,2,2,15,0,0
2167,-100,4,2,0,5,0,0
2317,-133.333333333333,4,2,3,15,0,0
2767,-133.333333333333,4,2,0,5,0,0
2917,526.315789473684,4,2,4,15,1,0
2917,-133.333333333333,4,2,4,15,0,0
4888,-133.333333333333,4,2,0,5,0,0
5022,535.714285714286,4,2,2,15,1,0
5022,-200,4,2,5,15,0,0
7033,-200,4,2,0,5,0,0
7164,521.739130434783,4,2,2,15,1,0
7164,-400,4,2,6,15,0,0
8729,-400,4,2,0,5,0,0
9250,545.454545454546,4,2,10,40,1,0
9250,-400,4,2,10,40,0,0
9522,-400,4,2,11,40,0,0
9795,566.037735849057,4,2,1,40,1,0
9795,-200,4,2,12,40,0,0
9801,-200,4,2,2,15,0,0
10785,-200,4,2,0,5,0,0
10927,-133.333333333333,4,2,3,15,0,0
11351,-133.333333333333,4,2,0,5,0,0
11493,480,4,2,13,40,1,0
11493,-133.333333333333,4,2,13,40,0,0
11733,545.454545454546,4,2,11,40,1,0
11733,-133.333333333333,4,2,11,40,0,0
12005,545.454545454546,4,2,12,40,1,0
12005,-133.333333333333,4,2,12,40,0,0
12011,-133.333333333333,4,2,4,15,0,0
13505,-133.333333333333,4,2,0,5,0,0
13641,-133.333333333333,4,2,14,40,0,0
13914,-133.333333333333,4,2,15,40,0,0
14186,540.540540540541,4,2,17,5,1,0
14186,-200,4,2,17,40,0,0
14192,-200,4,2,5,15,0,0
15672,-200,4,2,0,5,0,0
15807,480,4,2,14,40,1,0
15807,-200,4,2,14,40,0,0
16047,576.923076923077,4,2,16,40,1,0
16047,-200,4,2,16,40,0,0
16335,545.454545454546,4,2,1,40,1,0
16335,-400,4,2,18,40,0,0
16341,-400,4,2,6,15,0,0
17426,-400,4,2,0,5,0,0
17971,545.454545454546,4,2,30,40,1,0
17971,-100,4,2,30,40,0,0
35426,-83.3333333333333,4,2,90,45,0,0
35698,-83.3333333333333,4,2,30,45,0,0
37607,-83.3333333333333,4,2,91,45,0,0
37880,-83.3333333333333,4,2,30,45,0,0
39789,-83.3333333333333,4,2,92,45,0,0
40062,-83.3333333333333,4,2,30,45,0,0
41971,-83.3333333333333,4,2,93,45,0,0
42244,-83.3333333333333,4,2,30,45,0,0
44153,-83.3333333333333,4,2,90,45,0,0
44426,-83.3333333333333,4,2,30,45,0,0
46335,-83.3333333333333,4,2,91,45,0,0
46607,-83.3333333333333,4,2,30,45,0,0
48517,-83.3333333333333,4,2,92,45,0,0
48789,-83.3333333333333,4,2,30,45,0,0
50698,-83.3333333333333,4,2,93,45,0,0
50971,-83.3333333333333,4,2,30,45,0,0
52880,-66.6666666666667,4,2,90,55,0,1
53153,-66.6666666666667,4,2,31,55,0,1
55062,-66.6666666666667,4,2,91,55,0,1
55335,-66.6666666666667,4,2,31,55,0,1
57244,-66.6666666666667,4,2,92,55,0,1
57517,-66.6666666666667,4,2,31,55,0,1
59426,-66.6666666666667,4,2,93,55,0,1
59698,-66.6666666666667,4,2,31,55,0,1
61607,-66.6666666666667,4,2,90,55,0,1
61880,-66.6666666666667,4,2,31,55,0,1
63789,-66.6666666666667,4,2,91,55,0,1
64062,-66.6666666666667,4,2,31,55,0,1
65971,-66.6666666666667,4,2,92,55,0,1
66244,-66.6666666666667,4,2,31,55,0,1
68153,-66.6666666666667,4,2,93,55,0,1
68426,-66.6666666666667,4,2,31,55,0,1
70198,-66.6666666666667,4,2,31,55,0,0
70334,-66.6666666666667,4,2,90,55,0,1
70607,-66.6666666666667,4,2,31,55,0,1
72517,-66.6666666666667,4,2,91,55,0,1
72789,-66.6666666666667,4,2,31,55,0,1
74698,-66.6666666666667,4,2,92,55,0,1
74971,-66.6666666666667,4,2,31,55,0,1
76880,-66.6666666666667,4,2,93,55,0,1
77153,-66.6666666666667,4,2,31,55,0,1
78925,-66.6666666666667,4,2,31,55,0,0
79061,-66.6666666666667,4,2,90,55,0,1
79335,-66.6666666666667,4,2,31,55,0,1
81244,-66.6666666666667,4,2,91,55,0,1
81517,-66.6666666666667,4,2,31,55,0,1
83426,-66.6666666666667,4,2,92,55,0,1
83698,-66.6666666666667,4,2,31,55,0,1
85607,-66.6666666666667,4,2,93,55,0,1
85880,-66.6666666666667,4,2,31,55,0,1
87789,-90.9090909090909,4,2,30,45,0,0
105244,-76.9230769230769,4,2,90,50,0,0
105517,-76.9230769230769,4,2,30,50,0,0
107426,-76.9230769230769,4,2,91,50,0,0
107698,-76.9230769230769,4,2,30,50,0,0
109607,-76.9230769230769,4,2,92,50,0,0
109880,-76.9230769230769,4,2,30,50,0,0
111789,-76.9230769230769,4,2,93,50,0,0
112062,-76.9230769230769,4,2,30,50,0,0
113971,-76.9230769230769,4,2,90,50,0,0
114244,-76.9230769230769,4,2,30,50,0,0
116153,-76.9230769230769,4,2,91,50,0,0
116426,-76.9230769230769,4,2,30,50,0,0
118335,-76.9230769230769,4,2,92,50,0,0
118607,-76.9230769230769,4,2,30,50,0,0
120517,-76.9230769230769,4,2,93,50,0,0
120789,-76.9230769230769,4,2,30,50,0,0
122698,-62.5,4,2,90,60,0,1
122971,-62.5,4,2,31,60,0,1
124880,-62.5,4,2,91,60,0,1
125153,-62.5,4,2,31,60,0,1
127062,-62.5,4,2,92,60,0,1
127335,-62.5,4,2,31,60,0,1
129244,-62.5,4,2,93,60,0,1
129517,-62.5,4,2,31,60,0,1
131426,-62.5,4,2,90,60,0,1
131698,-62.5,4,2,31,60,0,1
133607,-62.5,4,2,91,60,0,1
133880,-62.5,4,2,31,60,0,1
135789,-62.5,4,2,92,60,0,1
136062,-62.5,4,2,31,60,0,1
137971,-62.5,4,2,93,60,0,1
138244,-62.5,4,2,31,60,0,1
140016,-62.5,4,2,31,60,0,0
140152,-60.6060606060606,4,2,90,60,0,1
140426,-60.6060606060606,4,2,31,60,0,1
142335,-60.6060606060606,4,2,91,60,0,1
142607,-60.6060606060606,4,2,31,60,0,1
144517,-60.6060606060606,4,2,92,60,0,1
144789,-60.6060606060606,4,2,31,60,0,1
146698,-60.6060606060606,4,2,93,60,0,1
146971,-60.6060606060606,4,2,31,60,0,1
148880,-83.3333333333333,4,2,30,55,0,0
175061,-58.8235294117647,4,2,90,65,0,1
175335,-58.8235294117647,4,2,31,65,0,1
177244,-58.8235294117647,4,2,91,65,0,1
177517,-58.8235294117647,4,2,31,65,0,1
179426,-58.8235294117647,4,2,92,65,0,1
179698,-58.8235294117647,4,2,31,65,0,1
181607,-58.8235294117647,4,2,93,65,0,1
181880,-58.8235294117647,4,2,31,65,0,1
183789,-58.8235294117647,4,2,90,65,0,1
184062,-58.8235294117647,4,2,31,65,0,1
185971,-58.8235294117647,4,2,91,65,0,1
186244,-58.8235294117647,4,2,31,65,0,1
188153,-58.8235294117647,4,2,92,65,0,1
188426,-58.8235294117647,4,2,31,65,0,1
190335,-58.8235294117647,4,2,93,65,0,1
190607,-58.8235294117647,4,2,31,65,0,1
192380,-58.8235294117647,4,2,31,65,0,0
192516,-58.8235294117647,4,2,90,65,0,1
192789,-58.8235294117647,4,2,31,65,0,1
194698,-58.8235294117647,4,2,91,65,0,1
194971,-58.8235294117647,4,2,31,65,0,1
196880,-58.8235294117647,4,2,92,65,0,1
197153,-58.8235294117647,4,2,31,65,0,1
199062,-58.8235294117647,4,2,93,65,0,1
199335,-58.8235294117647,4,2,31,65,0,1
201244,-58.8235294117647,4,2,90,65,0,1
201517,-58.8235294117647,4,2,31,65,0,1
203426,-58.8235294117647,4,2,91,65,0,1
203698,-58.8235294117647,4,2,31,65,0,1
205607,-58.8235294117647,4,2,92,65,0,1
205880,-58.8235294117647,4,2,31,65,0,1
207789,-58.8235294117647,4,2,93,65,0,1
208062,-58.8235294117647,4,2,31,65,0,1
209834,-58.8235294117647,4,2,31,65,0,0
209971,-57.1428571428571,4,2,90,65,0,1
210244,-57.1428571428571,4,2,31,65,0,1
212153,-57.1428571428571,4,2,91,65,0,1
212426,-57.1428571428571,4,2,31,65,0,1
214335,-57.1428571428571,4,2,92,65,0,1
214607,-57.1428571428571,4,2,31,65,0,1
216517,-57.1428571428571,4,2,93,65,0,1
216789,-57.1428571428571,4,2,31,65,0,1
218698,-57.1428571428571,4,2,90,65,0,1
218971,-57.1428571428571,4,2,31,65,0,1
220880,-57.1428571428571,4,2,91,65,0,1
221153,-57.1428571428571,4,2,31,65,0,1
223062,-57.1428571428571,4,2,92,65,0,1
223335,-57.1428571428571,4,2,31,65,0,1
225244,-57.1428571428571,4,2,93,65,0,1
225517,-57.1428571428571,4,2,31,65,0,1
227425,-58.8235294117647,4,2,90,65,0,0
227698,-58.8235294117647,4,2,31,65,0,0
229607,-60.6060606060606,4,2,91,60,0,0
229880,-60.6060606060606,4,2,31,60,0,0
231789,-62.5,4,2,92,55,0,0
232062,-62.5,4,2,31,55,0,0
233971,-64.5161290322581,4,2,93,50,0,0
234244,-64.5161290322581,4,2,31,50,0,0
236153,-66.6666666666667,4,2,90,45,0,0
236426,-66.6666666666667,4,2,31,45,0,0
238335,-68.9655172413793,4,2,91,40,0,0
238607,-68.9655172413793,4,2,31,40,0,0
240517,-71.4285714285714,4,2,92,35,0,0
240789,-71.4285714285714,4,2,31,35,0,0
242698,-74.0740740740741,4,2,93,30,0,0
242971,-74.0740740740741,4,2,31,30,0,0
244880,-76.9230769230769,4,2,90,25,0,0
245153,-76.9230769230769,4,2,31,25,0,0
247062,-80,4,2,91,20,0,0
247335,-80,4,2,31,20,0,0
249244,-83.3333333333333,4,2,92,15,0,0
249517,-83.3333333333333,4,2,31,15,0,0
251426,-86.9565217391304,4,2,93,10,0,0
251698,-86.9565217391304,4,2,31,10,0,0
253607,-90.9090909090909,4,2,90,5,0,0
255789,-90.9090909090909,4,2,90,5,0,0

[Colours]
Combo1 : 99,139,63
Combo2 : 230,135,40
Combo3 : 221,160,100
Combo4 : 165,214,73

[HitObjects]
10,315,517,6,0,P|113:306|211:295,1,192.5,2|0,0:0|0:0,0:0:0:0:
262,250,2317,6,0,P|226:265|202:296,1,78.7500030040742,2|0,0:0|0:0,0:0:0:0:
277,330,2917,2,0,B|284:218|392:145|503:190|503:190|456:193|430:244,1,393.750015020371,2|0,0:0|0:0,0:0:0:0:
510,272,5022,6,0,P|417:260|362:110,1,262.5,2|0,0:0|0:0,0:0:0:0:
390,41,7164,6,0,P|429:75|440:125,1,105,2|0,0:0|0:0,0:0:0:0:
65,329,9250,5,2,0:0:0:0:
160,348,9522,1,2,0:0:0:0:
49,344,9795,2,0,P|70:285|125:243,1,122.5,2|0,0:0|0:0,0:0:0:0:
192,273,10927,2,0,L|270:265,1,78.7500030040742,2|0,0:0|0:0,0:0:0:0:
346,294,11493,5,2,0:0:0:0:
459,253,11733,1,2,0:0:0:0:
420,325,12005,2,0,B|434:185|434:185|438:185|438:185|453:30,1,288.750011014939,2|0,0:0|0:0,0:0:0:0:
372,30,13641,5,2,0:0:0:0:
470,120,13914,1,2,0:0:0:0:
350,38,14186,2,0,B|252:28|264:91|161:85,1,192.5,2|0,0:0|0:0,0:0:0:0:
90,59,15807,5,2,0:0:0:0:
68,137,16047,1,2,0:0:0:0:
9,80,16335,2,0,P|11:36|28:8,1,70,2|0,0:0|0:0,0:0:0:0:
27,17,17971,1,0,3:0:0:0:
138,220,18244,5,2,0:0:0:0:
83,279,18517,2,0,P|37:285|-15:294,1,70,10|2,0:0|3:2,0:0:0:0:
138,220,19062,2,0,P|174:225|236:235,1,70,2|0,0:0|3:0,0:0:0:0:
218,244,19471,1,0,3:0:0:0:
228,258,19607,2,0,P|272:283|337:268,1,105,10|0,0:0|0:0,0:0:0:0:
355,351,20153,6,0,P|365:280|375:213,1,140,2|10,3:2|0:0,0:0:0:0:
440,333,20971,2,0,P|445:298|450:264,1,70,2|0,3:2|0:0,0:0:0:0:
512,371,21517,1,2,0:0:0:0:
341,247,21789,2,0,P|350:312|359:378,1,105,8|0,0:0|0:0,0:0:0:0:
355,350,22335,1,0,3:0:0:0:
430,130,22607,6,0,L|375:174,1,70,2|10,0:0|0:0,0:0:0:0:
328,107,23153,1,2,3:2:0:0:
294,181,23426,2,0,L|229:154,1,70,2|0,0:0|3:0,0:0:0:0:
163,210,23835,1,0,3:0:0:0:
151,223,23971,2,0,P|143:163|134:105,1,105,10|0,0:0|0:0,0:0:0:0:
122,40,24517,5,2,3:2:0:0:
229,154,24789,2,0,L|314:167,1,70,2|8,0:0|0:0,0:0:0:0:
336,45,25335,2,0,P|270:56|198:66,1,140,2|0,3:2|0:0,0:0:0:0:
368,122,26153,1,8,0:0:0:0:
442,89,26426,1,0,3:0:0:0:
446,72,26562,1,0,3:0:0:0:
450,55,26698,1,0,3:0:0:0:
459,200,26971,5,2,0:0:0:0:
385,235,27244,1,10,0:0:0:0:
319,187,27517,1,2,3:2:0:0:
408,243,27789,2,0,L|421:328,1,70,2|0,0:0|3:0,0:0:0:0:
351,345,28198,1,0,3:0:0:0:
336,355,28335,2,0,P|294:327|232:332,1,105,10|0,0:0|0:0,0:0:0:0:
179,380,28880,5,2,3:2:0:0:
226,248,29153,1,2,0:0:0:0:
89,274,29426,1,10,0:0:0:0:
165,301,29698,2,0,P|183:244|164:160,1,140,2|2,3:2|0:0,0:0:0:0:
187,87,30517,2,0,P|141:89|95:126,1,105,8|0,0:0|0:0,0:0:0:0:
96,124,31062,1,0,3:0:0:0:
246,144,31335,5,2,0:0:0:0:
303,85,31607,1,10,0:0:0:0:
382,104,31880,1,2,3:2:0:0:
266,158,32153,2,0,L|253:243,1,70,2|0,0:0|3:0,0:0:0:0:
267,240,32562,1,0,3:0:0:0:
279,251,32698,1,10,0:0:0:0:
266,331,32971,1,2,0:0:0:0:
359,264,33244,5,2,3:2:0:0:
426,357,33517,2,0,P|430:321|436:287,1,70,2|8,0:0|0:0,0:0:0:0:
495,231,34062,2,0,L|473:92,1,140,2|0,3:2|0:0,0:0:0:0:
461,12,34880,1,8,0:0:0:0:
392,104,35153,1,0,3:0:0:0:
377,96,35289,1,0,3:0:0:0:
362,86,35426,5,6,3:2:0:0:
282,74,35698,1,2,0:0:0:0:
350,166,35971,1,10,0:0:0:0:
333,10,36244,1,2,3:2:0:0:
270,154,36517,6,0,P|232:138|203:98,1,83.9999974365235,2|0,0:0|3:0,0:0:0:0:
202,85,36926,1,0,3:0:0:0:
197,65,37062,1,10,0:0:0:0:
350,166,37335,5,2,0:0:0:0:
365,185,37607,2,0,P|357:229|352:270,1,83.9999974365235,4|2,3:2|0:0,0:0:0:0:
426,303,38153,1,10,0:0:0:0:
433,277,38426,1,2,3:2:0:0:
359,350,38698,5,2,0:0:0:0:
226,312,38971,1,2,0:0:0:0:
155,352,39244,1,10,0:0:0:0:
223,229,39517,1,2,3:2:0:0:
242,237,39653,1,0,3:0:0:0:
262,245,39789,6,0,L|249:162,1,83.9999974365235,4|2,3:2|0:0,0:0:0:0:
237,81,40335,1,8,0:0:0:0:
125,210,40607,2,0,P|203:189|261:244,1,167.999994873047,0|0,3:0|0:0,0:0:0:0:
184,269,41426,1,8,0:0:0:0:
50,212,41815,5,0,1:0:0:0:
50,212,41893,5,0,1:0:0:0:
50,212,41971,5,4,3:2:0:0:
21,126,42244,5,2,0:0:0:0:
0,48,42517,1,10,0:0:0:0:
128,0,42789,5,2,3:2:0:0:
99,146,43062,1,2,0:2:0:0:
227,98,43335,5,2,0:0:0:0:
206,20,43607,1,10,0:0:0:0:
305,118,43880,1,2,0:0:0:0:
361,60,44153,5,6,3:2:0:0:
419,116,44426,1,2,0:0:0:0:
363,174,44698,1,10,0:0:0:0:
439,38,44971,1,2,3:2:0:0:
442,194,45244,6,0,P|417:235|380:254,1,83.9999974365235,2|0,0:0|3:0,0:0:0:0:
366,257,45653,1,0,3:0:0:0:
346,261,45789,1,10,0:0:0:0:
466,338,46062,5,2,0:0:0:0:
446,354,46335,2,0,L|363:341,1,83.9999974365235,4|2,3:2|0:0,0:0:0:0:
243,319,46880,1,10,0:0:0:0:
220,331,47153,1,2,3:2:0:0:
261,240,47426,5,2,0:0:0:0:
139,318,47698,2,0,P|133:276|126:235,1,83.9999974365235,2|8,0:0|0:0,0:0:0:0:
41,140,48244,1,2,3:2:0:0:
28,156,48380,1,0,3:0:0:0:
14,171,48517,6,0,L|97:158,1,83.9999974365235,4|2,3:2|0:0,0:0:0:0:
223,135,49062,1,8,0:0:0:0:
151,69,49335,2,0,P|137:157|121:255,1,167.999994873047,0|0,3:0|0:0,0:0:0:0:
58,281,50153,1,8,0:0:0:0:
247,229,50542,5,0,1:0:0:0:
247,229,50620,5,0,1:0:0:0:
247,229,50698,6,0,P|241:187|234:146,1,83.9999974365235,4|0,3:2|3:2,0:0:0:0:
216,48,51107,1,0,3:0:0:0:
237,54,51244,2,0,P|230:95|225:137,1,83.9999974365235,8|0,0:0|3:0,0:0:0:0:
204,299,51789,5,2,0:0:0:0:
318,168,52062,1,2,0:0:0:0:
374,332,52335,1,8,0:0:0:0:
298,266,52607,1,10,0:0:0:0:
312,278,52744,1,0,0:0:0:0:
327,290,52880,6,0,P|379:298|448:308,1,105.000004005432,10|0,3:2|0:0,0:0:0:0:
501,263,53426,1,10,0:0:0:0:
302,367,53698,2,0,P|286:266|261:133,1,210.000008010865,0|0,3:0|3:0,0:0:0:0:
359,32,54517,2,0,P|351:84|344:136,1,105.000004005432,10|0,0:0|3:0,0:0:0:0:
353,161,54926,1,0,3:0:0:0:
362,186,55062,5,10,3:2:0:0:
440,206,55335,1,2,0:0:0:0:
305,243,55607,1,10,0:0:0:0:
311,265,55880,1,0,3:0:0:0:
291,344,56153,5,2,0:0:0:0:
369,324,56426,1,2,3:2:0:0:
233,285,56698,1,10,0:0:0:0:
131,383,56971,1,2,3:2:0:0:
107,372,57107,1,0,3:0:0:0:
82,363,57244,6,0,P|56:317|60:259,1,105.000004005432,8|2,3:2|0:0,0:0:0:0:
154,161,57789,1,8,0:0:0:0:
135,240,58062,1,0,3:0:0:0:
197,378,58335,6,0,P|249:370|301:363,1,105.000004005432,2|0,0:0|3:0,0:0:0:0:
321,347,58744,1,2,0:0:0:0:
342,331,58880,2,0,P|394:323|445:316,1,105.000004005432,8|2,0:0|0:0,0:0:0:0:
470,218,59289,1,0,3:0:0:0:
475,192,59426,6,0,P|423:143|313:177,1,157.500006008148,8|0,3:2|0:0,0:0:0:0:
285,208,59971,2,0,L|181:193,1,105.000004005432,8|0,0:0|3:0,0:0:0:0:
24,171,60517,5,2,1:2:0:0:
123,69,60789,1,2,3:2:0:0:
119,95,60926,1,0,3:0:0:0:
113,121,61062,1,10,1:2:0:0:
83,287,61335,1,10,1:2:0:0:
204,75,61607,6,0,P|254:68|308:60,1,105.000004005432,8|0,3:2|0:0,0:0:0:0:
473,42,62153,1,10,0:0:0:0:
369,6,62426,1,2,3:2:0:0:
494,49,62698,5,2,0:0:0:0:
416,185,62971,2,0,L|401:81,1,105.000004005432,2|8,3:2|0:0,0:0:0:0:
487,255,63517,1,2,3:2:0:0:
476,279,63653,1,0,3:0:0:0:
464,302,63789,6,0,P|412:265|337:280,1,105.000004005432,8|2,3:2|0:0,0:0:0:0:
232,344,64335,1,10,0:0:0:0:
235,366,64607,1,0,3:0:0:0:
302,303,64880,5,2,0:0:0:0:
191,274,65153,1,2,3:2:0:0:
220,163,65426,1,10,0:0:0:0:
121,315,65698,1,2,3:2:0:0:
113,290,65835,1,0,3:0:0:0:
106,265,65971,6,0,L|121:161,1,105.000004005432,8|0,3:2|0:0,0:0:0:0:
126,135,66380,1,2,0:0:0:0:
129,109,66517,2,0,P|103:49|50:25,1,105.000004005432,8|2,0:0|3:2,0:0:0:0:
32,197,67062,5,2,0:0:0:0:
129,109,67335,2,0,P|179:101|233:94,1,105.000004005432,2|8,3:2|0:0,0:0:0:0:
354,139,67880,1,2,3:2:0:0:
349,165,68017,1,0,3:0:0:0:
345,191,68153,5,8,3:2:0:0:
268,168,68426,1,0,0:0:0:0:
165,276,68698,5,8,0:0:0:0:
285,247,68971,1,0,3:0:0:0:
370,336,69244,5,2,1:2:0:0:
210,201,69517,1,2,3:2:0:0:
200,158,69653,1,0,3:0:0:0:
189,114,69789,1,10,1:2:0:0:
165,276,70062,1,10,1:2:0:0:
242,52,70335,6,0,L|363:70,1,105.000004005432,8|0,3:2|0:0,0:0:0:0:
371,58,70744,1,2,0:0:0:0:
395,48,70880,2,0,P|411:152|426:256,1,210.000008010865,8|2,0:0|0:0,0:0:0:0:
325,343,71698,2,0,P|334:292|341:240,1,105.000004005432,2|8,3:2|0:0,0:0:0:0:
247,366,72244,1,2,3:2:0:0:
227,349,72380,1,0,3:0:0:0:
207,332,72517,5,8,3:2:0:0:
129,355,72789,1,2,0:0:0:0:
184,254,73062,1,10,0:0:0:0:
206,259,73335,1,0,3:0:0:0:
106,277,73607,5,2,1:2:0:0:
226,179,73880,1,2,3:2:0:0:
201,26,74153,1,10,0:2:0:0:
137,115,74426,1,2,0:2:0:0:
112,108,74562,1,0,0:0:0:0:
87,100,74698,6,0,P|62:153|81:211,1,105.000004005432,8|0,3:2|0:0,0:0:0:0:
86,219,75107,1,2,0:0:0:0:
102,240,75244,2,0,B|123:259|153:263|153:263|309:222,1,210.000008010865,8|2,0:0|0:0,0:0:0:0:
377,290,76062,2,0,P|384:237|392:186,1,105.000004005432,2|8,3:2|0:0,0:0:0:0:
424,37,76607,1,2,3:2:0:0:
444,54,76744,1,0,3:0:0:0:
464,71,76880,6,0,L|360:86,1,105.000004005432,8|0,3:2|0:0,0:0:0:0:
200,111,77426,1,10,0:2:0:0:
205,84,77698,1,2,3:2:0:0:
258,167,77971,5,0,1:2:0:0:
118,104,78244,1,2,3:2:0:0:
127,148,78380,1,0,3:0:0:0:
137,192,78517,1,10,1:2:0:0:
91,308,78789,1,8,1:2:0:0:
14,89,79062,6,0,L|118:104,1,105.000004005432,8|0,3:2|0:0,0:0:0:0:
263,122,79607,1,10,0:0:0:0:
207,61,79880,2,0,P|156:69|117:103,1,105.000004005432,2|0,3:2|0:0,0:0:0:0:
238,201,80426,1,2,3:2:0:0:
343,106,80698,2,0,P|434:119|474:218,1,157.500006008148,10|0,0:0|3:0,0:0:0:0:
483,248,81244,1,8,3:2:0:0:
317,183,81517,5,2,0:0:0:0:
238,201,81789,2,0,P|186:193|134:186,1,105.000004005432,10|0,0:0|3:0,0:0:0:0:
24,335,82335,2,0,P|75:327|128:320,1,105.000004005432,2|0,0:0|3:2,0:0:0:0:
151,332,82744,1,0,3:2:0:0:
174,344,82880,2,0,P|229:358|299:312,1,105.000004005432,10|0,0:0|0:0,0:0:0:0:
317,183,83426,5,10,3:2:0:0:
281,23,83698,1,2,0:0:0:0:
171,82,83971,5,10,0:0:0:0:
156,162,84244,1,2,3:2:0:0:
49,227,84517,6,0,P|41:176|34:123,1,105.000004005432,2|0,0:0|3:2,0:0:0:0:
47,100,84926,1,0,3:2:0:0:
63,79,85062,2,0,P|71:130|78:183,1,105.000004005432,10|0,0:0|0:0,0:0:0:0:
125,320,85607,5,10,3:2:0:0:
48,343,85880,1,2,0:0:0:0:
156,246,86153,5,10,0:0:0:0:
289,280,86426,1,2,3:2:0:0:
384,181,86698,5,2,1:2:0:0:
384,117,86835,1,0,1:0:0:0:
355,60,86971,1,0,3:0:0:0:
297,34,87107,1,0,1:0:0:0:
233,37,87244,5,10,1:2:0:0:
228,62,87380,1,0,1:0:0:0:
223,88,87517,1,10,1:2:0:0:
218,113,87653,1,0,1:0:0:0:
213,138,87789,1,0,3:0:0:0:
51,97,88062,5,2,0:0:0:0:
69,81,88335,2,0,P|109:75|167:66,1,77.0000023498536,10|2,0:0|3:2,0:0:0:0:
213,138,88880,2,0,P|253:144|311:153,1,77.0000023498536,2|2,0:0|3:2,0:0:0:0:
307,142,89289,1,0,3:0:0:0:
324,133,89426,1,10,0:0:0:0:
403,151,89698,1,2,0:0:0:0:
458,91,89971,5,2,3:2:0:0:
427,228,90244,1,2,0:0:0:0:
464,66,90517,2,0,L|387:77,1,77.0000023498536,10|0,0:0|3:2,0:0:0:0:
371,68,90926,1,0,0:0:0:0:
354,59,91062,1,2,0:0:0:0:
274,78,91335,1,0,0:0:0:0:
464,66,91607,2,0,P|453:128|442:207,1,115.50000352478,8|0,0:0|0:0,0:0:0:0:
446,180,92153,1,0,3:0:0:0:
437,264,92426,5,2,0:0:0:0:
426,345,92698,1,10,0:0:0:0:
402,363,92971,1,2,3:2:0:0:
326,333,93244,2,0,P|281:334|237:373,1,77.0000023498536,2|0,0:0|3:0,0:0:0:0:
241,364,93653,1,0,3:0:0:0:
228,378,93789,2,0,L|151:366,1,77.0000023498536,10|0,0:0|0:0,0:0:0:0:
93,309,94335,6,0,L|81:232,1,77.0000023498536,2|0,3:2|0:0,0:0:0:0:
67,220,94744,1,2,0:0:0:0:
52,208,94880,1,8,0:0:0:0:
162,218,95153,2,0,P|173:142|186:57,1,154.000004699707,2|0,3:2|0:0,0:0:0:0:
137,0,95971,1,8,0:0:0:0:
252,234,96335,5,0,1:0:0:0:
252,234,96426,5,0,1:0:0:0:
252,234,96517,6,0,P|288:209|335:208,1,77.0000023498536,0|2,3:0|0:0,0:0:0:0:
405,317,97062,2,0,L|394:241,1,77.0000023498536,10|2,0:0|3:2,0:0:0:0:
436,172,97607,2,0,L|424:95,1,77.0000023498536,2|0,0:0|3:0,0:0:0:0:
420,77,98017,1,0,3:0:0:0:
417,58,98153,2,0,P|381:33|311:36,1,115.50000352478,10|0,0:0|0:0,0:0:0:0:
351,110,98698,5,2,3:2:0:0:
233,12,98971,2,0,P|230:50|248:89,1,77.0000023498536,2|8,0:0|0:0,0:0:0:0:
351,110,99517,2,0,P|339:184|323:287,1,154.000004699707,2|0,3:2|0:0,0:0:0:0:
261,310,100335,2,0,P|197:299|129:289,1,115.50000352478,8|0,0:0|0:0,0:0:0:0:
146,292,100880,1,0,3:0:0:0:
84,343,101153,5,2,0:0:0:0:
128,217,101426,1,10,0:0:0:0:
122,192,101698,1,2,3:2:0:0:
150,295,101971,2,0,L|226:283,1,77.0000023498536,2|0,0:0|3:0,0:0:0:0:
245,288,102380,1,0,3:0:0:0:
263,295,102517,1,10,0:0:0:0:
228,202,102789,1,2,0:0:0:0:
339,324,103062,5,2,3:2:0:0:
402,273,103335,2,0,P|418:237|413:196,1,77.0000023498536,2|8,0:0|0:0,0:0:0:0:
457,118,103880,2,0,P|404:171|331:160,1,154.000004699707,2|0,3:2|0:0,0:0:0:0:
377,93,104698,1,8,0:0:0:0:
181,344,105244,5,6,3:2:0:0:
87,237,105517,1,2,0:0:0:0:
165,264,105789,1,10,0:0:0:0:
24,291,106062,1,2,3:2:0:0:
149,184,106335,6,0,L|134:89,1,90.9999958343508,2|0,0:0|3:0,0:0:0:0:
113,88,106744,1,0,3:0:0:0:
91,81,106880,1,10,0:0:0:0:
211,63,107153,5,2,0:0:0:0:
228,47,107426,2,0,L|322:32,1,90.9999958343508,4|2,3:2|0:0,0:0:0:0:
391,73,107971,1,10,0:0:0:0:
397,96,108244,1,2,3:2:0:0:
439,7,108517,5,2,0:0:0:0:
349,162,108789,1,2,0:0:0:0:
504,252,109062,1,10,0:0:0:0:
430,171,109335,1,2,3:2:0:0:
432,193,109471,1,0,3:0:0:0:
434,215,109607,6,0,L|419:309,1,90.9999958343508,4|2,3:2|0:0,0:0:0:0:
346,246,110153,1,8,0:0:0:0:
419,304,110426,2,0,B|356:268|298:316|298:316|330:336|334:379,1,181.999991668702,0|0,3:0|0:0,0:0:0:0:
253,384,111244,1,8,0:0:0:0:
49,317,111633,5,0,1:0:0:0:
49,317,111711,5,0,1:0:0:0:
49,317,111789,5,4,3:2:0:0:
110,367,112062,5,2,0:0:0:0:
185,339,112335,1,10,0:0:0:0:
198,260,112607,5,2,3:2:0:0:
62,240,112880,1,2,0:2:0:0:
75,161,113153,5,2,0:0:0:0:
150,133,113426,1,10,0:0:0:0:
89,83,113698,1,2,0:0:0:0:
136,211,113971,5,6,3:2:0:0:
164,55,114244,1,2,0:0:0:0:
198,260,114517,1,10,0:0:0:0:
150,133,114789,1,2,3:2:0:0:
273,232,115062,5,2,0:0:0:0:
122,289,115335,2,0,P|74:280|27:274,1,90.9999958343508,2|10,3:2|0:0,0:0:0:0:
261,312,115880,1,2,0:0:0:0:
269,333,116017,1,0,0:0:0:0:
277,354,116153,6,0,P|322:348|366:339,1,90.9999958343508,4|2,3:2|0:0,0:0:0:0:
443,257,116698,1,10,0:0:0:0:
445,233,116971,1,2,3:2:0:0:
482,328,117244,5,2,0:0:0:0:
362,257,117517,2,0,L|347:167,1,90.9999958343508,2|8,0:0|0:0,0:0:0:0:
438,61,118062,1,2,3:2:0:0:
458,72,118198,1,0,3:0:0:0:
478,80,118335,6,0,L|389:95,1,90.9999958343508,4|2,3:2|0:0,0:0:0:0:
323,46,118880,1,8,0:0:0:0:
347,167,119153,2,0,P|270:153|166:136,1,181.999991668702,0|0,3:0|0:0,0:0:0:0:
87,123,119971,1,8,0:0:0:0:
303,275,120335,5,0,1:0:0:0:
303,275,120426,5,0,1:0:0:0:
303,275,120517,6,0,L|392:260,1,90.9999958343508,6|0,3:2|3:2,0:0:0:0:
437,370,120926,1,0,3:0:0:0:
418,358,121062,2,0,L|395:225,1,90.9999958343508,8|0,0:0|3:0,0:0:0:0:
377,95,121607,1,2,0:0:0:0:
470,213,121880,1,2,0:0:0:0:
488,229,122017,1,0,3:0:0:0:
505,244,122153,1,8,0:0:0:0:
320,235,122426,1,10,0:0:0:0:
308,255,122562,1,0,3:0:0:0:
295,274,122698,6,0,P|243:268|181:329,1,112,10|0,3:2|0:0,0:0:0:0:
326,350,123244,1,10,0:0:0:0:
118,332,123517,2,0,P|99:213|78:99,1,224,0|0,3:0|3:0,0:0:0:0:
17,306,124335,2,0,P|62:336|117:331,1,112,10|0,0:0|3:0,0:0:0:0:
125,305,124744,1,0,3:0:0:0:
130,278,124880,5,10,3:2:0:0:
101,202,125153,1,2,0:0:0:0:
206,249,125426,1,10,0:0:0:0:
211,271,125698,1,0,3:0:0:0:
253,144,125971,5,2,0:0:0:0:
282,220,126244,1,2,3:2:0:0:
148,97,126517,1,10,0:0:0:0:
334,157,126789,1,2,3:2:0:0:
360,146,126926,1,0,3:0:0:0:
386,136,127062,6,0,P|395:78|408:3,1,112,8|2,3:2|0:0,0:0:0:0:
432,202,127607,1,8,0:0:0:0:
512,195,127880,1,0,3:0:0:0:
398,274,128153,6,0,P|343:279|297:249,1,112,2|0,0:0|3:0,0:0:0:0:
290,222,128562,1,2,0:0:0:0:
283,195,128698,2,0,L|150:173,1,112,8|2,0:0|0:0,0:0:0:0:
87,206,129107,1,0,3:0:0:0:
62,219,129244,6,0,P|47:296|33:390,1,168,8|0,3:2|0:0,0:0:0:0:
171,364,129789,2,0,P|162:309|153:254,1,112,8|0,0:0|3:0,0:0:0:0:
127,105,130335,5,2,1:2:0:0:
62,219,130607,1,2,3:2:0:0:
34,224,130744,1,0,3:0:0:0:
6,229,130880,1,10,1:2:0:0:
49,138,131153,1,10,1:2:0:0:
152,253,131426,6,0,P|206:282|262:271,1,112,8|0,3:2|0:0,0:0:0:0:
379,172,131971,1,10,0:0:0:0:
362,93,132244,1,2,3:2:0:0:
319,226,132517,5,2,0:0:0:0:
438,117,132789,2,0,P|447:62|456:7,1,112,2|8,3:2|0:0,0:0:0:0:
379,172,133335,1,2,3:2:0:0:
402,188,133471,1,0,3:0:0:0:
425,204,133607,6,0,P|454:258|443:314,1,112,8|2,3:2|0:0,0:0:0:0:
319,338,134153,1,10,0:0:0:0:
312,309,134426,1,0,3:0:0:0:
238,344,134698,5,2,0:0:0:0:
396,368,134971,1,2,3:2:0:0:
420,210,135244,1,10,0:0:0:0:
312,309,135517,1,2,3:2:0:0:
316,281,135653,1,0,3:0:0:0:
320,254,135789,6,0,L|298:121,1,112,8|0,3:2|0:0,0:0:0:0:
280,126,136198,1,2,0:0:0:0:
257,110,136335,2,0,L|124:132,1,112,8|2,0:0|3:2,0:0:0:0:
162,231,136880,6,0,P|171:177|146:128,1,112,2|2,0:0|3:2,0:0:0:0:
92,271,137426,1,8,0:0:0:0:
242,226,137698,1,2,3:2:0:0:
255,251,137835,1,0,3:0:0:0:
268,276,137971,5,8,3:2:0:0:
219,341,138244,1,0,0:0:0:0:
287,261,138517,5,8,0:0:0:0:
408,295,138789,1,0,3:0:0:0:
318,382,139062,5,2,1:2:0:0:
377,174,139335,1,2,3:2:0:0:
423,162,139471,1,0,3:0:0:0:
469,150,139607,1,10,1:2:0:0:
287,261,139880,1,10,1:2:0:0:
176,79,140153,6,2,P|112:66|52:117,1,115.500001101494,8|0,3:2|0:0,0:1:0:0:
53,112,140562,1,2,0:0:0:0:
37,136,140698,2,0,P|52:244|75:369,1,231.000002202988,8|2,0:0|0:0,0:0:0:0:
143,290,141517,1,2,3:2:0:0:
311,370,141789,2,2,B|280:387|280:387|200:374,1,115.500001101494,8|2,0:0|3:2,0:1:0:0:
210,347,142198,1,0,3:0:0:0:
218,319,142335,5,8,3:2:0:0:
172,215,142607,1,2,0:0:0:0:
294,295,142880,1,10,0:0:0:0:
323,286,143153,1,0,3:0:0:0:
361,215,143426,5,2,1:2:0:0:
201,140,143698,1,2,3:2:0:0:
57,242,143971,1,10,0:2:0:0:
180,263,144244,1,2,0:2:0:0:
163,240,144380,1,0,0:0:0:0:
146,216,144517,6,2,L|168:83,1,115.500001101494,8|0,3:2|0:0,0:1:0:0:
189,87,144926,1,2,0:0:0:0:
214,73,145062,2,0,P|320:105|342:213,1,231.000002202988,8|2,0:0|0:0,0:0:0:0:
299,380,145880,1,2,3:2:0:0:
427,305,146153,2,2,B|396:288|396:288|316:301,1,115.500001101494,8|2,0:0|3:2,0:1:0:0:
289,309,146562,1,0,3:0:0:0:
261,315,146698,5,8,3:2:0:0:
185,286,146971,1,0,0:0:0:0:
198,367,147244,5,10,0:2:0:0:
109,257,147517,1,2,3:2:0:0:
163,127,147789,5,2,1:2:0:0:
224,106,147926,1,0,1:2:0:0:
281,135,148062,1,0,3:2:0:0:
339,164,148198,1,2,3:2:0:0:
399,142,148335,5,8,0:0:0:0:
404,114,148471,1,0,1:2:0:0:
409,85,148607,1,8,0:0:0:0:
414,56,148744,1,0,1:2:0:0:
419,27,148880,1,0,3:0:0:0:
423,31,149153,1,0,0:0:0:0:
465,201,149426,6,0,L|452:286,1,83.9999974365235,10|0,0:0|3:0,0:0:0:0:
467,306,149835,1,0,3:0:0:0:
483,329,149971,5,2,3:2:0:0:
373,301,150244,1,2,3:2:0:0:
293,382,150517,1,10,0:0:0:0:
182,353,150789,1,4,0:3:0:0:
174,333,150926,1,4,0:3:0:0:
167,313,151062,5,2,3:2:0:0:
293,382,151335,1,2,3:2:0:0:
208,239,151607,1,10,0:0:0:0:
82,308,151880,1,2,3:2:0:0:
226,230,152153,5,2,0:0:0:0:
304,251,152426,1,0,3:0:0:0:
179,160,152698,1,10,0:0:0:0:
253,338,152971,1,0,3:0:0:0:
274,335,153107,1,0,3:0:0:0:
295,331,153244,6,0,L|380:344,1,83.9999974365235,0|0,3:0|0:0,0:0:0:0:
482,274,153789,2,0,L|495:189,1,83.9999974365235,10|0,0:0|3:0,0:0:0:0:
498,170,154198,1,0,3:0:0:0:
501,149,154335,5,2,3:2:0:0:
401,262,154607,1,2,3:2:0:0:
253,231,154880,1,10,0:0:0:0:
353,118,155153,1,0,3:0:0:0:
361,138,155289,1,0,3:0:0:0:
370,157,155426,5,2,3:2:0:0:
448,181,155698,1,2,3:2:0:0:
472,103,155971,5,10,0:0:0:0:
388,237,156244,1,2,3:2:0:0:
313,97,156517,5,2,0:0:0:0:
287,296,156789,1,4,0:3:0:0:
267,304,156926,1,4,0:3:0:0:
248,312,157062,1,10,0:0:0:0:
173,172,157335,1,0,0:0:0:0:
13,264,157607,6,0,P|0:319|37:378,1,125.999996154785,0|0,3:0|0:0,0:0:0:0:
81,309,158153,1,10,0:0:0:0:
147,355,158426,1,2,3:2:0:0:
127,243,158698,5,2,3:2:0:0:
13,264,158971,1,2,3:2:0:0:
195,289,159244,6,0,P|236:290|280:255,1,83.9999974365235,10|4,0:0|0:3,0:0:0:0:
279,248,159653,1,4,0:3:0:0:
285,228,159789,5,2,3:2:0:0:
363,246,160062,1,2,3:2:0:0:
267,150,160335,1,10,0:0:0:0:
398,114,160607,1,2,3:2:0:0:
209,205,160880,6,0,P|186:157|194:117,1,83.9999974365235,2|0,0:0|3:0,0:0:0:0:
197,108,161289,1,0,3:0:0:0:
205,88,161426,2,0,P|199:44|192:3,1,83.9999974365235,10|0,0:2|0:0,0:0:0:0:
3,9,161971,6,0,P|11:74|22:135,1,125.999996154785,2|0,3:2|0:0,0:0:0:0:
43,212,162517,1,10,0:0:0:0:
192,171,162789,2,0,L|205:86,1,83.9999974365235,2|0,3:2|3:0,0:0:0:0:
110,166,163335,5,2,3:2:0:0:
152,322,163607,2,0,P|192:314|237:309,1,83.9999974365235,10|0,0:0|0:0,0:0:0:0:
300,358,164153,5,2,3:2:0:0:
311,278,164426,1,2,3:2:0:0:
457,226,164698,5,10,0:0:0:0:
499,355,164971,1,2,3:2:0:0:
303,257,165244,6,0,P|310:215|316:172,1,83.9999974365235,2|4,0:0|0:3,0:0:0:0:
330,158,165653,1,4,0:3:0:0:
344,142,165789,2,0,P|337:100|331:57,1,83.9999974365235,10|0,0:0|0:0,0:0:0:0:
421,169,166335,5,2,3:2:0:0:
246,132,166607,1,2,3:2:0:0:
215,292,166880,5,10,0:0:0:0:
293,270,167153,1,2,3:2:0:0:
171,161,167426,6,0,P|128:173|94:218,1,83.9999974365235,2|0,0:0|3:0,0:0:0:0:
234,213,167971,1,10,0:0:0:0:
181,79,168244,1,4,0:3:0:0:
185,59,168380,1,4,0:3:0:0:
188,38,168517,5,2,3:2:0:0:
112,65,168789,1,2,3:2:0:0:
19,206,169062,5,10,0:0:0:0:
171,240,169335,1,2,3:2:0:0:
277,148,169607,5,2,0:0:0:0:
265,68,169880,1,0,3:0:0:0:
293,154,170153,1,10,0:0:0:0:
281,74,170426,1,0,0:0:0:0:
310,161,170698,5,2,3:2:0:0:
297,241,170971,1,0,3:0:0:0:
234,190,171244,1,8,0:0:0:0:
374,212,171517,5,2,3:2:0:0:
352,352,171789,1,0,3:0:0:0:
212,330,172062,1,0,3:0:0:0:
234,190,172335,1,8,0:0:0:0:
374,212,172607,1,0,3:0:0:0:
388,196,172744,1,0,3:0:0:0:
402,180,172880,5,2,3:2:0:0:
288,301,173153,1,0,3:0:0:0:
137,229,173426,1,10,0:0:0:0:
158,63,173698,1,0,3:0:0:0:
322,31,173971,5,2,0:0:0:0:
234,190,174244,1,4,0:3:0:0:
238,210,174380,1,4,0:3:0:0:
242,230,174517,1,8,0:0:0:0:
383,344,174789,1,10,0:0:0:0:
430,177,175062,6,0,L|309:195,1,119.000002269745,10|0,3:2|0:0,0:0:0:0:
460,101,175607,1,10,0:0:0:0:
339,274,175880,2,0,P|295:216|120:231,1,238.00000453949,0|0,3:0|3:0,0:0:0:0:
383,344,176698,2,0,P|421:278|399:219,1,119.000002269745,10|0,0:0|3:0,0:0:0:0:
399,213,177107,1,0,3:0:0:0:
384,187,177244,5,10,3:2:0:0:
494,224,177517,1,2,0:0:0:0:
388,106,177789,1,10,0:0:0:0:
315,143,178062,1,0,3:0:0:0:
457,150,178335,5,2,0:0:0:0:
319,62,178607,1,2,3:2:0:0:
231,200,178880,1,10,0:0:0:0:
93,112,179153,1,2,3:2:0:0:
87,83,179289,1,0,3:0:0:0:
81,54,179426,6,0,P|137:20|211:48,1,119.000002269745,8|2,3:2|0:0,0:0:0:0:
115,191,179971,1,8,0:0:0:0:
37,171,180244,1,0,3:0:0:0:
248,82,180517,6,0,L|230:203,1,119.000002269745,2|0,0:0|3:0,0:0:0:0:
226,229,180926,1,2,0:0:0:0:
221,258,181062,2,0,L|203:379,1,119.000002269745,8|2,0:0|0:0,0:0:0:0:
92,353,181471,1,0,3:0:0:0:
63,347,181607,6,0,P|50:253|35:162,1,178.500003404617,8|0,3:2|3:0,0:0:0:0:
22,90,182153,1,8,0:0:0:0:
131,244,182426,6,2,B|167:266|167:266|277:249,1,119.000002269745,0|2,3:0|1:2,0:1:0:0:
441,220,182971,1,2,3:2:0:0:
449,191,183107,1,0,3:0:0:0:
457,162,183244,1,10,1:2:0:0:
344,84,183517,1,10,1:2:0:0:
242,254,183789,6,2,B|209:228|203:190|203:190|225:34,1,178.500003404617,8|0,3:2|0:0,0:1:0:0:
229,8,184335,1,10,0:0:0:0:
289,184,184607,1,2,3:2:0:0:
106,147,184880,5,2,0:0:0:0:
217,89,185153,2,0,L|338:107,1,119.000002269745,2|8,3:2|0:0,0:0:0:0:
444,0,185698,1,2,3:2:0:0:
436,29,185835,1,0,3:0:0:0:
427,57,185971,6,0,P|435:114|445:178,1,119.000002269745,8|2,3:2|0:0,0:0:0:0:
465,286,186517,1,10,0:0:0:0:
484,296,186789,1,0,3:0:0:0:
512,219,187062,5,2,0:0:0:0:
363,134,187335,1,2,3:2:0:0:
278,283,187607,1,10,0:0:0:0:
436,179,187880,1,2,3:2:0:0:
444,150,188017,1,0,3:0:0:0:
452,121,188153,6,0,P|415:60|352:46,1,119.000002269745,8|0,3:2|0:0,0:0:0:0:
345,56,188562,1,2,0:0:0:0:
318,69,188698,2,0,P|258:59|197:51,1,119.000002269745,8|2,0:0|3:2,0:0:0:0:
81,135,189244,5,2,0:0:0:0:
9,9,189517,1,2,3:2:0:0:
101,126,189789,2,2,B|123:162|123:162|106:272,1,119.000002269745,8|2,0:0|3:2,0:1:0:0:
106,267,190198,1,0,3:0:0:0:
101,297,190335,5,8,3:2:0:0:
242,269,190607,1,0,3:0:0:0:
236,240,190744,1,0,3:0:0:0:
230,211,190880,1,8,0:0:0:0:
201,338,191153,1,0,3:0:0:0:
271,142,191426,5,2,1:2:0:0:
324,276,191698,1,2,3:2:0:0:
333,231,191835,1,0,3:0:0:0:
342,187,191971,1,10,1:2:0:0:
395,321,192244,1,10,1:2:0:0:
489,125,192517,6,0,P|445:90|367:101,1,119.000002269745,10|0,3:2|0:0,0:0:0:0:
505,204,193062,1,10,0:0:0:0:
360,257,193335,2,0,P|360:138|340:21,1,238.00000453949,0|0,3:0|3:0,0:0:0:0:
178,202,194153,2,0,P|236:204|283:169,1,119.000002269745,10|0,0:0|3:0,0:0:0:0:
277,140,194562,1,0,3:0:0:0:
270,111,194698,5,10,3:2:0:0:
111,155,194971,1,2,0:0:0:0:
83,145,195107,1,0,3:0:0:0:
55,135,195244,1,10,0:0:0:0:
177,82,195517,1,0,3:0:0:0:
134,249,195789,5,2,0:0:0:0:
301,292,196062,1,2,3:2:0:0:
421,168,196335,1,10,0:0:0:0:
261,222,196607,1,2,3:2:0:0:
232,213,196744,1,0,3:0:0:0:
203,206,196880,6,0,L|185:88,1,119.000002269745,8|2,3:2|0:0,0:0:0:0:
78,11,197426,1,8,0:0:0:0:
0,32,197698,1,0,3:0:0:0:
92,142,197971,6,0,P|160:126|188:69,1,119.000002269745,2|0,0:0|3:0,0:0:0:0:
191,59,198380,1,2,0:0:0:0:
197,29,198517,2,0,L|314:11,1,119.000002269745,8|2,0:0|0:0,0:0:0:0:
379,62,198926,1,0,3:0:0:0:
400,83,199062,6,0,L|417:200,1,119.000002269745,8|0,3:2|3:0,0:0:0:0:
423,230,199471,1,0,3:0:0:0:
429,259,199607,1,8,0:0:0:0:
489,129,199880,1,0,3:0:0:0:
373,318,200153,6,0,P|304:299|274:249,1,119.000002269745,2|2,1:2|3:2,0:0:0:0:
284,233,200562,1,0,3:0:0:0:
289,203,200698,1,10,1:2:0:0:
452,337,200971,1,10,1:2:0:0:
289,203,201244,6,0,L|171:220,1,119.000002269745,8|0,3:2|0:0,0:0:0:0:
150,241,201653,1,0,0:0:0:0:
128,261,201789,2,0,P|112:151|93:29,1,119.000002269745,10|2,0:0|3:2,0:0:0:0:
62,308,202335,5,2,0:0:0:0:
183,100,202607,2,0,P|122:61|64:74,1,119.000002269745,2|8,3:2|0:0,0:0:0:0:
128,261,203153,1,2,3:2:0:0:
155,275,203289,1,0,3:0:0:0:
182,289,203426,5,8,3:2:0:0:
259,126,203698,1,2,0:0:0:0:
286,113,203835,1,0,3:0:0:0:
314,102,203971,1,10,0:0:0:0:
361,274,204244,1,0,3:0:0:0:
280,262,204517,5,2,0:0:0:0:
411,209,204789,1,2,3:2:0:0:
430,69,205062,1,10,0:0:0:0:
361,274,205335,1,2,3:2:0:0:
370,302,205471,1,0,3:0:0:0:
380,330,205607,6,0,P|426:358|497:338,1,119.000002269745,8|0,3:2|0:0,0:0:0:0:
501,319,206017,1,2,0:0:0:0:
512,291,206153,2,0,L|494:173,1,119.000002269745,8|2,0:0|3:2,0:0:0:0:
474,17,206698,5,2,0:0:0:0:
413,162,206971,2,0,P|353:152|295:144,1,119.000002269745,2|8,3:2|0:0,0:0:0:0:
188,197,207517,1,2,3:2:0:0:
193,226,207653,1,0,3:0:0:0:
198,255,207789,5,8,3:2:0:0:
109,177,208062,1,0,3:0:0:0:
116,131,208198,1,0,3:0:0:0:
124,86,208335,1,8,0:0:0:0:
52,235,208607,1,0,3:0:0:0:
201,62,208880,6,0,P|257:49|308:77,1,119.000002269745,2|2,1:2|3:2,0:0:0:0:
318,106,209289,1,0,3:0:0:0:
327,135,209426,1,10,1:2:0:0:
486,163,209698,1,10,1:2:0:0:
244,131,209971,6,0,L|263:266,1,122.500001168251,8|0,3:2|0:0,0:0:0:0:
307,369,210517,1,10,0:2:0:0:
382,269,210789,2,0,L|246:249,1,122.500001168251,2|0,3:2|1:2,0:0:0:0:
442,213,211335,1,2,3:2:0:0:
186,326,211607,2,0,P|179:260|166:190,1,122.500001168251,10|0,1:2|3:0,0:0:0:0:
162,175,212017,1,0,3:0:0:0:
154,145,212153,1,8,3:2:0:0:
82,182,212426,5,2,0:0:0:0:
157,64,212698,1,10,0:0:0:0:
275,139,212971,1,0,3:0:0:0:
145,42,213244,5,2,0:0:0:0:
222,14,213517,1,0,3:2:0:0:
275,139,213789,5,10,0:0:0:0:
105,114,214062,1,0,0:0:0:0:
290,57,214335,6,0,P|356:64|425:76,1,122.500001168251,8|0,3:2|0:0,0:0:0:0:
275,139,214880,1,10,0:2:0:0:
467,10,215153,2,0,P|495:61|481:120,1,122.500001168251,2|0,3:2|1:2,0:0:0:0:
353,164,215698,1,2,3:2:0:0:
500,258,215971,2,0,P|439:247|378:241,1,122.500001168251,10|0,1:2|3:0,0:0:0:0:
350,253,216380,1,0,3:0:0:0:
321,265,216517,1,8,3:2:0:0:
368,331,216789,5,2,0:0:0:0:
211,317,217062,1,10,0:0:0:0:
302,187,217335,1,0,3:0:0:0:
226,345,217607,6,0,L|91:326,1,122.500001168251,2|0,0:0|3:2,0:0:0:0:
74,322,218017,1,0,3:2:0:0:
43,318,218153,1,10,0:0:0:0:
181,258,218426,1,8,0:0:0:0:
5,140,218698,5,10,3:2:0:0:
157,180,218971,1,2,0:0:0:0:
115,9,219244,5,10,0:0:0:0:
37,32,219517,1,2,3:2:0:0:
209,71,219789,6,0,P|270:60|331:54,1,122.500001168251,2|0,0:0|3:2,0:0:0:0:
352,76,220198,1,0,3:2:0:0:
374,98,220335,2,0,L|355:233,1,122.500001168251,10|0,0:0|0:0,0:0:0:0:
341,299,220744,1,0,0:0:0:0:
335,329,220880,5,10,3:2:0:0:
484,273,221153,1,2,0:0:0:0:
330,354,221426,5,10,0:0:0:0:
257,313,221698,1,2,3:2:0:0:
120,371,221971,6,0,P|113:310|103:249,1,122.500001168251,2|0,0:0|3:2,0:0:0:0:
82,227,222380,1,0,3:2:0:0:
62,204,222517,2,0,P|68:143|78:82,1,122.500001168251,10|0,0:0|0:0,0:0:0:0:
0,0,223062,1,8,3:2:0:0:
157,58,223335,5,2,0:0:0:0:
266,2,223607,1,10,0:0:0:0:
322,111,223880,1,2,3:2:0:0:
213,167,224153,6,0,L|91:150,1,122.500001168251,2|0,0:0|3:0,0:0:0:0:
63,162,224562,1,0,3:0:0:0:
34,173,224698,2,0,P|13:237|36:298,1,122.500001168251,10|0,0:0|0:0,0:0:0:0:
171,323,225244,6,0,B|269:300|255:372|347:349,1,183.750001752377,10|0,3:2|0:0,0:0:0:0:
408,297,225789,1,10,0:0:0:0:
432,384,226062,2,0,P|439:323|448:262,1,122.500001168251,2|0,3:2|1:2,0:0:0:0:
472,151,226607,1,2,3:2:0:0:
479,121,226744,1,0,3:0:0:0:
486,91,226880,1,8,1:2:0:0:
401,194,227153,1,8,1:2:0:0:
350,26,227426,6,0,P|286:15|222:111,1,178.500003404617,10|0,3:2|0:0,0:0:0:0:
304,95,227971,1,8,0:0:0:0:
140,169,228244,2,0,L|123:51,1,119.000002269745,0|2,3:2|0:0,0:0:0:0:
62,196,228789,1,0,3:2:0:0:
203,220,229062,1,8,0:0:0:0:
18,264,229335,1,0,3:2:0:0:
25,293,229471,1,0,3:2:0:0:
32,322,229607,5,10,3:2:0:0:
111,314,229880,1,2,0:0:0:0:
240,348,230153,1,10,0:0:0:0:
203,220,230426,2,0,B|222:185|262:173|262:173|432:197,1,231.000002202988,0|0,3:2|3:2,0:0:0:0:
277,255,231244,1,10,0:0:0:0:
281,278,231517,1,0,3:2:0:0:
422,303,231789,1,10,3:2:0:0:
495,180,232062,5,2,0:0:0:0:
441,115,232335,1,10,0:0:0:0:
413,194,232607,1,2,3:2:0:0:
512,73,232880,6,0,P|452:35|402:44,1,112,2|0,0:0|3:0,0:0:0:0:
389,51,233289,1,0,3:0:0:0:
363,61,233426,2,0,L|245:44,1,112,10|0,0:0|0:0,0:0:0:0:
117,22,233971,5,10,3:2:0:0:
149,178,234244,1,2,0:0:0:0:
15,98,234517,5,10,0:0:0:0:
33,19,234789,1,2,3:2:0:0:
143,202,235062,6,0,P|89:189|25:185,1,108.500000827789,2|2,1:2|0:0,0:0:0:0:
23,209,235471,1,0,0:0:0:0:
11,233,235607,1,8,1:2:0:0:
189,269,235880,1,8,1:2:0:0:
186,100,236153,5,10,3:2:0:0:
106,115,236426,1,2,3:2:0:0:
255,220,236698,5,10,0:0:0:0:
400,250,236971,1,2,3:2:0:0:
203,372,237244,6,0,L|186:254,1,105.000004005432,2|0,0:0|3:0,0:0:0:0:
172,247,237653,1,0,3:0:0:0:
153,229,237789,2,0,P|96:241|61:288,1,105.000004005432,10|4,0:0|0:3,0:0:0:0:
59,300,238198,1,4,0:3:0:0:
51,325,238335,5,10,3:2:0:0:
18,161,238607,1,2,3:2:0:0:
188,69,238880,5,10,0:0:0:0:
173,149,239153,1,2,3:2:0:0:
19,41,239426,6,0,P|74:34|137:24,1,101.500003097534,2|0,0:0|3:0,0:0:0:0:
251,122,239971,2,0,P|303:128|369:139,1,101.500003097534,10|0,0:0|0:0,0:0:0:0:
233,201,240517,1,8,3:2:0:0:
314,312,240789,5,2,0:0:0:0:
392,294,241062,1,10,0:0:0:0:
374,216,241335,1,2,3:2:0:0:
314,312,241607,6,0,P|267:283|215:284,1,97.9999970092774,2|0,0:0|3:0,0:0:0:0:
205,296,242017,1,0,3:0:0:0:
186,311,242153,2,0,L|68:294,1,97.9999970092774,10|0,0:0|0:0,0:0:0:0:
0,195,242698,6,0,P|76:185|148:173,1,141.750000540733,10|0,3:2|0:0,0:0:0:0:
151,154,243244,1,10,0:0:0:0:
65,30,243517,1,2,3:2:0:0:
59,55,243789,1,0,1:2:0:0:
143,8,244062,5,2,0:0:0:0:
223,77,244335,1,8,1:2:0:0:
347,6,244607,1,8,1:2:0:0:
304,75,244880,6,0,P|317:160|330:258,1,181.999991668702,10|8,3:2|0:0,0:0:0:0:
412,306,245698,2,0,B|423:277|423:277|335:261|296:347,1,181.999991668702,0|0,3:2|3:2,0:0:0:0:
373,378,246517,1,8,0:0:0:0:
220,355,246789,1,0,3:2:0:0:
198,363,246926,1,0,3:2:0:0:
176,371,247062,5,10,3:2:0:0:
189,290,247335,1,2,0:0:0:0:
108,276,247607,1,10,0:0:0:0:
95,359,247880,6,0,P|82:266|68:173,1,175,0|0,3:2|3:2,0:0:0:0:
122,131,248698,2,0,P|82:112|39:116,1,87.5,10|0,0:0|3:2,0:0:0:0:
192,134,249244,5,10,3:2:0:0:
230,77,249517,1,0,0:0:0:0:
162,73,249789,1,8,0:0:0:0:
261,137,250062,6,0,L|446:163,1,167.999994873047,0|0,3:2|3:2,0:0:0:0:
486,128,250880,1,8,0:0:0:0:
433,230,251153,1,0,3:2:0:0:
437,243,251289,1,0,3:2:0:0:
441,256,251426,5,10,3:2:0:0:
366,285,251698,1,2,0:0:0:0:
339,348,251971,5,10,0:0:0:0:
307,322,252244,1,0,3:2:0:0:
238,327,252517,5,2,0:0:0:0:
241,306,252789,1,0,3:2:0:0:
172,338,253062,5,10,0:0:0:0:
175,359,253335,1,0,3:2:0:0:
112,384,253607,5,10,3:2:0:0:
256,192,253744,12,0,255789,0:0:0:0:
