osu file format v14

[General]
AudioFilename: spell lana backwards AHAHAHAHAH LMAOOO XDDDD SO FUNNY.mp3
AudioLeadIn: 0
PreviewTime: 41512
Countdown: 0
SampleSet: Soft
StackLeniency: 0.4
Mode: 0
LetterboxInBreaks: 0
WidescreenStoryboard: 1

[Editor]
Bookmarks: 14095,41940,42048,42157,42266,42374,97593,115640,117597,208874,222802,236715,254106,264526
DistanceSpacing: 2.5
BeatDivisor: 8
GridSize: 32
TimelineZoom: 2.008

[Metadata]
Title:Cinnamon Girl
TitleUnicode:Cinnamon Girl
Artist:Lana Del Rey
ArtistUnicode:Lana Del Rey
Creator:Superstore
Version:Don't Hurt Me
Source:
Tags:psychedelic trip hop triphop pop nfr norman f***king fucking rockwell english
BeatmapID:3923062
BeatmapSetID:1902848

[Difficulty]
HPDrainRate:5
CircleSize:4.5
OverallDifficulty:8
ApproachRate:7.5
SliderMultiplier:1.8
SliderTickRate:1

[Events]
//Background and Video events
0,0,"Gracile-artwork-digital-art-digital-painting-minimalism-road-.jpg",0,0
//Break Periods
//Storyboard Layer 0 (Background)
//Storyboard Layer 1 (Fail)
//Storyboard Layer 2 (Pass)
//Storyboard Layer 3 (Foreground)
//Storyboard Layer 4 (Overlay)
//Storyboard Sound Samples

[TimingPoints]
192,833.333333333333,4,2,2,45,1,0
192,-142.857142857143,4,2,2,45,0,0
816,-142.857142857143,4,2,2,5,0,0
1025,857.142857142857,4,2,2,45,1,0
1025,-500.000000000003,4,2,2,45,0,0
1882,869.565217391304,4,2,2,45,1,0
1882,-142.857142857143,4,2,2,45,0,0
2534,-142.857142857143,4,2,2,5,0,0
2751,-142.857142857143,4,2,2,45,0,0
3186,959.999999999999,4,2,2,45,1,0
3665,875.912408759124,4,2,2,45,1,0
3665,-142.857142857143,4,2,2,45,0,0
4321,-500.000000000003,4,2,2,5,0,0
4540,-500.000000000003,4,2,2,45,0,0
4978,-100,4,2,2,45,0,0
5416,-142.857142857143,4,2,2,45,0,0
5854,879.120879120879,4,2,2,45,1,0
6293,869.565217391304,4,2,2,45,1,0
7162,-142.857142857143,4,2,2,45,0,0
7814,-142.857142857143,4,2,2,5,0,0
8032,800,4,2,2,45,1,0
8032,-500.000000000003,4,2,2,45,0,0
8432,-100,4,2,2,45,0,0
8832,869.565217391304,4,2,2,45,1,0
8832,-142.857142857143,4,2,2,45,0,0
10126,1012.6582278481,4,2,2,45,1,0
10126,-100,4,2,2,45,0,0
10632,869.565217391304,4,2,2,45,1,0
10632,-142.857142857143,4,2,2,45,0,0
11284,-142.857142857143,4,2,2,5,0,0
11501,-500.000000000003,4,2,2,45,0,0
13240,-100,4,2,2,55,0,0
14110,-142.857142857143,4,2,2,60,0,0
16718,-142.857142857143,4,2,2,45,0,0
17371,-142.857142857143,4,2,2,5,0,0
17588,-142.857142857143,4,2,2,45,0,0
18458,-142.857142857143,4,2,2,45,0,0
21066,-142.857142857143,4,2,2,45,0,0
22805,-111.111111111111,4,2,2,50,0,0
26284,-166.666666666666,4,2,2,50,0,0
28675,-166.666666666666,4,2,2,5,0,0
28892,-166.666666666666,4,2,2,50,0,0
32153,-166.666666666666,4,2,2,5,0,0
32371,-166.666666666666,4,2,2,50,0,0
33023,-166.666666666666,4,2,2,5,0,0
33240,-166.666666666666,4,2,2,50,0,0
36718,-111.111111111111,4,2,2,50,0,0
39327,-111.111111111111,4,2,2,30,0,0
39545,776.699029126214,4,2,2,30,1,0
40138,722.891566265057,4,2,2,30,1,0
40138,-100,4,2,2,30,0,0
40860,1016.94915254237,4,2,2,30,1,0
40860,-100,4,2,2,30,0,0
41114,784.313725490196,4,2,2,30,1,0
41512,857.142857142857,4,2,2,50,1,0
41512,-125,4,2,2,50,0,0
41833,-125,4,2,2,5,0,0
41940,869.565217391304,4,2,2,50,1,0
41940,-83.3333333333333,4,2,2,50,0,0
45092,-83.3333333333333,4,2,2,5,0,0
45200,-83.3333333333333,4,2,2,50,0,0
57266,-83.3333333333333,4,2,2,5,0,0
57374,-83.3333333333333,4,2,2,50,0,0
64222,-83.3333333333333,4,2,2,5,0,0
64331,-83.3333333333333,4,2,2,50,0,0
69766,-142.857142857143,4,2,2,60,0,0
71831,-142.857142857143,4,2,2,5,0,0
71939,-142.857142857143,4,2,2,60,0,0
72266,-142.857142857143,4,2,2,5,0,0
72374,-142.857142857143,4,2,2,60,0,0
75309,-142.857142857143,4,2,2,5,0,0
75418,-142.857142857143,4,2,2,60,0,0
75744,-142.857142857143,4,2,2,5,0,0
75853,-142.857142857143,4,2,2,60,0,0
76722,-66.6666666666667,4,2,2,70,0,0
80200,-66.6666666666667,4,2,2,30,0,0
83244,-133.333333333333,4,2,2,50,0,0
83679,-142.857142857143,4,2,2,60,0,0
85744,-142.857142857143,4,2,2,5,0,0
85853,-142.857142857143,4,2,2,60,0,0
86179,-142.857142857143,4,2,2,5,0,0
86287,-142.857142857143,4,2,2,60,0,0
89222,-142.857142857143,4,2,2,5,0,0
89331,-142.857142857143,4,2,2,60,0,0
89657,-142.857142857143,4,2,2,5,0,0
89766,-142.857142857143,4,2,2,60,0,0
90635,-66.6666666666667,4,2,2,70,0,0
94113,-66.6666666666667,4,2,2,35,0,0
97592,833.333333333333,4,2,2,45,1,0
97592,-142.857142857143,4,2,2,45,0,0
98217,-142.857142857143,4,2,2,5,0,0
98425,857.142857142857,4,2,2,45,1,0
98425,-500,4,2,2,45,0,0
99282,869.565217391304,4,2,2,45,1,0
99282,-142.857142857143,4,2,2,45,0,0
99934,-142.857142857143,4,2,2,5,0,0
100151,-142.857142857143,4,2,2,45,0,0
100586,959.999999999999,4,2,2,45,1,0
101065,875.912408759124,4,2,2,45,1,0
101065,-142.857142857143,4,2,2,45,0,0
101721,-142.857142857143,4,2,2,5,0,0
101940,-500,4,2,2,45,0,0
102816,-142.857142857143,4,2,2,45,0,0
103254,879.120879120879,4,2,2,45,1,0
103693,869.565217391304,4,2,2,45,1,0
103693,-142.857142857143,4,2,2,45,0,0
104562,-142.857142857143,4,2,2,45,0,0
105432,800,4,2,2,45,1,0
105827,810.810810810811,4,2,2,45,1,0
105827,-100,4,2,2,45,0,0
106234,869.565217391304,4,2,2,45,1,0
106234,-142.857142857143,4,2,2,45,0,0
107526,1012.6582278481,4,2,2,45,1,0
107526,-142.857142857143,4,2,2,45,0,0
108030,869.565217391304,4,2,2,45,1,0
108030,-142.857142857143,4,2,2,45,0,0
108682,-142.857142857143,4,2,2,5,0,0
108899,-500,4,2,2,45,0,0
109769,-142.857142857143,4,2,2,45,0,0
112160,-142.857142857143,4,2,2,5,0,0
112377,-500,4,2,2,45,0,0
113247,-142.857142857143,4,2,2,45,0,0
114769,-142.857142857143,4,2,2,45,0,0
114986,-142.857142857143,4,2,2,45,0,0
115640,-142.857142857143,4,2,2,5,0,0
115827,869.565217391304,4,2,2,45,1,0
115827,-500,4,2,2,45,0,0
116696,-142.857142857143,4,2,2,45,0,0
117348,-142.857142857143,4,2,2,5,0,0
117566,-142.857142857143,4,2,2,45,0,0
117597,-142.857142857143,4,2,2,45,0,0
119957,-142.857142857143,4,2,2,5,0,0
120174,-111.111111111111,4,2,2,55,0,0
121913,-100,4,2,2,50,0,0
123653,-100,4,2,2,30,0,0
124553,909.090909090909,4,2,2,40,1,0
124553,-100,4,2,2,40,0,0
125007,857.142857142857,4,2,2,40,1,0
125435,869.565217391304,4,2,2,50,1,0
126304,-83.3333333333333,4,2,2,50,0,0
138478,-66.6666666666667,4,2,2,50,0,0
139348,-83.3333333333333,4,2,2,50,0,0
153261,-142.857142857143,4,2,2,60,0,0
155326,-142.857142857143,4,2,2,5,0,0
155435,-142.857142857143,4,2,2,60,0,0
155761,-142.857142857143,4,2,2,5,0,0
155869,-142.857142857143,4,2,2,60,0,0
158804,-142.857142857143,4,2,2,5,0,0
158913,-142.857142857143,4,2,2,60,0,0
159239,-142.857142857143,4,2,2,5,0,0
159348,-142.857142857143,4,2,2,60,0,0
160217,-66.6666666666667,4,2,2,70,0,0
167174,-142.857142857143,4,2,2,60,0,0
169239,-142.857142857143,4,2,2,5,0,0
169348,-142.857142857143,4,2,2,60,0,0
169674,-142.857142857143,4,2,2,5,0,0
169782,-142.857142857143,4,2,2,60,0,0
172717,-142.857142857143,4,2,2,5,0,0
172826,-142.857142857143,4,2,2,60,0,0
173152,-142.857142857143,4,2,2,5,0,0
173261,-142.857142857143,4,2,2,60,0,0
174076,-66.6666666666667,4,2,2,70,0,0
177608,-66.6666666666667,4,2,2,45,0,0
181087,-250,4,2,2,40,0,0
205434,-476.190476190476,4,2,2,30,0,0
208913,-476.190476190476,4,2,2,25,0,0
212174,-476.190476190476,4,2,2,5,0,0
212391,-400,4,2,2,25,0,0
214782,-400,4,2,2,5,0,0
215000,-400,4,2,2,25,0,0
215869,-344.827586206897,4,2,2,25,0,0
219130,-344.827586206897,4,2,2,5,0,0
219348,-303.030303030303,4,2,2,25,0,0
222608,-303.030303030303,4,2,2,5,0,0
222826,-270.27027027027,4,2,2,25,0,0
225217,-270.27027027027,4,2,2,5,0,0
225434,-270.27027027027,4,2,2,25,0,0
226087,-270.27027027027,4,2,2,5,0,0
226304,-243.90243902439,4,2,2,25,0,0
228695,-243.90243902439,4,2,2,5,0,0
228913,-243.90243902439,4,2,2,25,0,0
229565,-243.90243902439,4,2,2,5,0,0
229782,-222.222222222222,4,2,2,25,0,0
233043,-222.222222222222,4,2,2,5,0,0
233261,-204.081632653061,4,2,2,25,0,0
234782,-204.081632653061,4,2,2,5,0,0
235000,-204.081632653061,4,2,2,25,0,0
235652,-204.081632653061,4,2,2,5,0,0
235869,-204.081632653061,4,2,2,25,0,0
236521,-204.081632653061,4,2,2,5,0,0
236739,-181.818181818182,4,2,2,25,0,0
240000,-181.818181818182,4,2,2,5,0,0
240217,-169.491525423729,4,2,2,25,0,0
243478,-169.491525423729,4,2,2,5,0,0
243695,-158.730158730159,4,2,2,25,0,0
247174,-149.253731343284,4,2,2,25,0,0
247826,-149.253731343284,4,2,2,5,0,0
248043,-149.253731343284,4,2,2,25,0,0
250434,-149.253731343284,4,2,2,5,0,0
250652,-142.857142857143,4,2,2,25,0,0
253913,-142.857142857143,4,2,2,5,0,0
254130,-384.615384615385,4,2,2,25,0,0
264348,-1000,4,2,2,15,0,0

[Colours]
Combo1 : 206,96,96
Combo2 : 1,146,117
Combo3 : 230,217,147
Combo4 : 49,90,121
Combo5 : 19,126,157
Combo6 : 223,147,145

[HitObjects]
173,199,192,6,0,P|167:157|156:79,1,94.499997116089,2|0,0:1|0:0,0:0:0:0:
159,105,1025,2,0,P|160:113|162:127,1,18,2|0,0:1|0:0,0:0:0:0:
24,268,1882,6,0,P|62:234|112:243,1,94.499997116089,2|0,0:1|0:0,0:0:0:0:
155,286,2751,1,2,0:1:0:0:
151,298,3186,1,0,0:0:0:0:
304,202,3665,6,0,B|314:175|314:175|301:128|294:100,1,94.499997116089,2|0,0:1|0:0,0:0:0:0:
296,111,4540,2,0,P|299:122|303:132,1,18,2|0,0:1|0:0,0:0:0:0:
441,152,5416,6,0,P|473:144|523:134,1,62.9999980773926,2|0,0:1|0:0,0:0:0:0:
455,76,6293,1,2,0:1:0:0:
458,64,6727,1,2,0:1:0:0:
263,34,7162,38,0,P|264:84|306:112,1,94.499997116089,2|0,0:1|0:0,0:0:0:0:
296,110,8032,2,0,P|284:105|277:97,1,18
166,36,8832,6,0,P|116:50|87:62,1,62.9999980773926,2|0,0:1|0:0,0:0:0:0:
31,79,9701,1,2,0:1:0:0:
43,5,10126,1,2,0:1:0:0:
138,146,10632,6,0,P|123:195|110:243,1,94.499997116089,2|0,0:1|0:0,0:0:0:0:
111,236,11501,2,0,P|116:222|118:214,1,18,2|0,0:1|0:0,0:0:0:0:
116,218,12371,2,0,P|114:227|111:236,1,18,2|0,0:1|0:0,0:0:0:0:
67,321,13023,5,0,0:0:0:0:
67,321,13240,2,0,P|109:273|198:286,1,135,2|0,0:1|0:0,0:0:0:0:
244,266,14110,38,0,P|241:304|221:325,1,62.9999980773926,8|0,0:0|0:0,0:0:0:0:
191,384,14979,1,2,0:1:0:0:
120,367,15414,1,0,0:0:0:0:
176,270,15849,6,0,L|181:237,2,31.4999990386963,2|0|0,0:1|0:0|0:0,0:0:0:0:
239,193,16501,1,8,0:0:0:0:
239,193,16718,2,0,P|291:208|308:270,1,94.499997116089,2|0,0:1|0:0,0:0:0:0:
272,301,17588,1,8,0:0:0:0:
365,373,18023,6,0,P|380:369|398:364,1,31.4999990386963
450,322,18458,2,0,P|466:325|484:331,2,31.4999990386963,2|0|0,0:1|0:0|0:0,0:0:0:0:
348,157,19327,6,0,P|356:118|363:81,1,62.9999980773926,2|0,0:1|0:0,0:0:0:0:
324,32,19979,1,0,0:0:0:0:
324,32,20197,37,2,0:1:0:0:
180,76,20523,5,2,0:1:0:0:
276,192,20849,5,8,0:0:0:0:
253,78,21066,2,0,P|279:94|291:123,1,62.9999980773926,2|0,0:1|0:0,0:0:0:0:
71,168,21936,2,0,L|32:161,2,31.4999990386963,8|0|0,0:0|0:0|0:0,0:0:0:0:
146,48,22805,6,0,P|187:38|201:35,1,40.4999987640381,2|0,0:1|0:1,0:0:0:0:
234,151,23240,2,0,P|275:141|311:132,1,40.4999987640381,0|8,0:0|0:0,0:0:0:0:
269,57,23675,38,0,P|310:67|344:76,1,40.4999987640381,2|0,0:1|0:0,0:0:0:0:
304,211,24110,2,0,P|345:221|380:228,1,40.4999987640381
434,44,24545,6,0,B|412:68|412:68|424:115|430:157,1,121.499996292114,8|0,0:0|0:0,0:0:0:0:
350,122,25414,2,0,P|295:134|259:145,1,80.9999975280763,2|0,0:1|0:0,0:0:0:0:
230,303,26284,6,0,P|216:299|201:295,1,26.9999991760254,2|0,0:1|0:0,0:0:0:0:
229,198,26718,2,0,P|215:194|198:191,1,26.9999991760254
147,248,27153,6,0,P|133:251|116:256,1,26.9999991760254,2|0,0:1|0:0,0:0:0:0:
145,351,27588,2,0,P|131:354|112:363,1,26.9999991760254
20,268,28023,38,0,P|9:228|-1:186,1,80.9999975280763,8|0,0:0|0:0,0:0:0:0:
16,119,28892,1,8,0:0:0:0:
220,89,29327,6,0,P|246:82|269:76,1,26.9999991760254,2|0,0:1|0:0,0:0:0:0:
122,0,29762,2,0,P|164:9|209:19,1,80.9999975280763,2|8,0:1|0:0,0:0:0:0:
220,89,30631,2,0,P|186:83|176:81,1,26.9999991760254,2|0,0:1|0:0,0:0:0:0:
267,159,31066,1,0,0:0:0:0:
301,87,31284,1,2,0:1:0:0:
189,160,31501,6,0,P|201:210|212:256,1,80.9999975280763,8|0,0:0|0:0,0:0:0:0:
326,319,32371,1,2,0:1:0:0:
326,319,32588,2,0,P|310:352|287:367,1,53.9999983520508
234,325,33240,2,0,P|198:317|160:310,1,53.9999983520508,2|0,0:1|0:0,0:0:0:0:
10,261,34110,6,0,L|62:270,1,26.9999991760254,2|0,0:1|0:0,0:0:0:0:
92,218,34545,2,0,L|137:209,1,26.9999991760254
209,132,34979,38,0,P|231:96|278:98,1,80.9999975280763,8|8,0:0|0:0,0:0:0:0:
331,53,35849,2,0,P|326:26|322:-2,1,53.9999983520508,8|0,0:0|0:0,0:0:0:0:
471,137,36718,22,0,P|478:179|482:208,1,40.4999987640381,2|0,0:1|0:0,0:0:0:0:
362,218,37153,2,0,P|369:260|376:294,1,40.4999987640381,0|2,0:0|0:1,0:0:0:0:
452,252,37588,70,0,P|442:293|434:329,1,40.4999987640381,2|0,0:1|0:0,0:0:0:0:
297,284,38023,2,0,P|287:325|282:356,1,40.4999987640381
219,369,38458,70,0,B|217:354|206:331|206:331|221:274|233:228,1,121.499996292114,2|0,0:1|0:0,0:0:0:0:
251,185,39327,1,0,0:0:0:0:
228,252,39545,1,0,0:0:0:0:
228,252,40138,5,0,0:0:0:0:
171,198,40860,69,0,0:0:0:0:
304,167,41114,1,0,0:0:0:0:
220,100,41512,6,0,B|239:122|223:156,1,54,2|0,0:1|0:0,0:0:0:0:
226,151,41940,6,0,B|239:121|225:95|216:105|199:73|222:43,1,107.999996704102,8|0,0:0|0:0,0:0:0:0:
281,12,42592,1,2,0:0:0:0:
408,102,42809,2,0,P|355:115|299:134,1,107.999996704102,12|0,0:1|0:0,0:0:0:0:
155,208,43461,1,2,0:0:0:0:
86,111,43679,5,2,0:1:0:0:
142,59,43896,1,0,0:0:0:0:
155,130,44113,2,0,P|129:138|103:148,1,53.9999983520508,0|2,0:0|0:0,0:0:0:0:
0,268,44548,38,0,P|65:286|75:358,1,134.999995880127,12|0,0:1|0:0,0:0:0:0:
79,345,45200,2,0,P|91:341|106:338,1,26.9999991760254,8|0,0:0|0:0,0:0:0:0:
171,266,45418,6,0,P|212:278|245:287,1,53.9999983520508,4|0,0:1|0:0,0:0:0:0:
270,341,45853,1,0,0:0:0:0:
270,341,46070,1,2,0:0:0:0:
374,222,46287,2,0,P|430:235|449:240,1,53.9999983520508,12|0,0:1|0:0,0:0:0:0:
299,237,46722,5,2,0:1:0:0:
189,125,46940,1,2,0:0:0:0:
254,80,47157,2,0,B|273:98|273:98|261:134|248:201,1,107.999996704102,2|0,0:1|0:0,0:0:0:0:
365,152,47809,5,0,0:0:0:0:
437,143,48026,2,0,P|468:136|507:131,1,53.9999983520508,12|0,0:1|0:0,0:0:0:0:
406,27,48461,1,0,0:0:0:0:
406,27,48679,1,2,0:1:0:0:
448,218,48896,38,0,P|472:245|451:216,1,107.999996704102,4|0,0:1|0:0,0:0:0:0:
383,179,49548,6,0,P|360:185|333:195,1,26.9999991760254,2|0,0:0|0:0,0:0:0:0:
254,262,49766,2,0,P|244:210|195:187,1,107.999996704102,12|0,0:1|0:0,0:0:0:0:
158,248,50418,1,2,0:0:0:0:
75,115,50635,1,0,0:0:0:0:
94,41,50853,1,0,0:0:0:0:
149,95,51070,2,0,P|181:100|222:110,1,53.9999983520508,2|2,0:1|0:0,0:0:0:0:
323,140,51505,6,0,B|373:121|416:112|416:112|433:84,1,107.999996704102,12|0,0:1|0:0,0:0:0:0:
272,82,52157,1,2,0:0:0:0:
430,13,52374,6,0,P|489:46|483:99,1,107.999996704102,4|0,0:1|0:0,0:0:0:0:
311,229,53026,1,2,0:0:0:0:
335,302,53244,2,0,P|394:269|390:218,1,107.999996704102,12|0,0:1|0:0,0:0:0:0:
278,158,53896,1,2,0:0:0:0:
105,140,54113,37,2,0:1:0:0:
181,78,54331,1,0,0:0:0:0:
203,178,54548,2,0,P|209:206|217:247,1,53.9999983520508,0|2,0:0|0:0,0:0:0:0:
110,323,54983,6,0,B|120:282|135:217,1,107.999996704102,12|0,0:1|0:0,0:0:0:0:
203,178,55635,1,2,0:0:0:0:
62,206,55853,6,0,P|12:179|7:122,1,107.999996704102,4|0,0:1|0:0,0:0:0:0:
38,69,56505,2,0,P|52:50|53:35,1,26.9999991760254,2|0,0:0|0:0,0:0:0:0:
161,20,56722,6,0,B|205:10|257:-5|257:-5|297:3,1,134.999995880127,12|0,0:1|0:0,0:0:0:0:
260,69,57374,1,2,0:0:0:0:
145,165,57592,1,2,0:1:0:0:
145,165,57809,2,0,P|155:210|161:235,1,53.9999983520508
226,169,58244,1,2,0:0:0:0:
88,252,58461,2,0,B|83:271|83:271|93:298|115:373,1,107.999996704102,4|0,0:0|0:0,0:0:0:0:
242,181,59113,37,0,0:0:0:0:
400,189,59331,1,4,0:1:0:0:
327,223,59548,2,0,P|316:171|310:148,1,53.9999983520508
319,99,59983,1,2,0:0:0:0:
470,159,60200,6,0,P|466:110|413:84,1,107.999996704102,12|0,0:1|0:0,0:0:0:0:
243,118,60853,1,2,0:0:0:0:
177,83,61070,2,0,P|134:93|105:99,1,53.9999983520508,2|0,0:0|0:0,0:0:0:0:
290,241,61505,5,2,0:1:0:0:
364,225,61722,1,2,0:0:0:0:
322,158,61939,2,0,P|290:175|292:243,1,107.999996704102,4|2,0:0|0:1,0:0:0:0:
458,263,62592,5,2,0:0:0:0:
319,312,62809,2,0,B|282:321|282:321|233:305|202:292,1,107.999996704102,12|0,0:1|0:0,0:0:0:0:
146,275,63461,2,0,P|133:280|119:286,1,26.9999991760254,2|0,0:0|0:0,0:0:0:0:
193,101,63679,38,0,B|168:144|197:174|202:164|224:198|200:231,1,134.999995880127,12|0,0:0|0:0,0:0:0:0:
203,227,64331,1,2,0:0:0:0:
202,369,64548,5,2,0:1:0:0:
298,243,64766,1,0,0:0:0:0:
429,307,64983,2,0,P|388:298|358:293,1,53.9999983520508,0|2,0:0|0:0,0:0:0:0:
473,368,65418,6,0,P|461:293|454:245,1,107.999996704102,4|0,0:1|0:0,0:0:0:0:
329,139,66070,1,2,0:0:0:0:
277,88,66287,2,0,P|276:47|334:18,1,107.999996704102,12|0,0:1|0:0,0:0:0:0:
400,4,66939,6,0,P|419:10|448:21,1,26.9999991760254,2|0,0:0|0:0,0:0:0:0:
484,140,67157,1,12,0:0:0:0:
484,140,67374,1,0,0:0:0:0:
348,204,67592,2,0,P|315:194|277:185,1,53.9999983520508,0|2,0:0|0:0,0:0:0:0:
392,106,68026,38,0,P|403:139|414:177,1,53.9999983520508,2|0,0:1|0:0,0:0:0:0:
397,326,68461,1,0,0:0:0:0:
302,266,68679,1,2,0:0:0:0:
348,204,68896,2,0,B|316:252|346:292|361:277|381:321|349:361,1,161.999995056153,14|0,0:1|0:0,0:0:0:0:
99,239,69766,6,0,P|57:229|26:224,1,62.9999980773926,6|0,0:1|0:0,0:0:0:0:
110,232,70418,1,2,0:0:0:0:
237,110,70635,6,0,P|279:100|307:94,1,62.9999980773926,14|0,0:0|0:0,0:0:0:0:
221,102,71287,1,2,0:0:0:0:
130,313,71505,6,0,P|88:323|72:326,1,47.2499985580445,2|0,0:1|0:0,0:0:0:0:
80,337,71939,2,0,P|103:331|129:326,1,47.2499985580445,2|0,0:1|0:0,0:0:0:0:
177,260,72374,2,0,P|219:270|247:277,1,62.9999980773926,4|0,0:0|0:0,0:0:0:0:
408,178,73244,38,0,P|450:168|482:160,1,62.9999980773926,6|0,0:1|0:0,0:0:0:0:
395,170,73896,1,2,0:0:0:0:
251,36,74113,6,0,P|209:26|177:19,1,62.9999980773926,14|0,0:0|0:0,0:0:0:0:
262,31,74766,1,2,0:0:0:0:
358,239,74983,6,0,P|397:249|412:253,1,47.2499985580445,2|0,0:1|0:0,0:0:0:0:
408,263,75418,2,0,P|384:257|355:250,1,47.2499985580445,2|0,0:1|0:0,0:0:0:0:
311,186,75853,2,0,P|269:196|243:203,1,62.9999980773926,4|0,0:0|0:0,0:0:0:0:
318,173,76505,1,2,0:0:0:0:
121,160,76722,22,0,B|123:121|97:99|56:71|65:40,1,135.000005149842,4|0,0:0|0:0,0:0:0:0:
43,149,77374,1,2,0:1:0:0:
64,42,77592,6,0,B|71:3|98:-15|143:-7|152:8|155:37|155:37,1,135.000005149842,10|0,0:0|0:0,0:0:0:0:
121,160,78244,1,2,0:1:0:0:
155,37,78461,70,0,B|171:8|206:-1|241:32|241:61|224:82,1,135.000005149842,2|0,0:1|0:0,0:0:0:0:
192,194,79113,1,2,0:1:0:0:
225,80,79331,6,0,B|200:127|140:111|117:167,1,135.000005149842,4|0,0:0|0:0,0:0:0:0:
115,286,79983,2,0,P|114:305|112:334,1,33.7500012874604,2|0,0:1|0:0,0:0:0:0:
52,367,80200,5,2,0:1:0:0:
112,319,80853,5,0,0:0:0:0:
101,250,81070,1,0,0:0:0:0:
33,221,81722,5,0,0:0:0:0:
101,250,81939,1,0,0:0:0:0:
33,221,82266,5,0,0:0:0:0:
101,250,82809,37,0,0:0:0:0:
33,221,83244,6,0,P|17:215|-3:213,1,33.7500012874604
82,159,83679,6,0,P|110:173|130:172,1,47.2499985580445,6|0,0:1|0:0,0:0:0:0:
138,166,84113,1,0,0:0:0:0:
144,156,84222,1,0,0:0:0:0:
150,146,84331,1,2,0:0:0:0:
156,136,84439,1,0,0:0:0:0:
163,125,84548,6,0,P|170:80|175:57,1,62.9999980773926,14|0,0:0|0:0,0:0:0:0:
174,136,85200,1,2,0:0:0:0:
354,188,85418,38,0,P|387:179|411:173,1,47.2499985580445,2|0,0:1|0:0,0:0:0:0:
402,186,85853,2,0,P|379:191|353:199,1,47.2499985580445,2|0,0:1|0:0,0:0:0:0:
320,258,86287,2,0,P|288:246|248:235,1,62.9999980773926,4|0,0:0|0:0,0:0:0:0:
67,107,87157,6,0,P|56:60|48:34,1,62.9999980773926,6|0,0:1|0:0,0:0:0:0:
61,123,87809,1,2,0:0:0:0:
282,166,88026,6,0,P|293:119|300:94,1,62.9999980773926,14|0,0:0|0:0,0:0:0:0:
287,178,88679,1,2,0:0:0:0:
120,269,88896,6,0,P|87:260|61:253,1,47.2499985580445,2|0,0:1|0:0,0:0:0:0:
71,268,89331,2,0,P|93:273|117:282,1,47.2499985580445,2|0,0:1|0:0,0:0:0:0:
155,339,89766,2,0,P|186:327|226:316,1,62.9999980773926,4|0,0:0|0:0,0:0:0:0:
154,351,90418,1,2,0:0:0:0:
368,153,90635,6,0,B|366:114|392:92|433:64|425:35,1,135.000005149842,4|0,0:0|0:0,0:0:0:0:
447,151,91287,1,2,0:1:0:0:
426,36,91505,6,0,B|419:-3|392:-21|347:-13|338:2|335:32|335:32,1,135.000005149842,10|0,0:0|0:0,0:0:0:0:
368,153,92157,1,2,0:1:0:0:
335,31,92374,70,0,B|319:2|284:-7|249:26|249:55|268:80,1,135.000005149842,2|0,0:1|0:0,0:0:0:0:
298,182,93026,1,2,0:1:0:0:
264,75,93244,6,0,B|289:122|351:99|371:164,1,135.000005149842,4|0,0:0|0:0,0:0:0:0:
375,281,93896,2,0,P|376:300|377:330,1,33.7500012874604,2|0,0:1|0:0,0:0:0:0:
435,362,94113,5,6,0:1:0:0:
300,260,94766,5,0,0:0:0:0:
317,187,94983,1,12,0:1:0:0:
190,157,95635,5,0,0:1:0:0:
179,81,95853,1,2,0:0:0:0:
248,203,96179,5,0,0:0:0:0:
126,197,96505,37,2,0:0:0:0:
190,157,96722,1,8,0:1:0:0:
287,353,97157,5,0,0:0:0:0:
287,353,97374,1,2,0:0:0:0:
225,307,97592,6,0,P|164:325|143:353,1,94.499997116089,2|0,0:1|0:0,0:0:0:0:
145,347,98425,2,0,P|151:337|158:331,1,18,2|0,0:1|0:0,0:0:0:0:
333,249,99282,6,0,P|344:180|349:148,1,94.499997116089,2|0,0:1|0:0,0:0:0:0:
413,113,100151,1,2,0:1:0:0:
418,132,100586,1,0,0:0:0:0:
290,66,101065,38,0,P|252:78|233:127,1,94.499997116089,2|0,0:1|0:0,0:0:0:0:
232,125,101940,2,0,P|233:115|235:107,1,18,2|0,0:1|0:0,0:0:0:0:
363,70,102816,2,0,P|363:27|344:1,1,62.9999980773926,2|0,0:1|0:0,0:0:0:0:
294,160,103693,6,0,P|305:191|311:216,2,47.2499985580445,2|2|0,0:1|0:1|0:0,0:0:0:0:
158,214,104562,6,0,B|127:231|127:231|92:213|34:203,1,125.999996154785,2|0,0:1|0:0,0:0:0:0:
120,149,105827,1,0,0:0:0:0:
181,289,106234,6,0,B|203:310|203:335|203:335|212:311|240:296,1,94.499997116089,2|0,0:1|0:0,0:0:0:0:
299,262,107103,2,0,P|316:264|336:280,1,31.4999990386963,2|0,0:1|0:0,0:0:0:0:
323,342,107526,2,0,P|295:334|286:323,1,31.4999990386963,2|0,0:1|0:0,0:0:0:0:
231,229,108030,38,0,P|270:190|313:194,1,94.499997116089,2|0,0:1|0:0,0:0:0:0:
306,191,108899,2,0,P|296:188|286:189,1,18,2|0,0:1|0:0,0:0:0:0:
194,135,109769,2,0,P|163:140|132:147,1,62.9999980773926,2|0,0:1|0:0,0:0:0:0:
101,270,110421,5,0,0:0:0:0:
170,239,110638,2,0,P|175:217|179:196,1,31.4999990386963,2|0,0:1|0:0,0:0:0:0:
201,104,111073,2,0,P|197:119|192:139,1,31.4999990386963
31,174,111508,6,0,P|3:132|11:87,1,94.499997116089,2|0,0:1|0:0,0:0:0:0:
9,90,112377,2,0,P|4:104|3:110,1,18,2|0,0:1|0:0,0:0:0:0:
109,251,113247,2,0,P|116:217|104:187,1,62.9999980773926,2|0,0:1|0:0,0:0:0:0:
74,365,114116,6,0,P|98:360|138:348,1,62.9999980773926,2|0,0:1|0:0,0:0:0:0:
203,374,114768,2,0,L|230:381,1,15.7499995193482
265,301,114986,38,0,P|305:270|302:218,1,94.499997116089,8|0,0:0|0:0,0:0:0:0:
307,229,115827,2,0,P|310:241|310:248,1,18,2|0,0:1|0:0,0:0:0:0:
201,269,116696,6,0,P|205:220|247:194,1,94.499997116089,2|0,0:1|0:0,0:0:0:0:
285,139,117566,6,0,P|318:147|355:157,1,62.9999980773926,2|0,0:1|0:1,0:1:0:0:
414,73,118218,5,2,0:1:0:0:
414,73,118327,1,0,0:0:0:0:
414,73,118435,2,0,P|437:65|457:59,1,31.4999990386963
421,150,118870,37,0,0:0:0:0:
421,150,119087,1,2,0:1:0:0:
334,75,119305,2,0,P|291:47|243:62,1,94.499997116089,8|0,0:0|0:0,0:0:0:0:
139,115,120174,6,0,P|147:152|151:169,1,40.4999987640381,2|0,0:1|0:1,0:0:0:0:
32,106,120609,2,0,P|27:86|21:64,1,40.4999987640381,0|8,0:0|0:0,0:0:0:0:
171,47,121044,6,0,P|175:27|178:5,1,40.4999987640381,2|0,0:1|0:0,0:0:0:0:
103,6,121479,2,0,P|98:25|94:50,1,40.4999987640381
56,185,121913,6,0,P|32:222|59:187,1,135,8|0,0:0|0:0,0:0:0:0:
138,142,122783,2,0,P|144:135|139:148,1,45,8|0,0:0|0:0,0:0:0:0:
206,252,123218,2,0,P|212:259|207:246,1,45
138,223,123653,37,2,0:1:0:0:
206,252,124087,1,0,0:0:0:0:
138,142,124553,5,2,0:1:0:0:
47,185,125007,2,0,P|21:194|-2:206,1,45,2|0,0:1|0:0,0:0:0:0:
96,125,125436,6,0,P|116:134|139:142,1,45,8|0,0:0|0:0,0:0:0:0:
94,253,125869,1,0,0:0:0:0:
94,253,126086,1,2,0:0:0:0:
259,275,126304,6,0,B|269:253|269:253|258:209|257:164,1,107.999996704102,12|0,0:1|0:0,0:0:0:0:
192,237,126956,1,2,0:0:0:0:
310,118,127173,37,2,0:1:0:0:
286,39,127391,1,0,0:0:0:0:
233,95,127608,1,0,0:0:0:0:
187,5,127825,5,2,0:0:0:0:
83,151,128043,2,0,P|147:130|152:81,1,107.999996704102,12|0,0:1|0:0,0:0:0:0:
115,39,128695,2,0,P|106:14|88:0,1,26.9999991760254,8|0,0:0|0:0,0:0:0:0:
1,69,128912,6,0,P|41:79|72:88,1,53.9999983520508,4|0,0:1|0:0,0:0:0:0:
188,162,129347,1,0,0:0:0:0:
57,254,129565,1,2,0:0:0:0:
126,223,129782,2,0,P|166:233|201:243,1,53.9999983520508,12|0,0:1|0:0,0:0:0:0:
105,318,130217,5,2,0:1:0:0:
57,180,130434,1,2,0:0:0:0:
208,301,130652,2,0,B|251:333|293:297|275:285|324:249|376:302,1,161.999995056153,2|2,0:1|0:0,0:0:0:0:
445,190,131521,37,12,0:1:0:0:
280,181,131739,1,0,0:0:0:0:
280,261,131956,1,0,0:0:0:0:
356,286,132173,1,2,0:1:0:0:
396,130,132391,6,0,P|412:225|417:260,1,107.999996704102,4|0,0:1|0:0,0:0:0:0:
337,212,133043,2,0,P|336:197|334:184,1,26.9999991760254,2|0,0:0|0:0,0:0:0:0:
458,92,133260,6,0,P|494:69|496:6,1,107.999996704102,12|0,0:1|0:0,0:0:0:0:
391,55,133912,1,2,0:0:0:0:
250,104,134130,5,0,0:0:0:0:
329,119,134347,1,0,0:0:0:0:
152,207,134565,37,2,0:1:0:0:
272,178,134782,1,2,0:0:0:0:
173,121,134999,6,0,P|140:127|117:132,1,53.9999983520508,12|0,0:1|0:0,0:0:0:0:
92,299,135435,2,0,P|129:290|160:283,1,53.9999983520508,0|2,0:0|0:0,0:0:0:0:
163,290,135761,1,0,0:0:0:0:
181,297,135869,6,0,P|206:261|268:252,1,107.999996704102,4|0,0:1|0:0,0:0:0:0:
307,313,136521,2,0,P|303:325|299:340,1,26.9999991760254,2|0,0:0|0:0,0:0:0:0:
310,182,136739,6,0,P|361:197|413:216,1,107.999996704102,12|0,0:1|0:0,0:0:0:0:
416,378,137391,1,2,0:0:0:0:
461,273,137608,2,0,P|489:265|523:255,1,53.9999983520508,2|0,0:1|0:0,0:0:0:0:
307,313,138043,1,2,0:0:0:0:
341,381,138260,1,0,0:0:0:0:
488,356,138478,2,0,P|454:310|378:313,1,135.000005149842,12|0,0:1|0:0,0:0:0:0:
263,235,139130,37,2,0:0:0:0:
216,177,139348,2,0,B|214:158|214:158|230:118|243:58,1,107.999996704102,4|0,0:1|0:0,0:0:0:0:
171,44,139999,1,2,0:0:0:0:
50,220,140217,6,0,P|95:202|108:146,1,107.999996704102,12|0,0:1|0:0,0:0:0:0:
49,108,140869,1,2,0:0:0:0:
181,196,141086,2,0,P|213:189|245:182,1,53.9999983520508,2|0,0:1|0:0,0:0:0:0:
230,113,141521,2,0,P|203:118|165:125,1,53.9999983520508,0|2,0:0|0:0,0:0:0:0:
8,170,141956,2,0,P|29:236|47:293,1,107.999996704102,4|0,0:0|0:0,0:0:0:0:
103,145,142608,5,0,0:0:0:0:
152,86,142825,2,0,P|144:57|141:37,1,26.9999991760254,4|0,0:1|0:0,0:0:0:0:
86,20,143043,2,0,P|49:25|28:48,1,53.9999983520508
103,220,143478,5,2,0:0:0:0:
172,183,143695,2,0,P|202:193|220:218,1,53.9999983520508,12|0,0:1|0:0,0:0:0:0:
340,92,144130,37,0,0:0:0:0:
323,16,144347,1,2,0:0:0:0:
268,68,144565,2,0,P|219:50|203:-7,1,107.999996704102,2|2,0:0|0:1,0:0:0:0:
457,81,145217,5,0,0:0:0:0:
365,156,145434,2,0,P|377:101|389:48,1,107.999996704102,4|2,0:0|0:1,0:0:0:0:
418,208,146086,1,2,0:0:0:0:
279,141,146304,6,0,P|290:187|304:249,1,107.999996704102,12|0,0:1|0:0,0:0:0:0:
150,189,146956,1,2,0:0:0:0:
196,326,147173,2,0,P|223:318|239:296,1,53.9999983520508,12|0,0:0|0:0,0:0:0:0:
223,224,147608,1,0,0:0:0:0:
223,224,147825,1,2,0:0:0:0:
312,319,148043,6,0,P|338:324|370:334,1,53.9999983520508,2|0,0:1|0:0,0:0:0:0:
156,261,148478,1,0,0:0:0:0:
223,224,148695,1,2,0:0:0:0:
78,172,148912,38,0,P|16:155|2:153,1,53.9999983520508,4|0,0:1|0:0,0:0:0:0:
72,12,149347,2,0,P|76:40|80:75,1,53.9999983520508,0|2,0:0|0:0,0:0:0:0:
89,81,149674,1,0,0:0:0:0:
98,96,149782,6,0,P|155:89|177:35,1,107.999996704102,12|0,0:1|0:0,0:0:0:0:
256,60,150434,5,2,0:0:0:0:
175,161,150652,2,0,B|161:186|161:186|175:213|190:273,1,107.999996704102,12|0,0:0|0:0,0:0:0:0:
308,205,151304,1,2,0:0:0:0:
365,150,151521,2,0,P|397:160|430:170,1,53.9999983520508,2|0,0:1|0:0,0:0:0:0:
434,292,151956,5,0,0:0:0:0:
361,265,152173,1,2,0:0:0:0:
214,375,152391,2,0,B|253:381|253:381|288:359,1,80.9999975280763,14|0,0:1|0:0,0:0:0:0:
289,359,152825,1,0,0:0:0:0:
439,215,153261,38,0,P|414:202|389:202,1,47.2499985580445,6|0,0:1|0:0,0:0:0:0:
381,210,153695,1,0,0:0:0:0:
375,220,153804,1,0,0:0:0:0:
369,230,153913,1,2,0:0:0:0:
363,240,154021,1,0,0:0:0:0:
356,251,154130,38,0,P|349:296|346:317,1,62.9999980773926,14|0,0:0|0:0,0:0:0:0:
345,241,154782,1,2,0:0:0:0:
164,187,154999,70,0,P|131:196|107:203,1,47.2499985580445,2|0,0:1|0:0,0:0:0:0:
115,188,155434,2,0,P|138:183|164:175,1,47.2499985580445,2|0,0:1|0:0,0:0:0:0:
200,118,155869,2,0,B|236:118|236:118|266:138,1,62.9999980773926,4|0,0:0|0:0,0:0:0:0:
452,269,156739,6,0,P|463:316|468:339,1,62.9999980773926,6|0,0:1|0:0,0:0:0:0:
463,259,157391,1,2,0:0:0:0:
221,277,157608,38,0,P|229:246|238:212,1,62.9999980773926,14|0,0:0|0:0,0:0:0:0:
210,287,158260,1,2,0:0:0:0:
399,106,158478,38,0,P|432:115|453:122,1,47.2499985580445,2|0,0:1|0:0,0:0:0:0:
449,106,158912,2,0,P|427:101|400:93,1,47.2499985580445,2|0,0:1|0:0,0:0:0:0:
364,37,159347,2,0,B|328:36|328:36|301:60,1,62.9999980773926,4|0,0:0|0:0,0:0:0:0:
376,28,159999,1,2,0:0:0:0:
212,232,160217,6,0,B|214:193|188:171|147:143|156:110,1,135.000005149842,4|0,0:0|0:0,0:0:0:0:
134,230,160869,1,2,0:1:0:0:
155,113,161087,6,0,B|162:74|189:56|234:64|243:79|246:109|246:109,1,135.000005149842,10|0,0:0|0:0,0:0:0:0:
212,233,161739,1,2,0:1:0:0:
245,108,161956,70,0,B|261:79|296:70|331:103|331:132|311:158,1,135.000005149842,2|0,0:1|0:0,0:0:0:0:
283,263,162608,1,2,0:1:0:0:
314,152,162825,6,0,B|289:199|229:183|211:234,1,135.000005149842,4|0,0:0|0:0,0:0:0:0:
235,360,163478,2,0,P|242:328|246:305,1,33.7500012874604
212,233,163695,5,2,0:1:0:0:
215,157,164347,5,0,0:0:0:0:
157,117,164565,1,12,0:0:0:0:
157,117,165217,5,2,0:0:0:0:
94,161,165434,1,2,0:1:0:0:
107,234,165761,5,0,0:0:0:0:
94,161,166086,37,2,0:0:0:0:
157,117,166304,1,12,0:0:0:0:
307,87,166738,6,0,P|345:77|372:36,1,67.5000025749208,2|2,0:1|0:0,0:0:0:0:
254,32,167174,6,0,P|229:17|205:17,1,47.2499985580445,6|0,0:1|0:0,0:0:0:0:
198,24,167608,1,0,0:0:0:0:
185,33,167717,1,0,0:0:0:0:
172,42,167825,1,2,0:0:0:0:
159,51,167935,1,0,0:0:0:0:
148,62,168043,6,0,P|111:49|86:40,1,62.9999980773926,14|0,0:0|0:0,0:0:0:0:
155,75,168695,1,2,0:0:0:0:
48,247,168913,38,0,P|14:253|-7:257,1,47.2499985580445,2|0,0:1|0:0,0:0:0:0:
0,242,169347,2,0,P|23:239|50:235,1,47.2499985580445,2|0,0:1|0:0,0:0:0:0:
106,190,169782,2,0,B|142:186|142:186|172:161,1,62.9999980773926,4|0,0:0|0:0,0:0:0:0:
96,182,170434,1,0,0:0:0:0:
290,286,170652,6,0,P|296:322|301:354,1,62.9999980773926,6|0,0:1|0:0,0:0:0:0:
276,280,171304,1,2,0:0:0:0:
480,213,171521,6,0,P|486:177|492:151,1,62.9999980773926,14|0,0:0|0:0,0:0:0:0:
491,228,172173,1,2,0:0:0:0:
299,113,172391,6,0,P|265:107|242:104,1,47.2499985580445,2|0,0:1|0:0,0:0:0:0:
251,117,172825,2,0,P|274:120|304:127,1,47.2499985580445,2|0,0:1|0:0,0:0:0:0:
365,87,173260,2,0,P|400:73|420:68,1,47.2499985580445,4|0,0:0|0:0,0:0:0:0:
355,72,173695,37,0,0:0:0:0:
487,127,173912,1,2,0:0:0:0:
351,271,174130,54,0,B|351:229|377:207|416:182|410:150,1,135.000005149842,4|0,0:0|0:0,0:0:0:0:
431,269,174782,1,2,0:1:0:0:
411,154,174999,6,0,B|404:115|377:97|332:105|323:120|320:149|320:149,1,135.000005149842,10|0,0:0|0:0,0:0:0:0:
351,277,175652,1,2,0:1:0:0:
319,149,175869,70,0,B|303:120|268:111|233:144|233:173|252:197,1,135.000005149842,2|0,0:1|0:0,0:0:0:0:
279,303,176521,1,2,0:1:0:0:
249,192,176738,6,0,B|278:242|335:227|355:285,1,135.000005149842,4|0,0:0|0:0,0:0:0:0:
399,384,177391,2,0,P|404:364|407:347,1,33.7500012874604
351,277,177608,5,6,0:1:0:0:
219,253,178260,5,0,0:0:0:0:
149,274,178478,1,12,0:1:0:0:
138,132,179130,5,2,0:1:0:0:
64,108,179347,1,2,0:0:0:0:
164,203,179674,5,0,0:0:0:0:
186,71,179999,37,2,0:0:0:0:
138,132,180217,1,8,0:1:0:0:
264,211,180652,5,0,0:0:0:0:
375,231,180869,1,2,0:0:0:0:
211,143,181087,6,0,P|246:135|253:134,1,36,8|0,0:0|0:0,0:0:0:0:
325,165,181739,1,2,0:0:0:0:
325,165,181956,2,0,L|337:108,1,54,2|0,0:1|0:0,0:0:0:0:
350,41,182826,5,8,0:0:0:0:
264,211,183261,1,0,0:0:0:0:
194,238,183478,1,2,0:0:0:0:
194,238,183695,2,0,P|166:233|152:231,1,36,8|0,0:0|0:0,0:0:0:0:
64,252,184348,37,0,0:0:0:0:
64,252,184565,2,0,P|72:217|77:192,1,54,8|2,0:0|0:0,0:0:0:0:
137,156,185434,2,0,P|168:145|177:142,1,36,2|0,0:1|0:0,0:0:0:0:
125,83,186087,1,2,0:0:0:0:
125,83,186304,2,0,P|99:79|72:38,1,72,10|0,0:0|0:0,0:0:0:0:
141,4,187391,5,2,0:1:0:0:
194,57,187608,1,0,0:1:0:0:
241,0,187826,1,2,0:1:0:0:
278,125,188043,6,0,P|270:83|266:65,1,54,8|0,0:0|0:0,0:0:0:0:
335,50,188913,2,2,P|366:64|390:76,1,54,0|0,0:0|0:0,0:0:0:0:
442,29,189782,2,0,P|437:11|434:5,1,18,8|0,0:0|0:0,0:0:0:0:
427,135,190217,2,0,P|422:153|421:160,1,18,2|2,0:0|0:1,0:0:0:0:
455,219,190652,2,0,P|484:203|508:193,1,54,2|0,0:1|0:0,0:0:0:0:
402,276,191521,6,0,P|376:262|371:252,1,36,8|0,0:0|0:0,0:0:0:0:
320,210,192174,1,2,0:0:0:0:
320,210,192391,2,0,P|286:226|265:237,1,54,2|0,0:1|0:0,0:0:0:0:
221,312,193261,2,0,P|215:280|213:271,1,36,2|0,0:1|0:0,0:0:0:0:
296,302,193913,37,2,0:0:0:0:
296,302,194130,1,8,0:0:0:0:
147,239,194565,2,0,L|125:248,1,18,2|2,0:1|0:0,0:0:0:0:
67,275,195000,6,0,P|73:309|93:326,1,54,8|2,0:0|0:0,0:0:0:0:
149,290,195869,2,0,P|160:253|167:232,1,54,8|2,0:0|0:0,0:0:0:0:
118,181,196739,2,0,P|106:185|95:190,1,18,8|0,0:0|0:0,0:0:0:0:
18,219,197174,2,0,P|26:215|34:212,1,18,2|2,0:1|0:0,0:0:0:0:
132,104,197608,2,0,P|167:123|184:133,1,54,8|8,0:0|0:0,0:0:0:0:
251,187,198478,5,10,0:0:0:0:
251,187,198695,2,0,P|253:156|249:145,1,36,2|2,0:1|0:0,0:0:0:0:
269,83,199348,2,0,P|298:93|324:104,1,54,2|2,0:1|0:0,0:0:0:0:
393,66,200217,6,0,P|381:62|370:59,1,18,8|0,0:0|0:0,0:0:0:0:
313,23,200652,1,0,0:0:0:0:
392,146,200869,1,2,0:0:0:0:
460,108,201087,2,0,P|464:82|472:49,1,54,8|2,0:0|0:0,0:0:0:0:
503,174,201956,38,0,P|473:187|446:197,1,54,8|2,0:0|0:0,0:0:0:0:
400,245,202826,2,0,P|417:280|425:297,1,54,2|0,0:1|0:0,0:0:0:0:
434,363,203695,1,8,0:0:0:0:
365,332,203913,6,0,L|345:339,1,18,0|2,0:0|0:0,0:0:0:0:
293,296,204348,1,2,0:0:0:0:
187,163,204565,6,10,B|183:155|169:144|169:144|188:142|198:155,1,54,0|0,0:0|0:0,0:0:0:0:
279,220,205434,6,8,B|287:183|318:170|318:170|273:161|255:200,1,141.749995674133,0|0,0:0|0:0,0:0:0:0:
209,261,208913,38,0,B|172:282|136:258|146:253|127:217|75:229,1,141.749995674133,8|0,0:0|0:0,0:0:0:0:
21,174,212391,6,0,P|27:123|37:49,1,123.75,8|0,0:0|0:0,0:0:0:0:
108,66,215000,2,0,P|103:93|101:108,1,33.75,2|2,0:1|0:1,0:0:0:0:
104,113,215761,1,2,0:1:0:0:
108,128,215869,6,0,B|152:121|182:108|182:108|202:115|218:129|218:129|260:114|303:108,1,195.750005973816,8|0,0:0|0:0,0:0:0:0:
345,53,219348,6,0,B|381:51|399:22|399:22|430:67|410:112|410:112|448:114|471:137,1,222.749999320221,8|0,0:0|0:0,0:0:0:0:
414,186,222826,38,0,B|360:198|291:215|291:215|327:222|342:251,1,183.150004471436,8|0,0:0|0:0,0:0:0:0:
347,316,225434,2,0,P|361:326|348:315,1,49.9500012194825
277,284,226304,6,0,B|227:293|204:348|204:348|205:284|156:264,1,202.950003096771,8|0,0:0|0:0,0:0:0:0:
93,302,228913,2,0,P|67:313|31:330,1,55.350000844574,2|0,0:1|0:0,0:0:0:0:
30,247,229782,6,0,B|-19:237|-44:179|-15:137|23:116|78:129|88:184|88:184|127:206|161:170,1,303.749990730286,8|0,0:0|0:0,0:0:0:0:
179,114,233261,6,0,P|237:116|264:204,1,154.349998586884,8|0,0:0|0:0,0:0:0:0:
279,267,235000,2,0,P|244:268|217:247,1,66.1499993943787
267,196,235869,2,0,P|306:196|330:211,1,66.1499993943787
356,277,236739,38,0,B|405:307|456:268|429:250|462:219|529:225|529:225|503:141|437:135|395:176,1,371.250011329651,8|0,0:0|0:0,0:0:0:0:
321,167,240217,6,8,B|326:130|326:130|324:122|324:122|331:74,1,79.6499972046662,8|0,0:0|0:0,0:0:0:0:
295,20,241087,1,2,0:1:0:0:
251,118,241521,6,0,B|247:93|247:93|247:90|247:90|244:81|244:81|242:79|242:79|236:50,1,53.0999981364442,8|0,0:0|0:0,0:0:0:0:
295,20,242174,1,2,0:1:0:0:
173,115,242826,6,0,P|132:108|70:99,1,79.6499972046662,2|0,0:1|0:0,0:0:0:0:
38,150,243695,38,0,P|25:204|54:237,1,85.0499974044801,8|0,0:0|0:0,0:0:0:0:
79,283,244565,1,2,0:1:0:0:
142,181,245000,6,0,P|145:216|129:242,1,56.6999982696534,8|0,0:0|0:0,0:0:0:0:
79,283,245652,6,0,P|88:326|94:355,1,56.6999982696534,2|0,0:1|0:0,0:0:0:0:
157,306,246304,2,0,P|163:327|167:343,1,28.3499991348267,2|0,0:1|0:0,0:0:0:0:
228,287,246739,2,0,P|234:308|238:324,1,28.3499991348267,2|0,0:1|0:0,0:0:0:0:
300,353,247174,6,0,P|326:368|301:351,1,90.4499957215121,8|0,0:0|0:0,0:0:0:0:
235,314,248043,38,0,P|231:300|226:279,1,30.1499985738374,2|0,0:0|0:0,0:0:0:0:
283,190,248478,2,0,P|272:200|261:211,1,30.1499985738374,2|0,0:0|0:0,0:0:0:0:
155,216,248913,2,0,P|170:219|185:223,1,30.1499985738374,2|0,0:0|0:0,0:0:0:0:
301,270,249348,2,0,B|331:266|363:257|363:257|376:262|390:269|390:269|424:258|463:257,1,150.749992869187,10|0,0:0|0:0,0:0:0:0:
491,199,250652,6,0,B|534:174|524:136|544:79|507:58|447:49|430:75|417:109|433:138|433:138|390:110|349:129|349:129|353:189|311:210|257:190,1,472.499985580445,8|0,0:0|0:0,0:0:0:0:
199,176,254130,54,0,B|184:128|127:143|98:96|98:96|76:63|90:34|129:9|162:21|175:52|175:52|190:25|204:12|238:6|267:30|266:62|266:62|267:98|226:121|200:140|200:176,1,549.899996643677,10|8,0:0|0:0,0:0:0:0:
199,176,264565,69,8,0:0:0:0:
