osu file format v14

[General]
AudioFilename: audio.mp3
AudioLeadIn: 0
PreviewTime: 14697
Countdown: 0
SampleSet: Soft
StackLeniency: 0.7
Mode: 0
LetterboxInBreaks: 0
WidescreenStoryboard: 0

[Editor]
Bookmarks: 5010,15010,25010,35010,45010,55010,65010,75010
DistanceSpacing: 1.2
BeatDivisor: 4
GridSize: 4
TimelineZoom: 1.3

[Metadata]
Title:Yi Bai Kuai Dou Bu Gei Wo
TitleUnicode:一百块都不给我
Artist:Lan Zi
ArtistUnicode:兰梓
Creator:Pata-Mon
Version:liangv587's Easy
Source:
Tags:liangv587 Kencho Regraz DreaM117er m1223961117 小红帽 Little Red Riding Hood xiao hong mao Bilibili Douga 鬼畜 remix 百元哥 T2o 天德池里丢东西
BeatmapID:991707
BeatmapSetID:425219

[Difficulty]
HPDrainRate:2
CircleSize:2
OverallDifficulty:2
ApproachRate:3
SliderMultiplier:1.6
SliderTickRate:2

[Events]
//Background and Video events
Video,70,"video.flv"
0,0,"BG.jpg",0,0
//Break Periods
//Storyboard Layer 0 (Background)
//Storyboard Layer 1 (Fail)
//Storyboard Layer 2 (Pass)
//Storyboard Layer 3 (Foreground)
//Storyboard Sound Samples

[TimingPoints]
10,625,4,2,1,30,1,0
5010,-100,4,2,1,40,0,0
15010,-100,4,2,1,50,0,0
35010,-100,4,2,1,50,0,1
55010,-100,4,2,1,50,0,0

[Colours]
Combo1 : 255,192,57
Combo2 : 242,24,57
Combo3 : 18,124,255

[HitObjects]
208,288,5010,5,6,0:0:0:0:
392,348,5635,2,0,P|448:344|512:316,2,120,2|2|2,0:0|0:0|0:0,0:0:0:0:
332,272,6885,1,2,0:0:0:0:
480,152,7510,1,2,0:0:0:0:
308,64,8135,2,0,P|252:68|188:96,2,120,2|2|2,0:0|0:0|0:0,0:0:0:0:
328,160,9385,2,0,P|292:180|252:196,1,80,2|2,1:2|0:0,0:0:0:0:
160,180,10010,5,6,0:0:0:0:
20,312,10635,2,0,P|72:336|136:352,2,120,2|2|2,0:0|0:0|0:0,0:0:0:0:
8,216,11885,1,2,0:0:0:0:
80,40,12510,1,2,0:0:0:0:
148,220,13135,2,0,P|201:230|288:228,2,120,2|2|2,0:0|0:0|0:0,0:0:0:0:
172,128,14385,1,2,1:2:0:0:
348,48,15010,5,6,0:0:0:0:
400,232,15635,1,2,0:0:0:0:
492,64,16260,2,0,L|320:76,1,160,2|2,0:0|0:0,0:0:0:0:
240,48,17197,2,0,L|160:56,2,80,2|0|2,0:0|0:0|0:0,0:0:0:0:
268,140,18135,2,0,L|304:228,1,80,2|0,0:0|0:0,0:0:0:0:
256,300,18760,2,0,L|72:320,1,160,2|2,0:0|0:0,0:0:0:0:
20,140,20010,5,6,0:0:0:0:
180,32,20635,2,0,L|176:112,1,80,2|0,0:0|0:0,0:0:0:0:
240,184,21260,2,0,L|400:192,1,160,2|2,0:0|0:0,0:0:0:0:
500,356,22510,2,0,L|340:348,1,160,8|8,0:0|0:0,0:0:0:0:
280,272,23447,1,8,0:0:0:0:
212,340,23760,1,8,0:0:0:0:
152,264,24072,2,0,L|52:260,1,80,8|8,0:0|0:0,0:0:0:0:
248,188,25010,6,0,P|276:124|252:32,1,160,6|2,0:0|0:0,0:0:0:0:
64,32,26260,2,0,P|43:108|72:181,1,160,2|2,0:0|0:0,0:0:0:0:
264,208,27510,1,2,0:0:0:0:
356,39,28135,2,0,P|416:27|520:51,2,160,2|0|2,0:0|0:0|0:0,0:0:0:0:
419,215,30010,6,0,P|341:227|264:208,1,160,6|2,0:0|0:0,0:0:0:0:
165,42,31260,2,0,P|86:30|9:50,1,160,2|2,0:0|0:0,0:0:0:0:
96,221,32510,2,0,P|117:297|167:359,1,160,8|8,0:0|0:0,0:0:0:0:
261,338,33447,1,8,0:0:0:0:
356,355,33760,1,8,0:0:0:0:
444,316,34072,2,0,P|448:280|444:236,1,80,8|8,0:0|0:0,0:0:0:0:
354,66,35010,6,0,P|417:48|499:50,2,120,6|2|2,0:0|0:0|0:0,0:0:0:0:
260,88,36260,2,0,P|176:72|84:76,1,160,2|2,0:0|0:0,0:0:0:0:
120,264,37510,2,0,P|52:272|-16:260,2,120,2|2|2,0:1|0:1|0:1,0:0:0:0:
204,216,38760,2,0,P|276:200|364:204,1,160,2|2,0:1|0:1,0:0:0:0:
216,328,40010,5,6,0:0:0:0:
408,348,40635,2,0,P|428:320|440:264,1,80,2|0,0:0|0:0,0:0:0:0:
408,184,41260,2,0,P|408:104|432:12,1,160,2|2,0:0|0:0,0:0:0:0:
499,204,42510,1,2,0:1:0:0:
310,165,43135,2,0,P|250:161|190:168,2,120,2|2|2,0:1|0:1|0:1,0:0:0:0:
347,254,44385,1,2,0:1:0:0:
180,348,45010,6,0,P|240:352|299:344,2,120,6|2|2,0:0|0:0|0:0,0:0:0:0:
92,308,46260,2,0,P|80:232|100:140,1,160,2|2,0:0|0:0,0:0:0:0:
252,40,47510,2,0,P|316:44|380:32,2,120,2|2|2,0:1|0:1|0:1,0:0:0:0:
200,120,48760,2,0,P|220:196|280:252,1,160,2|2,0:1|0:1,0:0:0:0:
436,140,50010,5,6,0:0:0:0:
480,328,50635,2,0,P|436:336|384:328,1,80,2|0,0:0|0:0,0:0:0:0:
372,240,51260,2,0,P|344:160|280:104,1,160,2|2,0:0|0:0,0:0:0:0:
100,72,52510,1,2,0:1:0:0:
144,260,53135,2,0,P|208:252|272:220,2,120,2|2|2,0:1|0:1|0:1,0:0:0:0:
64,204,54385,1,2,0:1:0:0:
204,72,55010,5,6,0:0:0:0:
264,252,55635,1,2,0:0:0:0:
92,336,56260,2,0,P|28:290|4:208,1,160,2|2,0:0|0:0,0:0:0:0:
20,120,57197,2,0,P|12:80|12:40,2,80,2|0|2,0:0|0:0|0:0,0:0:0:0:
96,180,58135,2,0,P|136:172|184:140,1,80,2|0,0:0|0:0,0:0:0:0:
232,80,58760,2,0,P|300:116|396:100,1,160,2|2,0:0|0:0,0:0:0:0:
476,276,60010,5,6,0:0:0:0:
296,208,60635,2,0,P|296:248|308:300,1,80,2|0,0:0|0:0,0:0:0:0:
388,332,61260,2,0,P|306:330|212:336,1,160,2|2,0:0|0:0,0:0:0:0:
44,260,62510,2,0,P|120:260|212:240,1,160,8|8,0:0|0:0,0:0:0:0:
252,160,63447,1,8,0:0:0:0:
212,72,63760,1,8,0:0:0:0:
116,92,64072,2,0,P|110:132|116:176,1,80,8|8,0:0|0:0,0:0:0:0:
292,244,65010,6,0,P|344:172|324:100,1,160,6|2,0:0|0:0,0:0:0:0:
384,292,66260,2,0,P|308:340|232:344,1,160,2|2,0:0|0:0,0:0:0:0:
60,284,67510,1,2,0:0:0:0:
80,92,68135,2,0,P|152:92|224:144,2,160,2|0|2,0:0|0:0|0:0,0:0:0:0:
296,76,70010,6,0,P|380:72|480:88,1,160,6|2,0:0|0:0,0:0:0:0:
484,272,71260,2,0,P|420:220|340:216,1,160,2|2,0:0|0:0,0:0:0:0:
220,360,72510,2,0,P|240:280|184:228,1,160,8|8,0:0|0:0,0:0:0:0:
96,232,73447,1,8,0:0:0:0:
56,144,73760,1,8,0:0:0:0:
128,80,74072,2,0,P|172:76|216:80,1,80,8|8,0:0|0:0,0:0:0:0:
344,216,75010,6,0,P|400:220|488:200,2,120,6|2|2,0:1|0:1|0:1,0:0:0:0:
312,124,76260,2,0,P|388:104|476:116,1,160,2|2,0:1|0:1,0:0:0:0:
