osu file format v14

[General]
AudioFilename: audio.mp3
AudioLeadIn: 0
PreviewTime: 14697
Countdown: 0
SampleSet: Soft
StackLeniency: 0.7
Mode: 0
LetterboxInBreaks: 0
WidescreenStoryboard: 1

[Editor]
Bookmarks: 5010,15010,25010,35010,45010,55010,65010,75010
DistanceSpacing: 1.1
BeatDivisor: 8
GridSize: 4
TimelineZoom: 1.3

[Metadata]
Title:Yi Bai Kuai Dou Bu Gei Wo
TitleUnicode:一百块都不给我
Artist:Lan Zi
ArtistUnicode:兰梓
Creator:Pata-Mon
Version:Kencho's Advanced
Source:
Tags:liangv587 Kencho Regraz DreaM117er m1223961117 小红帽 Little Red Riding Hood xiao hong mao Bilibili Douga 鬼畜 remix 百元哥 T2o 天德池里丢东西
BeatmapID:1007633
BeatmapSetID:425219

[Difficulty]
HPDrainRate:4
CircleSize:3
OverallDifficulty:5
ApproachRate:6
SliderMultiplier:2
SliderTickRate:2

[Events]
//Background and Video events
Video,70,"video.flv"
0,0,"BG.jpg",0,0
//Break Periods
//Storyboard Layer 0 (Background)
//Storyboard Layer 1 (Fail)
//Storyboard Layer 2 (Pass)
//Storyboard Layer 3 (Foreground)
//Storyboard Sound Samples

[TimingPoints]
10,625,4,2,1,30,1,0
5010,-100,4,2,1,40,0,0
15010,-100,4,2,1,50,0,0
35010,-100,4,2,1,50,0,1
55010,-100,4,2,1,50,0,0

[Colours]
Combo1 : 255,192,57
Combo2 : 242,24,57
Combo3 : 18,124,255

[HitObjects]
119,269,5010,6,0,P|164:287|213:278,1,100,6|0,0:0|0:0,0:0:0:0:
304,237,5635,2,0,B|337:254|337:254|351:308|337:365,2,150,2|2|2,0:0|0:0|0:0,0:0:0:0:
223,178,6885,2,0,P|204:132|213:83,1,100,2|2,0:0|0:0,0:0:0:0:
313,88,7510,6,0,L|412:90,1,100,2|0,0:0|0:0,0:0:0:0:
488,156,8135,2,0,P|509:227|491:299,2,150,2|2|2,0:0|0:0|0:0,0:0:0:0:
392,187,9385,2,0,L|292:184,1,100,2|2,1:2|0:0,0:0:0:0:
219,253,10010,6,0,L|119:250,1,100,6|0,0:0|0:0,0:0:0:0:
28,294,10635,2,0,P|18:245|33:198,1,100,2|0,0:0|0:0,0:0:0:0:
71,166,11103,2,0,P|85:118|76:70,1,100,2|2,0:0|0:0,0:0:0:0:
44,30,11572,1,2,0:0:0:0:
141,4,11885,2,0,P|190:3|234:26,1,100,2|2,0:0|0:0,0:0:0:0:
295,105,12510,6,0,P|344:106|388:83,1,100,2|0,0:0|0:0,0:0:0:0:
471,27,13135,2,0,L|473:126,1,100,2|0,0:0|0:0,0:0:0:0:
502,168,13603,2,0,L|499:267,1,100,2|2,0:0|3:0,0:0:0:0:
475,312,14072,1,2,3:0:0:0:
386,359,14385,2,0,P|336:360|292:337,1,100,2|2,1:2|0:0,0:0:0:0:
241,251,15010,6,0,L|340:248,1,100,6|2,0:0|0:0,0:0:0:0:
410,175,15635,2,0,P|366:151|316:151,1,100,2|2,0:0|0:0,0:0:0:0:
268,164,16103,2,0,P|218:163|174:140,1,100,2|2,0:0|0:0,0:0:0:0:
138,105,16572,2,0,L|88:106,1,50,2|0,0:0|0:0,0:0:0:0:
37,110,16885,1,2,0:0:0:0:
40,209,17197,2,0,L|41:258,1,50,2|0,0:0|0:0,0:0:0:0:
46,309,17510,6,0,P|94:319|141:304,1,100,2|2,0:0|0:0,0:0:0:0:
220,242,18135,2,0,P|267:227|315:237,1,100,2|2,0:0|0:0,0:0:0:0:
357,264,18603,2,0,L|359:164,1,100,2|2,0:0|0:0,0:0:0:0:
337,119,19072,2,0,L|338:69,1,50,2|0,0:0|0:0,0:0:0:0:
325,20,19385,1,2,0:0:0:0:
424,23,19697,2,0,L|473:24,1,50,2|0,0:0|0:0,0:0:0:0:
505,64,20010,6,0,P|510:113|499:162,1,100,6|2,0:0|0:0,0:0:0:0:
419,222,20635,2,0,P|413:271|424:320,1,100,2|2,0:0|0:0,0:0:0:0:
447,364,21103,2,0,L|397:365,1,50,2|0,0:0|0:0,0:0:0:0:
349,349,21416,1,2,0:0:0:0:
349,349,21572,2,0,L|299:350,1,50,2|0,0:0|0:0,0:0:0:0:
251,335,21885,1,2,0:0:0:0:
165,284,22197,2,0,L|115:285,1,50,2|0,0:0|0:0,0:0:0:0:
64,289,22510,6,0,P|57:266|59:241,1,50,8|8,0:0|0:0,0:0:0:0:
88,201,22822,2,0,P|90:176|82:152,1,50,8|8,0:0|0:0,0:0:0:0:
55,109,23135,1,8,0:0:0:0:
141,59,23447,2,0,P|164:51|189:53,1,50,8|8,0:0|0:0,0:0:0:0:
235,72,23759,2,0,P|259:74|283:66,1,50,8|8,0:0|0:0,0:0:0:0:
316,27,24072,2,0,P|339:19|364:21,1,50,8|8,0:0|0:0,0:0:0:0:
410,40,24385,1,8,0:0:0:0:
408,140,24697,2,0,L|407:190,1,50,2|0,0:0|0:0,0:0:0:0:
405,240,25010,6,0,L|306:237,1,100,6|2,0:0|0:0,0:0:0:0:
254,323,25635,2,0,L|155:320,1,100,2|2,0:0|0:0,0:0:0:0:
104,319,26103,2,0,P|84:273|88:223,1,100,2|2,0:0|0:0,0:0:0:0:
115,181,26572,2,0,L|114:131,1,50,2|0,0:0|0:0,0:0:0:0:
114,80,26885,2,0,L|213:83,1,100,2|2,0:0|0:0,0:0:0:0:
282,157,27510,6,0,L|381:154,1,100,2|2,0:0|0:0,0:0:0:0:
470,106,28135,2,0,P|481:154|470:202,1,100,2|2,0:0|0:0,0:0:0:0:
446,245,28603,2,0,L|347:248,1,100,2|2,0:0|0:0,0:0:0:0:
307,280,29072,2,0,L|257:281,1,50,2|0,0:0|0:0,0:0:0:0:
213,306,29385,1,2,0:0:0:0:
122,348,29697,2,0,L|72:349,1,50,2|0,0:0|0:0,0:0:0:0:
23,362,30010,6,0,B|36:318|36:318|34:263,1,100,6|2,0:0|0:0,0:0:0:0:
7,167,30635,2,0,B|5:112|5:112|18:68,1,100,2|2,0:0|0:0,0:0:0:0:
62,45,31103,2,0,L|112:44,1,50,2|0,0:0|0:0,0:0:0:0:
151,74,31416,1,2,0:0:0:0:
151,74,31572,2,0,L|201:73,1,50,2|0,0:0|0:0,0:0:0:0:
248,91,31885,1,2,0:0:0:0:
220,187,32197,2,0,L|170:188,1,50,2|0,0:0|0:0,0:0:0:0:
119,190,32510,6,0,P|117:214|124:238,1,50,8|8,0:0|0:0,0:0:0:0:
152,280,32822,2,0,P|159:304|157:329,1,50,8|8,0:0|0:0,0:0:0:0:
142,377,33135,1,8,0:0:0:0:
238,349,33447,2,0,P|262:343|287:344,1,50,8|8,0:0|0:0,0:0:0:0:
333,363,33759,2,0,P|357:364|382:357,1,50,8|8,0:0|0:0,0:0:0:0:
418,322,34072,2,0,P|419:298|412:273,1,50,8|8,0:0|0:0,0:0:0:0:
397,225,34385,1,8,0:0:0:0:
306,57,35010,6,0,L|207:54,1,100,6|2,0:0|0:0,0:0:0:0:
162,30,35478,1,0,0:0:0:0:
162,30,35635,2,0,L|63:27,1,100,2|2,0:0|0:0,0:0:0:0:
12,28,36103,1,0,0:0:0:0:
12,28,36260,2,0,L|14:77,1,50,2|2,0:0|0:0,0:0:0:0:
42,118,36572,2,0,L|44:167,1,50,2|2,0:0|0:0,0:0:0:0:
45,218,36885,2,0,P|90:200|138:212,1,100,2|2,0:0|0:0,0:0:0:0:
204,282,37510,6,0,P|252:294|298:277,1,100,2|2,0:1|0:1,0:0:0:0:
337,246,37978,1,2,0:1:0:0:
337,246,38135,2,0,P|382:228|430:240,1,100,2|2,0:1|0:1,0:0:0:0:
475,261,38603,1,0,0:1:0:0:
475,261,38760,2,0,L|481:211,1,50,2|2,0:1|0:1,0:0:0:0:
461,165,39072,2,0,L|454:115,1,50,2|2,0:1|0:1,0:0:0:0:
411,90,39385,2,0,P|362:83|316:102,1,100,2|0,0:1|0:0,0:0:0:0:
226,145,40010,6,0,P|232:96|213:50,1,100,6|2,0:0|0:0,0:0:0:0:
134,111,40635,2,0,P|127:159|146:205,1,100,2|2,0:0|0:0,0:0:0:0:
181,240,41103,2,0,L|280:243,1,100,2|2,0:0|0:0,0:0:0:0:
323,270,41572,2,0,L|372:272,1,50,2|0,0:0|0:0,0:0:0:0:
416,296,41885,2,0,P|435:250|428:201,1,100,2|2,0:0|0:0,0:0:0:0:
377,115,42510,6,0,P|353:108|328:107,1,50,2|2,0:1|0:1,0:0:0:0:
284,83,42822,2,0,P|262:95|243:112,1,50,2|2,0:1|0:1,0:0:0:0:
195,124,43135,2,0,P|187:172|204:219,1,100,2|2,0:1|0:1,0:0:0:0:
231,260,43603,1,0,0:1:0:0:
231,260,43760,2,0,L|228:309,1,50,2|2,0:1|0:1,0:0:0:0:
225,359,44072,2,0,L|175:356,1,50,2|2,0:1|0:1,0:0:0:0:
125,350,44385,1,2,0:1:0:0:
47,165,45010,6,0,L|44:66,1,100,6|2,0:0|0:0,0:0:0:0:
94,75,45478,1,0,0:0:0:0:
94,75,45635,2,0,P|142:82|188:63,1,100,2|2,0:0|0:0,0:0:0:0:
227,32,46103,1,0,0:0:0:0:
227,32,46260,2,0,L|274:48,1,50,2|2,0:0|0:0,0:0:0:0:
316,77,46572,2,0,L|363:60,1,50,2|2,0:0|0:0,0:0:0:0:
410,41,46885,2,0,P|429:86|422:135,1,100,2|2,0:0|0:0,0:0:0:0:
351,205,47510,6,0,P|344:253|363:299,1,100,2|2,0:1|0:1,0:0:0:0:
389,343,47978,1,2,0:1:0:0:
389,343,48135,2,0,L|290:346,1,100,2|2,0:1|0:1,0:0:0:0:
244,327,48603,1,0,0:1:0:0:
244,327,48760,2,0,L|194:328,1,50,2|2,0:1|0:1,0:0:0:0:
147,315,49072,2,0,L|97:316,1,50,2|2,0:1|0:1,0:0:0:0:
47,317,49385,2,0,P|66:271|59:222,1,100,2|2,0:1|0:0,0:0:0:0:
24,129,50010,6,0,L|123:126,1,100,6|2,0:0|0:0,0:0:0:0:
215,83,50635,2,0,L|314:80,1,100,2|2,0:0|0:0,0:0:0:0:
365,76,51103,2,0,P|381:122|375:171,1,100,2|2,0:0|0:0,0:0:0:0:
353,217,51572,2,0,L|303:218,1,50,2|0,0:0|0:0,0:0:0:0:
273,259,51885,2,0,L|174:262,1,100,2|2,0:0|0:0,0:0:0:0:
72,273,52510,6,0,P|67:248|69:224,1,50,2|2,0:1|0:1,0:0:0:0:
106,190,52822,2,0,P|108:165|102:141,1,50,2|2,0:1|0:1,0:0:0:0:
88,92,53135,2,0,L|187:95,1,100,2|2,0:1|0:1,0:0:0:0:
234,76,53603,1,0,0:1:0:0:
234,76,53760,2,0,L|283:77,1,50,2|2,0:1|0:1,0:0:0:0:
329,57,54072,2,0,L|378:58,1,50,2|2,0:1|0:1,0:0:0:0:
426,43,54385,1,2,0:1:0:0:
481,235,55010,6,0,L|484:334,1,100,6|2,0:0|0:0,0:0:0:0:
391,373,55635,2,0,P|341:372|298:348,1,100,2|2,0:0|0:0,0:0:0:0:
259,316,56103,2,0,P|209:317|165:340,1,100,2|2,0:0|0:0,0:0:0:0:
125,369,56572,2,0,L|75:368,1,50,2|0,0:0|0:0,0:0:0:0:
24,367,56885,1,2,0:0:0:0:
26,267,57197,2,0,L|27:218,1,50,2|0,0:0|0:0,0:0:0:0:
31,166,57510,6,0,P|78:150|126:160,1,100,2|2,0:0|0:0,0:0:0:0:
218,200,58135,2,0,P|266:209|313:194,1,100,2|2,0:0|0:0,0:0:0:0:
354,165,58603,2,0,L|356:265,1,100,2|2,0:0|0:0,0:0:0:0:
355,315,59072,2,0,L|305:316,1,50,2|0,0:0|0:0,0:0:0:0:
255,315,59385,1,2,0:0:0:0:
155,326,59697,2,0,L|106:327,1,50,2|0,0:0|0:0,0:0:0:0:
54,330,60010,6,0,P|49:281|60:232,1,100,6|2,0:0|0:0,0:0:0:0:
140,172,60635,2,0,P|146:123|135:74,1,100,2|2,0:0|0:0,0:0:0:0:
112,30,61103,2,0,L|162:29,1,50,2|0,0:0|0:0,0:0:0:0:
210,45,61416,1,2,0:0:0:0:
210,45,61572,2,0,L|260:44,1,50,2|0,0:0|0:0,0:0:0:0:
308,59,61885,1,2,0:0:0:0:
407,59,62197,2,0,L|406:109,1,50,2|0,0:0|0:0,0:0:0:0:
443,142,62510,6,0,L|442:192,1,50,8|8,0:0|0:0,0:0:0:0:
408,229,62822,2,0,L|407:279,1,50,8|8,0:0|0:0,0:0:0:0:
437,318,63135,1,8,0:0:0:0:
349,365,63447,2,0,P|324:367|300:359,1,50,8|8,0:0|0:0,0:0:0:0:
268,320,63759,2,0,P|244:311|219:313,1,50,8|8,0:0|0:0,0:0:0:0:
177,340,64072,2,0,L|127:341,1,50,8|8,0:0|0:0,0:0:0:0:
76,343,64385,1,8,0:0:0:0:
79,243,64697,2,0,L|80:193,1,50,2|0,0:0|0:0,0:0:0:0:
82,143,65010,6,0,L|181:146,1,100,6|2,0:0|0:0,0:0:0:0:
242,66,65635,2,0,L|341:69,1,100,2|2,0:0|0:0,0:0:0:0:
392,70,66103,2,0,P|412:116|408:166,1,100,2|2,0:0|0:0,0:0:0:0:
381,208,66572,2,0,L|382:258,1,50,2|0,0:0|0:0,0:0:0:0:
382,309,66885,2,0,L|283:306,1,100,2|2,0:0|0:0,0:0:0:0:
213,235,67510,6,0,L|114:238,1,100,2|2,0:0|0:0,0:0:0:0:
25,286,68135,2,0,P|14:238|25:190,1,100,2|2,0:0|0:0,0:0:0:0:
49,147,68603,2,0,L|148:144,1,100,2|2,0:0|0:0,0:0:0:0:
188,112,69072,2,0,L|238:111,1,50,2|0,0:0|0:0,0:0:0:0:
282,86,69385,1,2,0:0:0:0:
373,44,69697,2,0,L|423:43,1,50,2|0,0:0|0:0,0:0:0:0:
473,42,70010,6,0,L|476:141,1,100,6|2,0:0|0:0,0:0:0:0:
416,222,70635,2,0,L|419:321,1,100,2|2,0:0|0:0,0:0:0:0:
379,352,71103,2,0,L|329:353,1,50,2|0,0:0|0:0,0:0:0:0:
290,323,71416,1,2,0:0:0:0:
290,323,71572,2,0,L|240:324,1,50,2|0,0:0|0:0,0:0:0:0:
194,306,71885,1,2,0:0:0:0:
226,211,72197,2,0,L|276:210,1,50,2|0,0:0|0:0,0:0:0:0:
326,209,72510,6,0,P|344:191|354:169,1,50,8|8,0:0|0:0,0:0:0:0:
367,120,72822,2,0,P|367:95|359:71,1,50,8|8,0:0|0:0,0:0:0:0:
320,41,73135,1,8,0:0:0:0:
235,94,73447,2,0,P|211:100|186:99,1,50,8|8,0:0|0:0,0:0:0:0:
146,71,73759,2,0,P|122:70|97:77,1,50,8|8,0:0|0:0,0:0:0:0:
51,96,74072,2,0,L|50:146,1,50,8|8,0:0|0:0,0:0:0:0:
51,197,74385,1,8,0:0:0:0:
256,192,75010,12,2,76885,0:1:0:0:
