osu file format v14

[General]
AudioFilename: audio.mp3
AudioLeadIn: 0
PreviewTime: 14697
Countdown: 0
SampleSet: Soft
StackLeniency: 0.6
Mode: 0
LetterboxInBreaks: 0
WidescreenStoryboard: 0

[Editor]
Bookmarks: 2510
DistanceSpacing: 1.4
BeatDivisor: 8
GridSize: 4
TimelineZoom: 2.2

[Metadata]
Title:Yi Bai Kuai Dou Bu Gei Wo
TitleUnicode:一百块都不给我
Artist:Lan Zi
ArtistUnicode:兰梓
Creator:Pata-Mon
Version:117's Insane
Source:
Tags:liangv587 Kencho Regraz DreaM117er m1223961117 小红帽 Little Red Riding Hood xiao hong mao Bilibili Douga 鬼畜 remix 百元哥 T2o 天德池里丢东西
BeatmapID:918393
BeatmapSetID:425219

[Difficulty]
HPDrainRate:6
CircleSize:4
OverallDifficulty:7.5
ApproachRate:9
SliderMultiplier:2
SliderTickRate:2

[Events]
//Background and Video events
Video,70,"video.flv"
0,0,"BG.jpg",0,0
//Break Periods
//Storyboard Layer 0 (Background)
//Storyboard Layer 1 (Fail)
//Storyboard Layer 2 (Pass)
//Storyboard Layer 3 (Foreground)
//Storyboard Sound Samples

[TimingPoints]
10,625,4,2,1,30,1,0
2822,-100,4,2,1,5,0,0
3135,-100,4,2,1,30,0,0
3447,-100,4,2,1,5,0,0
3760,-100,4,2,1,30,0,0
4072,-100,4,2,1,5,0,0
4385,-100,4,2,1,30,0,0
4697,-100,4,2,1,5,0,0
5010,-100,4,2,1,40,0,0
15010,-71.4285714285714,4,2,1,50,0,0
35010,-71.4285714285714,4,2,1,50,0,1
55010,-71.4285714285714,4,2,1,50,0,0

[Colours]
Combo1 : 255,192,57
Combo2 : 242,24,57
Combo3 : 18,124,255

[HitObjects]
112,320,2510,6,0,P|62:313|12:308,1,100,2|0,0:0|0:0,0:0:0:0:
203,280,3135,2,0,P|196:329|191:379,1,100,2|0,0:0|0:0,0:0:0:0:
163,188,3760,2,0,P|212:194|262:199,1,100,2|0,0:0|0:0,0:0:0:0:
71,227,4385,2,0,P|77:177|82:127,1,100,2|0,0:0|0:0,0:0:0:0:
112,326,5010,5,6,0:0:0:0:
112,326,5322,1,2,0:0:0:0:
364,276,5635,2,0,P|408:268|472:264,1,100,2|0,0:0|0:0,0:0:0:0:
280,224,6103,1,2,0:0:0:0:
280,224,6416,1,2,0:0:0:0:
181,205,6572,2,0,P|177:153|161:93,1,100,2|2,0:0|0:0,0:0:0:0:
332,18,7197,2,0,P|326:46|323:76,1,50,2|0,0:0|0:0,0:0:0:0:
365,159,7510,6,0,P|416:157|474:124,1,100,2|0,0:0|0:0,0:0:0:0:
155,299,8135,2,0,P|103:300|46:334,1,100,2|0,0:0|0:0,0:0:0:0:
241,359,8603,2,0,P|245:309|251:260,1,100,2|2,0:0|0:0,0:0:0:0:
220,167,9072,1,2,0:0:0:0:
380,327,9385,1,2,1:2:0:0:
121,208,9697,1,2,0:0:0:0:
476,24,10010,6,0,P|484:47|492:144,1,100,6|0,0:0|0:0,0:0:0:0:
415,307,10635,1,2,0:0:0:0:
415,307,10947,1,0,0:0:0:0:
320,292,11103,2,0,P|271:287|209:275,1,100,2|2,0:0|0:0,0:0:0:0:
154,182,11572,2,0,P|203:172|252:167,2,100,2|2|2,0:0|0:0|0:0,0:0:0:0:
69,227,12353,1,0,0:0:0:0:
0,298,12510,6,0,P|41:324|90:320,1,100,2|0,0:0|0:0,0:0:0:0:
271,276,13135,2,0,P|263:341|258:394,1,100,2|0,0:0|0:0,0:0:0:0:
181,238,13603,1,2,0:0:0:0:
262,177,13760,5,2,3:0:0:0:
354,217,13916,1,2,3:0:0:0:
450,193,14072,1,2,3:0:0:0:
510,113,14228,1,2,3:0:0:0:
490,13,14385,1,2,1:2:0:0:
490,13,14853,1,0,0:0:0:0:
396,43,15010,6,0,P|326:35|256:29,1,139.999995727539,6|2,0:0|0:0,0:0:0:0:
173,80,15478,1,0,0:0:0:0:
18,137,15635,2,0,P|53:134|88:129,1,69.9999978637696,2|0,0:0|0:0,0:0:0:0:
236,229,15947,1,2,0:0:0:0:
141,210,16103,1,2,0:0:0:0:
69,354,16260,5,0,0:0:0:0:
55,258,16416,1,2,0:0:0:0:
220,342,16572,1,2,0:0:0:0:
240,191,16728,1,0,0:0:0:0:
139,298,16885,1,2,0:0:0:0:
139,298,17197,1,2,0:0:0:0:
236,288,17353,1,0,0:0:0:0:
333,274,17510,6,0,P|399:268|473:258,1,139.999995727539,2|2,0:0|0:0,0:0:0:0:
166,119,18135,2,0,P|96:110|27:104,1,139.999995727539,2|2,0:0|0:0,0:0:0:0:
240,191,18603,1,2,0:0:0:0:
240,191,18916,1,2,0:0:0:0:
381,123,19072,1,2,0:0:0:0:
213,39,19228,1,0,0:0:0:0:
334,201,19385,1,2,0:0:0:0:
334,201,19697,1,2,0:0:0:0:
239,226,19853,1,0,0:0:0:0:
143,251,20010,6,0,P|137:181|131:103,1,139.999995727539,6|2,0:0|0:0,0:0:0:0:
211,321,20478,1,0,0:0:0:0:
357,230,20635,1,2,0:0:0:0:
222,198,20791,1,0,0:0:0:0:
309,137,20947,1,2,0:0:0:0:
443,277,21103,6,0,P|392:322|304:308,1,139.999995727539,2|2,0:0|0:0,0:0:0:0:
188,319,21572,1,0,0:0:0:0:
154,327,21650,1,0,0:0:0:0:
120,322,21728,1,0,0:0:0:0:
90,304,21806,1,0,0:0:0:0:
69,277,21885,1,2,0:0:0:0:
69,277,22197,1,0,0:0:0:0:
69,277,22510,5,8,0:0:0:0:
32,168,22666,1,8,0:0:0:0:
152,64,22822,1,8,0:0:0:0:
152,64,22978,1,8,0:0:0:0:
128,204,23135,1,8,0:0:0:0:
128,204,23447,5,8,0:0:0:0:
260,164,23603,1,8,0:0:0:0:
128,204,23760,1,8,0:0:0:0:
312,252,23916,1,8,0:0:0:0:
312,252,23994,1,8,0:0:0:0:
312,252,24072,1,8,0:0:0:0:
164,112,24228,1,8,0:0:0:0:
276,32,24385,1,8,0:0:0:0:
276,32,24697,1,2,0:0:0:0:
276,32,25010,6,0,P|320:36|428:48,1,139.999995727539,6|2,0:0|0:0,0:0:0:0:
492,108,25478,1,0,0:0:0:0:
468,204,25635,2,0,P|420:248|324:224,1,139.999995727539,2|2,0:0|0:0,0:0:0:0:
284,172,26103,1,2,0:0:0:0:
284,172,26416,1,2,0:0:0:0:
196,212,26572,2,0,P|152:208|108:200,1,69.9999978637696,2|0,0:0|0:0,0:0:0:0:
36,164,26885,1,2,0:0:0:0:
36,164,27197,1,2,0:0:0:0:
36,164,27353,1,0,0:0:0:0:
36,164,27510,6,0,P|40:208|52:316,1,139.999995727539,2|2,0:0|0:0,0:0:0:0:
461,303,28135,2,0,P|469:233|476:164,1,139.999995727539,2|2,0:0|0:0,0:0:0:0:
336,28,28603,2,0,P|284:56|276:144,1,139.999995727539,2|2,0:0|0:0,0:0:0:0:
328,212,29072,1,2,0:0:0:0:
308,308,29228,1,0,0:0:0:0:
220,352,29385,1,2,0:0:0:0:
220,352,29697,1,2,0:0:0:0:
124,332,29853,1,0,0:0:0:0:
72,248,30010,6,0,P|76:200|84:168,1,69.9999978637696,6|0,0:0|0:0,0:0:0:0:
240,124,30322,2,0,P|236:172|228:204,1,69.9999978637696,2|0,0:0|0:0,0:0:0:0:
80,16,30635,1,2,0:0:0:0:
80,16,30947,1,2,0:0:0:0:
164,68,31103,2,0,L|328:52,1,139.999995727539,2|2,0:0|0:0,0:0:0:0:
396,88,31572,1,2,0:0:0:0:
396,88,31885,1,2,0:0:0:0:
396,88,32197,2,0,L|404:0,1,69.9999978637696,2|0,0:0|0:0,0:0:0:0:
316,152,32510,5,8,0:0:0:0:
320,248,32666,1,8,0:0:0:0:
272,332,32822,1,8,0:0:0:0:
184,372,32978,1,8,0:0:0:0:
88,352,33135,1,8,0:0:0:0:
88,352,33447,5,8,0:0:0:0:
196,212,33603,1,8,0:0:0:0:
52,324,33760,1,8,0:0:0:0:
8,148,33916,1,8,0:0:0:0:
8,148,33994,1,8,0:0:0:0:
8,148,34072,1,8,0:0:0:0:
128,268,34228,1,8,0:0:0:0:
184,76,34385,1,8,0:0:0:0:
184,76,35010,6,0,L|200:232,1,139.999995727539,6|2,0:0|0:0,0:0:0:0:
256,292,35478,1,0,0:0:0:0:
63,330,35635,2,0,P|131:324|188:364,1,139.999995727539,2|2,0:0|0:0,0:0:0:0:
314,215,36103,1,0,0:0:0:0:
144,280,36260,5,2,0:0:0:0:
288,332,36416,1,2,0:0:0:0:
288,332,36494,1,2,0:0:0:0:
288,332,36572,1,2,0:0:0:0:
232,148,36728,1,2,0:0:0:0:
361,208,36885,2,0,L|475:191,2,104.999996795654,2|2|2,0:0|0:0|0:0,0:0:0:0:
152,212,37510,6,0,L|168:272,1,34.9999989318848,2|0,0:1|0:1,0:0:0:0:
58,181,37666,2,0,L|16:208,1,34.9999989318848,2|0,0:1|0:1,0:0:0:0:
58,83,37822,2,0,L|8:48,1,34.9999989318848,2|2,0:1|0:1,0:0:0:0:
152,53,37978,2,0,L|164:8,1,34.9999989318848,2|0,0:1|0:1,0:0:0:0:
209,132,38135,1,2,0:1:0:0:
209,132,38447,1,2,0:1:0:0:
209,132,38760,5,2,0:1:0:0:
308,120,38916,1,2,0:1:0:0:
398,157,39072,1,2,0:1:0:0:
440,245,39228,1,2,0:1:0:0:
424,341,39385,5,2,0:1:0:0:
355,281,39541,1,2,0:1:0:0:
440,245,39697,1,2,0:1:0:0:
424,341,39853,1,2,0:1:0:0:
330,372,40010,6,0,L|185:358,1,139.999995727539,6|2,0:0|0:0,0:0:0:0:
102,315,40478,1,0,0:0:0:0:
19,261,40635,2,0,P|78:222|148:227,1,139.999995727539,2|2,0:0|0:0,0:0:0:0:
237,194,41103,2,0,L|385:178,1,139.999995727539,2|2,0:0|0:0,0:0:0:0:
464,216,41572,1,2,0:0:0:0:
464,216,41885,1,2,0:0:0:0:
464,216,42197,2,0,P|456:276|452:312,1,69.9999978637696,2|0,0:0|0:0,0:0:0:0:
364,360,42510,6,0,L|300:352,1,34.9999989318848,2|0,0:1|0:1,0:0:0:0:
296,272,42666,2,0,L|232:264,1,34.9999989318848,2|0,0:1|0:1,0:0:0:0:
232,368,42822,2,0,L|168:360,1,34.9999989318848,2|0,0:1|0:1,0:0:0:0:
152,280,42978,2,0,L|88:272,1,34.9999989318848,2|0,0:1|0:1,0:0:0:0:
32,320,43135,1,2,0:1:0:0:
32,320,43447,1,2,0:1:0:0:
32,320,43760,5,2,0:1:0:0:
12,224,43916,1,2,0:1:0:0:
44,132,44072,1,2,0:1:0:0:
124,76,44228,1,2,0:1:0:0:
220,60,44385,5,2,0:1:0:0:
232,156,44541,1,2,0:1:0:0:
232,156,44619,1,2,0:1:0:0:
232,156,44697,1,2,0:1:0:0:
244,252,44853,1,2,0:1:0:0:
256,348,45010,6,0,L|412:328,1,139.999995727539,6|2,0:0|0:0,0:0:0:0:
512,240,45478,1,0,0:0:0:0:
512,240,45635,2,0,P|444:244|392:188,1,139.999995727539,2|2,0:0|0:0,0:0:0:0:
372,100,46103,1,0,0:0:0:0:
484,156,46260,5,2,0:0:0:0:
312,248,46416,1,2,0:0:0:0:
312,248,46494,1,2,0:0:0:0:
312,248,46572,1,2,0:0:0:0:
188,192,46728,1,2,0:0:0:0:
76,244,46885,2,0,P|68:184|60:116,2,104.999996795654,2|2|2,0:0|0:0|0:0,0:0:0:0:
136,356,47510,6,0,L|140:300,1,34.9999989318848,2|0,0:1|0:1,0:0:0:0:
228,344,47666,2,0,L|232:288,1,34.9999989318848,2|0,0:1|0:1,0:0:0:0:
320,332,47822,2,0,L|324:276,1,34.9999989318848,2|2,0:1|0:1,0:0:0:0:
412,320,47978,2,0,L|416:264,1,34.9999989318848,2|0,0:1|0:1,0:0:0:0:
504,308,48135,1,2,0:1:0:0:
504,308,48447,1,2,0:1:0:0:
504,308,48760,5,2,0:1:0:0:
492,212,48916,1,2,0:1:0:0:
476,116,49072,1,2,0:1:0:0:
460,20,49228,1,2,0:1:0:0:
384,84,49385,5,2,0:1:0:0:
288,60,49541,1,2,0:1:0:0:
208,120,49697,1,2,0:1:0:0:
112,96,49853,1,2,0:1:0:0:
36,160,50010,6,0,P|43:229|50:299,1,139.999995727539,6|2,0:0|0:0,0:0:0:0:
124,364,50478,1,0,0:0:0:0:
220,344,50635,2,0,P|262:290|254:223,1,139.999995727539,2|2,0:0|0:0,0:0:0:0:
184,156,51103,1,2,0:0:0:0:
184,156,51416,1,2,0:0:0:0:
228,68,51572,2,0,P|265:53|328:51,1,69.9999978637696,2|0,0:0|0:0,0:0:0:0:
391,67,51885,2,0,P|386:115|382:223,1,139.999995727539,2|2,0:0|0:0,0:0:0:0:
411,300,52353,1,0,0:0:0:0:
315,344,52510,6,0,L|251:336,1,34.9999989318848,2|0,0:1|0:1,0:0:0:0:
183,356,52666,2,0,L|143:312,1,34.9999989318848,2|0,0:1|0:1,0:0:0:0:
59,320,52822,2,0,L|55:268,1,34.9999989318848,2|0,0:1|0:1,0:0:0:0:
7,200,52978,2,0,L|27:136,1,34.9999989318848,2|0,0:1|0:1,0:0:0:0:
23,64,53135,1,2,0:1:0:0:
23,64,53447,1,2,0:1:0:0:
23,64,53760,5,2,0:1:0:0:
103,128,53916,1,2,0:1:0:0:
207,140,54072,1,2,0:1:0:0:
303,100,54228,1,2,0:1:0:0:
219,36,54385,5,2,0:1:0:0:
207,140,54541,1,2,0:1:0:0:
207,140,54619,1,2,0:1:0:0:
207,140,54697,1,2,0:1:0:0:
247,236,54853,1,2,0:1:0:0:
335,292,55010,6,0,P|403:284|491:272,1,139.999995727539,6|2,0:0|0:0,0:0:0:0:
335,188,55478,1,0,0:0:0:0:
247,236,55635,2,0,P|177:226|107:220,1,139.999995727539,2|2,0:0|0:0,0:0:0:0:
12,292,56103,1,2,0:0:0:0:
151,384,56260,6,0,P|155:336|159:288,1,69.9999978637696,0|2,0:0|0:0,0:0:0:0:
16,196,56572,2,0,P|12:148|8:100,1,69.9999978637696,2|0,0:0|0:0,0:0:0:0:
116,28,56885,1,2,0:0:0:0:
116,28,57197,1,2,0:0:0:0:
212,68,57353,1,0,0:0:0:0:
312,104,57510,6,0,P|376:92|444:152,1,139.999995727539,2|2,0:0|0:0,0:0:0:0:
208,368,58135,2,0,P|199:298|193:229,1,139.999995727539,2|2,0:0|0:0,0:0:0:0:
212,128,58603,1,2,0:0:0:0:
212,128,58916,1,2,0:0:0:0:
360,180,59072,1,2,0:0:0:0:
256,292,59228,1,0,0:0:0:0:
448,224,59385,1,2,0:0:0:0:
448,224,59697,1,2,0:0:0:0:
432,120,59853,1,0,0:0:0:0:
412,16,60010,6,0,P|339:27|253:46,1,139.999995727539,6|2,0:0|0:0,0:0:0:0:
204,120,60478,1,0,0:0:0:0:
100,96,60635,1,2,0:0:0:0:
100,96,60947,1,2,0:0:0:0:
16,160,61103,6,0,B|14:217|25:257|25:257|77:312,1,139.999995727539,2|2,0:0|0:0,0:0:0:0:
173,364,61572,1,0,0:0:0:0:
208,359,61650,1,0,0:0:0:0:
242,354,61728,1,0,0:0:0:0:
277,349,61806,1,0,0:0:0:0:
312,344,61885,1,2,0:0:0:0:
312,344,62197,1,0,0:0:0:0:
312,344,62510,5,8,0:0:0:0:
448,268,62666,1,8,0:0:0:0:
332,224,62822,1,8,0:0:0:0:
332,224,62978,1,8,0:0:0:0:
416,368,63135,1,8,0:0:0:0:
416,368,63447,5,8,0:0:0:0:
464,224,63603,1,8,0:0:0:0:
320,308,63760,1,8,0:0:0:0:
284,136,63916,1,8,0:0:0:0:
284,136,63994,1,8,0:0:0:0:
284,136,64072,1,8,0:0:0:0:
368,220,64228,1,8,0:0:0:0:
220,312,64385,1,8,0:0:0:0:
220,312,64697,1,2,0:0:0:0:
220,312,65010,6,0,L|80:297,1,139.999995727539,6|2,0:0|0:0,0:0:0:0:
12,216,65478,1,0,0:0:0:0:
40,116,65635,2,0,P|91:70|159:76,1,139.999995727539,2|2,0:0|0:0,0:0:0:0:
244,140,66103,1,2,0:0:0:0:
244,140,66416,1,2,0:0:0:0:
327,46,66572,2,0,L|239:34,1,69.9999978637696,2|0,0:0|0:0,0:0:0:0:
148,180,66885,1,2,0:0:0:0:
148,180,67197,1,2,0:0:0:0:
148,180,67510,6,0,L|300:164,1,139.999995727539,2|2,0:0|0:0,0:0:0:0:
464,360,68135,2,0,L|325:345,1,139.999995727539,2|2,0:0|0:0,0:0:0:0:
236,291,68603,2,0,P|177:327|110:313,1,139.999995727539,2|2,0:0|0:0,0:0:0:0:
36,236,69072,1,2,0:0:0:0:
20,132,69228,1,0,0:0:0:0:
48,32,69385,1,2,0:0:0:0:
48,32,69697,1,2,0:0:0:0:
152,48,69853,1,0,0:0:0:0:
256,68,70010,6,0,L|236:232,1,139.999995727539,6|2,0:0|0:0,0:0:0:0:
464,372,70635,2,0,P|501:314|494:246,1,139.999995727539,2|2,0:0|0:0,0:0:0:0:
420,172,71103,1,2,0:0:0:0:
420,172,71416,1,2,0:0:0:0:
320,200,71572,2,0,P|282:257|289:325,2,139.999995727539,2|2|2,0:0|0:0|0:0,0:0:0:0:
296,96,72353,1,0,0:0:0:0:
212,32,72510,5,8,0:0:0:0:
212,32,72666,1,8,0:0:0:0:
108,28,72822,1,8,0:0:0:0:
108,28,72978,1,8,0:0:0:0:
24,92,73135,1,8,0:0:0:0:
24,92,73447,5,8,0:0:0:0:
44,236,73603,1,8,0:0:0:0:
164,140,73760,1,8,0:0:0:0:
136,304,73916,1,8,0:0:0:0:
136,304,73994,1,8,0:0:0:0:
136,304,74072,1,8,0:0:0:0:
252,200,74228,1,8,0:0:0:0:
272,360,74385,1,8,0:0:0:0:
272,360,74697,1,2,0:0:0:0:
272,360,75010,5,6,0:1:0:0:
376,344,75166,1,2,0:1:0:0:
340,164,75322,1,2,0:1:0:0:
308,264,75478,1,2,0:1:0:0:
480,324,75635,5,2,0:1:0:0:
412,244,75791,1,2,0:1:0:0:
412,244,75869,1,2,0:1:0:0:
412,244,75947,1,2,0:1:0:0:
272,360,76103,1,2,0:1:0:0:
480,324,76260,5,2,0:1:0:0:
340,164,76416,1,2,0:1:0:0:
340,164,76494,1,2,0:1:0:0:
340,164,76572,1,2,0:1:0:0:
308,264,76728,1,2,0:1:0:0:
412,244,76885,1,2,0:1:0:0:
