osu file format v14

[General]
AudioFilename: audio.mp3
AudioLeadIn: 0
PreviewTime: 14697
Countdown: 0
SampleSet: Soft
StackLeniency: 0.5
Mode: 0
LetterboxInBreaks: 0
WidescreenStoryboard: 0

[Editor]
Bookmarks: 5010,15010,25010,35010,45010,55010,65010,75010
DistanceSpacing: 1.5
BeatDivisor: 4
GridSize: 32
TimelineZoom: 2.2

[Metadata]
Title:Yi Bai Kuai Dou Bu Gei Wo
TitleUnicode:一百块都不给我
Artist:Lan Zi
ArtistUnicode:兰梓
Creator:Pata-Mon
Version:100RMB
Source:
Tags:liangv587 Kencho Regraz DreaM117er m1223961117 小红帽 Little Red Riding Hood xiao hong mao Bilibili Douga 鬼畜 remix 百元哥 T2o 天德池里丢东西
BeatmapID:918391
BeatmapSetID:425219

[Difficulty]
HPDrainRate:5
CircleSize:4.3
OverallDifficulty:8.5
ApproachRate:9.2
SliderMultiplier:3.2
SliderTickRate:2

[Events]
//Background and Video events
Video,70,"video.flv"
0,0,"BG.jpg",0,0
//Break Periods
//Storyboard Layer 0 (Background)
//Storyboard Layer 1 (Fail)
//Storyboard Layer 2 (Pass)
//Storyboard Layer 3 (Foreground)
//Storyboard Sound Samples

[TimingPoints]
10,625,4,2,1,30,1,0
2510,-200,4,2,1,30,0,0
5010,-100,4,2,1,40,0,0
9385,-66.6666666666667,4,2,1,40,0,0
9619,-66.6666666666667,4,2,1,5,0,0
9697,-100,4,2,1,40,0,0
14385,-66.6666666666667,4,2,1,40,0,0
14619,-66.6666666666667,4,2,1,5,0,0
14697,-100,4,2,1,50,0,0
35010,-90.9090909090909,4,2,1,50,0,1
55010,-100,4,2,1,50,0,0
75010,-90.9090909090909,4,2,1,50,0,0
76885,-166.666666666667,4,2,1,50,0,0
77197,-166.666666666667,4,2,1,5,0,0

[Colours]
Combo1 : 255,192,57
Combo2 : 242,24,57
Combo3 : 18,124,255

[HitObjects]
256,192,2510,5,2,0:0:0:0:
256,192,3135,1,2,0:0:0:0:
256,192,3760,1,2,0:0:0:0:
256,192,4385,2,0,L|256:96,1,80,2|0,0:0|0:0,0:0:0:0:
493,216,5010,6,0,P|409:232|312:232,1,160,6|0,0:0|0:0,0:0:0:0:
19,92,5635,2,0,P|102:75|200:76,1,160,2|0,0:0|0:0,0:0:0:0:
270,148,6103,2,0,L|389:137,1,80,2|0,0:0|0:0,0:0:0:0:
177,73,6416,1,2,0:0:0:0:
188,236,6572,1,2,0:0:0:0:
188,236,6885,2,0,L|307:225,1,80,2|0,0:0|0:0,0:0:0:0:
177,73,7197,1,2,0:0:0:0:
95,161,7353,1,0,0:0:0:0:
268,229,7510,6,0,P|368:253|441:253,1,160,2|0,0:0|0:0,0:0:0:0:
177,73,8135,2,0,P|77:49|4:49,1,160,2|0,0:0|0:0,0:0:0:0:
277,143,8603,2,0,L|283:63,1,80,2|0,0:0|0:0,0:0:0:0:
177,73,8916,1,2,0:0:0:0:
386,115,9072,1,2,0:0:0:0:
386,115,9385,6,0,L|368:330,1,180.000006866455,2|0,1:2|0:0,0:0:0:0:
292,239,9697,6,0,L|302:119,1,80,2|0,0:0|0:0,0:0:0:0:
96,287,10010,6,0,P|223:318|300:233,1,160,6|0,0:0|0:0,0:0:0:0:
471,130,10635,2,0,P|344:99|267:184,1,160,2|0,0:0|0:0,0:0:0:0:
381,293,11103,2,0,L|384:214,1,80,2|0,0:0|0:0,0:0:0:0:
283,362,11416,1,2,0:0:0:0:
469,374,11572,1,2,0:0:0:0:
469,374,11885,2,0,L|472:295,1,80,2|0,0:0|0:0,0:0:0:0:
391,93,12197,1,2,0:0:0:0:
384,213,12353,1,0,0:0:0:0:
478,11,12510,6,0,P|398:-2|319:0,1,160,2|0,0:0|0:0,0:0:0:0:
304,219,13135,2,0,P|384:232|463:230,1,160,2|0,0:0|0:0,0:0:0:0:
391,115,13603,1,2,0:0:0:0:
178,168,13760,5,2,3:0:0:0:
304,219,13916,1,2,3:0:0:0:
319,0,14072,1,2,3:0:0:0:
187,33,14228,1,2,3:0:0:0:
391,115,14385,6,0,P|438:206|402:312,1,180.000006866455,2|0,1:2|0:0,0:0:0:0:
371,337,14697,5,2,0:0:0:0:
304,219,14853,1,0,0:0:0:0:
131,303,15010,6,0,P|182:298|210:293,1,80,6|0,0:0|0:0,0:0:0:0:
304,219,15322,1,2,0:0:0:0:
308,223,15478,1,0,0:0:0:0:
197,95,15635,2,0,P|201:143|215:197,1,80,2|0,0:0|0:0,0:0:0:0:
308,223,15947,1,2,0:0:0:0:
419,95,16103,6,0,P|415:143|401:197,1,80,2|0,0:0|0:0,0:0:0:0:
308,223,16416,1,2,0:0:0:0:
484,267,16572,2,0,P|491:306|494:346,1,80,2|0,0:0|0:0,0:0:0:0:
408,174,16885,1,2,0:0:0:0:
408,174,17197,1,2,0:0:0:0:
450,61,17353,1,0,0:0:0:0:
289,193,17510,6,0,P|250:195|175:188,1,80,2|0,0:0|0:0,0:0:0:0:
91,174,17822,1,2,0:0:0:0:
87,170,17978,1,0,0:0:0:0:
176,2,18135,2,0,P|174:42|167:82,1,80,2|0,0:0|0:0,0:0:0:0:
87,170,18447,1,2,0:0:0:0:
280,119,18603,6,0,P|319:117|394:124,1,80,2|0,0:0|0:0,0:0:0:0:
475,152,18916,1,2,0:0:0:0:
368,25,19072,2,0,P|407:23|482:30,1,80,2|0,0:0|0:0,0:0:0:0:
398,222,19385,2,0,P|359:224|284:217,1,80,2|0,0:0|0:0,0:0:0:0:
228,142,19697,1,2,0:0:0:0:
252,24,19853,1,0,0:0:0:0:
318,222,20010,6,0,P|318:271|311:315,1,80,6|0,0:0|0:0,0:0:0:0:
114,180,20322,1,2,0:0:0:0:
138,62,20478,1,0,0:0:0:0:
204,260,20635,2,0,P|204:309|197:353,1,80,2|0,0:0|0:0,0:0:0:0:
0,218,20947,1,2,0:0:0:0:
138,62,21103,6,0,P|190:64|240:68,1,80,2|0,0:0|0:0,0:0:0:0:
354,149,21416,1,2,0:0:0:0:
204,251,21572,2,0,P|256:249|306:245,1,80,2|0,0:0|0:0,0:0:0:0:
354,149,21885,1,2,0:0:0:0:
354,149,22197,1,2,0:0:0:0:
472,174,22353,1,0,0:0:0:0:
317,35,22510,5,8,0:0:0:0:
273,238,22666,1,8,0:0:0:0:
435,60,22822,1,8,0:0:0:0:
391,263,22978,1,8,0:0:0:0:
317,35,23135,1,8,0:0:0:0:
317,35,23447,5,8,0:0:0:0:
273,238,23603,1,8,0:0:0:0:
317,35,23760,1,8,0:0:0:0:
273,238,23916,1,8,0:0:0:0:
297,239,23994,1,8,0:0:0:0:
321,240,24072,1,8,0:0:0:0:
139,143,24228,1,8,0:0:0:0:
345,241,24385,6,0,P|432:231|469:200,1,80,8|0,0:0|0:0,0:0:0:0:
259,158,24697,1,2,0:0:0:0:
229,274,24853,1,0,0:0:0:0:
289,42,25010,6,0,P|202:52|165:83,1,80,6|0,0:0|0:0,0:0:0:0:
136,141,25322,1,2,0:0:0:0:
140,145,25478,1,0,0:0:0:0:
267,237,25635,2,0,P|266:196|259:157,1,80,2|0,0:0|0:0,0:0:0:0:
211,48,25947,1,2,0:0:0:0:
62,151,26103,6,0,P|149:141|186:110,1,80,2|0,0:0|0:0,0:0:0:0:
211,48,26416,1,2,0:0:0:0:
213,241,26572,2,0,P|251:250|291:246,1,80,2|0,0:0|0:0,0:0:0:0:
375,159,26885,1,2,0:0:0:0:
375,159,27197,1,2,0:0:0:0:
291,246,27353,1,0,0:0:0:0:
453,164,27510,6,0,P|415:155|375:159,1,80,2|0,0:0|0:0,0:0:0:0:
213,241,27822,2,0,P|251:250|291:246,1,80,2|0,0:0|0:0,0:0:0:0:
342,43,28135,1,2,0:0:0:0:
258,130,28291,1,0,0:0:0:0:
375,159,28447,1,2,0:0:0:0:
225,14,28603,6,0,P|195:10|137:8,1,80,2|0,0:0|0:0,0:0:0:0:
342,43,28916,1,2,0:0:0:0:
196,131,29072,2,0,P|166:135|108:137,1,80,2|0,0:0|0:0,0:0:0:0:
313,160,29385,2,0,P|343:164|401:166,1,80,2|0,0:0|0:0,0:0:0:0:
508,133,29697,1,2,0:0:0:0:
479,249,29853,1,0,0:0:0:0:
422,50,30010,6,0,P|392:46|334:44,1,80,6|0,0:0|0:0,0:0:0:0:
227,77,30322,1,2,0:0:0:0:
223,81,30478,1,0,0:0:0:0:
32,50,30635,2,0,P|62:46|120:44,1,80,2|0,0:0|0:0,0:0:0:0:
223,81,30947,1,2,0:0:0:0:
124,240,31103,6,0,P|125:201|134:162,1,80,2|0,0:0|0:0,0:0:0:0:
312,161,31416,1,2,0:0:0:0:
253,338,31572,2,0,P|244:299|243:260,1,80,2|0,0:0|0:0,0:0:0:0:
312,161,31885,1,2,0:0:0:0:
312,161,32197,1,2,0:0:0:0:
425,204,32353,1,0,0:0:0:0:
293,43,32510,5,8,0:0:0:0:
218,236,32666,1,8,0:0:0:0:
406,86,32822,1,8,0:0:0:0:
331,279,32978,1,8,0:0:0:0:
293,43,33135,1,8,0:0:0:0:
293,43,33447,5,8,0:0:0:0:
218,236,33603,1,8,0:0:0:0:
293,43,33760,1,8,0:0:0:0:
218,236,33916,1,8,0:0:0:0:
222,260,33994,1,8,0:0:0:0:
226,284,34072,1,8,0:0:0:0:
199,118,34228,1,8,0:0:0:0:
345,268,34385,6,0,P|334:336|294:383,1,80,8|0,0:0|0:0,0:0:0:0:
260,384,34619,1,2,0:0:0:0:
256,380,34697,1,2,0:0:0:0:
424,326,34853,1,2,0:0:0:0:
281,153,35010,6,0,P|246:145|166:142,1,88.000002685547,6|0,0:0|0:0,0:0:0:0:
345,268,35322,1,2,0:0:0:0:
478,271,35478,1,0,0:0:0:0:
434,70,35635,2,0,P|422:112|414:156,1,88.000002685547,2|0,0:0|0:0,0:0:0:0:
409,383,35947,1,2,0:0:0:0:
478,271,36103,1,0,0:0:0:0:
281,153,36260,6,0,L|273:204,1,44.0000013427735,2|0,0:0|0:0,0:0:0:0:
345,268,36416,1,2,0:0:0:0:
365,255,36494,1,2,0:0:0:0:
385,242,36572,2,0,L|400:139,1,88.000002685547,2|2,0:0|0:0,0:0:0:0:
186,197,36885,2,0,P|229:200|285:195,1,88.000002685547,2|0,0:0|0:0,0:0:0:0:
336,37,37197,2,0,P|293:34|237:39,1,88.000002685547,2|0,0:0|0:0,0:0:0:0:
18,133,37510,6,0,L|62:136,1,44.0000013427735,2|0,0:1|0:1,0:0:0:0:
182,95,37666,2,0,L|138:92,1,44.0000013427735,2|0,0:1|0:1,0:0:0:0:
40,217,37822,2,0,L|84:220,1,44.0000013427735,2|2,0:1|0:1,0:0:0:0:
204,179,37978,2,0,L|160:176,1,44.0000013427735,2|0,0:1|0:1,0:0:0:0:
18,298,38135,6,0,L|106:304,1,88.000002685547,2|0,0:1|0:1,0:0:0:0:
226,98,38447,2,0,L|138:92,1,88.000002685547,2|0,0:1|0:1,0:0:0:0:
320,216,38760,6,0,L|364:213,1,44.0000013427735,2|0,0:1|0:1,0:0:0:0:
509,199,38916,1,2,0:1:0:0:
495,180,38994,1,2,0:1:0:0:
481,161,39072,2,0,L|437:164,1,44.0000013427735,2|0,0:1|0:1,0:0:0:0:
421,279,39228,2,0,L|465:276,1,44.0000013427735,2|0,0:1|0:1,0:0:0:0:
320,216,39385,6,0,L|276:219,1,44.0000013427735,2|0,0:1|0:1,0:0:0:0:
272,222,39541,2,0,L|228:225,1,44.0000013427735,0|0,0:0|0:0,0:0:0:0:
224,228,39697,2,0,L|180:231,1,44.0000013427735,0|0,0:0|0:0,0:0:0:0:
96,139,39853,6,0,L|140:142,1,44.0000013427735,2|0,0:0|0:0,0:0:0:0:
12,272,40010,6,0,P|9:224|16:178,1,88.000002685547,6|0,0:0|0:0,0:0:0:0:
40,56,40322,1,2,0:0:0:0:
140,142,40478,1,0,0:0:0:0:
326,43,40635,2,0,P|282:45|240:56,1,88.000002685547,2|0,0:0|0:0,0:0:0:0:
140,142,40947,1,2,0:0:0:0:
319,253,41103,6,0,P|295:215|264:185,1,88.000002685547,2|0,0:0|0:0,0:0:0:0:
302,384,41416,1,2,0:0:0:0:
451,262,41572,2,0,P|453:225|434:147,1,88.000002685547,2|0,0:0|0:0,0:0:0:0:
302,384,41885,2,0,L|410:377,1,88.000002685547,2|0,0:0|0:0,0:0:0:0:
183,228,42197,2,0,P|180:264|200:343,1,88.000002685547,2|0,0:0|0:0,0:0:0:0:
347,201,42510,6,0,L|350:157,1,44.0000013427735,2|0,0:1|0:1,0:0:0:0:
309,37,42666,2,0,L|306:81,1,44.0000013427735,2|0,0:1|0:1,0:0:0:0:
263,223,42822,2,0,L|266:179,1,44.0000013427735,2|0,0:1|0:1,0:0:0:0:
225,59,42978,2,0,L|222:103,1,44.0000013427735,2|0,0:1|0:1,0:0:0:0:
344,245,43135,6,0,L|350:157,1,88.000002685547,2|0,0:1|0:1,0:0:0:0:
144,37,43447,2,0,L|138:125,1,88.000002685547,2|0,0:1|0:1,0:0:0:0:
269,323,43760,6,0,L|266:279,1,44.0000013427735,2|0,0:1|0:1,0:0:0:0:
252,134,43916,1,2,0:1:0:0:
233,148,43994,1,2,0:1:0:0:
214,162,44072,2,0,L|217:206,1,44.0000013427735,2|0,0:1|0:1,0:0:0:0:
332,222,44228,2,0,L|329:178,1,44.0000013427735,2|0,0:1|0:1,0:0:0:0:
151,263,44385,6,0,L|154:307,1,44.0000013427735,2|0,0:1|0:1,0:0:0:0:
217,206,44541,1,2,0:1:0:0:
203,187,44619,1,2,0:1:0:0:
189,168,44697,2,0,L|145:171,1,44.0000013427735,2|0,0:1|0:1,0:0:0:0:
110,309,44853,2,0,L|154:306,1,44.0000013427735,2|0,0:1|0:1,0:0:0:0:
28,217,45010,6,0,P|23:179|20:119,1,88.000002685547,6|0,0:0|0:0,0:0:0:0:
218,61,45322,1,2,0:0:0:0:
145,171,45478,1,0,0:0:0:0:
341,107,45635,2,0,P|376:103|432:73,1,88.000002685547,2|0,0:0|0:0,0:0:0:0:
218,61,45947,1,2,0:0:0:0:
145,171,46103,1,0,0:0:0:0:
274,260,46260,6,0,L|268:217,1,44.0000013427735,2|0,0:0|0:0,0:0:0:0:
200,310,46416,1,2,0:0:0:0:
216,328,46494,1,2,0:0:0:0:
232,346,46572,2,0,P|280:353|345:351,1,88.000002685547,2|2,0:0|0:0,0:0:0:0:
425,138,46885,2,0,P|473:131|538:133,1,88.000002685547,2|0,0:0|0:0,0:0:0:0:
322,220,47197,2,0,P|278:219|234:212,1,88.000002685547,2|0,0:0|0:0,0:0:0:0:
172,67,47510,6,0,L|169:128,1,44.0000013427735,2|0,0:1|0:1,0:0:0:0:
97,207,47666,2,0,L|100:146,1,44.0000013427735,2|0,0:1|0:1,0:0:0:0:
237,168,47822,2,0,L|234:229,1,44.0000013427735,2|2,0:1|0:1,0:0:0:0:
162,309,47978,2,0,L|165:248,1,44.0000013427735,2|0,0:1|0:1,0:0:0:0:
336,303,48135,6,0,P|292:305|249:299,1,88.000002685547,2|0,0:1|0:1,0:0:0:0:
258,83,48447,2,0,P|302:81|345:87,1,88.000002685547,2|0,0:1|0:1,0:0:0:0:
295,215,48760,6,0,L|298:154,1,44.0000013427735,2|0,0:1|0:1,0:0:0:0:
383,229,48916,1,2,0:1:0:0:
403,242,48994,1,2,0:1:0:0:
423,255,49072,2,0,L|420:316,1,44.0000013427735,2|0,0:1|0:1,0:0:0:0:
333,346,49228,2,0,L|336:285,1,44.0000013427735,2|0,0:1|0:1,0:0:0:0:
405,144,49385,6,0,L|402:83,1,44.0000013427735,2|0,0:1|0:1,0:0:0:0:
395,52,49541,2,0,L|398:113,1,44.0000013427735,2|0,0:1|0:1,0:0:0:0:
268,115,49697,6,0,L|312:115,1,44.0000013427735,2|0,0:0|0:0,0:0:0:0:
383,229,49853,2,0,L|339:229,1,44.0000013427735,2|0,0:0|0:0,0:0:0:0:
189,189,50010,6,0,P|82:227|56:263,1,88.000002685547,6|0,0:0|0:0,0:0:0:0:
43,325,50322,1,2,0:0:0:0:
175,320,50478,1,0,0:0:0:0:
73,126,50635,2,0,P|31:150|-10:196,1,88.000002685547,2|0,0:0|0:0,0:0:0:0:
189,189,50947,1,2,0:0:0:0:
160,26,51103,6,0,P|112:22|32:34,1,88.000002685547,2|0,0:0|0:0,0:0:0:0:
276,89,51416,1,2,0:0:0:0:
189,189,51572,2,0,P|141:193|61:181,1,88.000002685547,2|0,0:0|0:0,0:0:0:0:
319,214,51885,2,0,P|346:253|376:328,1,88.000002685547,2|0,0:0|0:0,0:0:0:0:
276,89,52197,2,0,P|296:45|346:-17,1,88.000002685547,2|0,0:0|0:0,0:0:0:0:
319,214,52510,6,0,L|252:212,1,44.0000013427735,2|0,0:1|0:1,0:0:0:0:
169,149,52666,2,0,L|236:151,1,44.0000013427735,2|0,0:1|0:1,0:0:0:0:
210,272,52822,2,0,L|143:270,1,44.0000013427735,2|0,0:1|0:1,0:0:0:0:
59,208,52978,2,0,L|126:210,1,44.0000013427735,2|0,0:1|0:1,0:0:0:0:
231,357,53135,6,0,L|97:353,1,88.000002685547,2|0,0:1|0:1,0:0:0:0:
319,214,53447,2,0,L|453:218,1,88.000002685547,2|0,0:1|0:1,0:0:0:0:
205,82,53760,6,0,L|138:84,1,44.0000013427735,2|0,0:1|0:1,0:0:0:0:
262,148,53916,1,2,0:1:0:0:
280,133,53994,1,2,0:1:0:0:
296,116,54072,2,0,L|298:56,1,44.0000013427735,2|0,0:1|0:1,0:0:0:0:
180,179,54228,2,0,L|182:239,1,44.0000013427735,2|0,0:1|0:1,0:0:0:0:
341,238,54385,6,0,L|343:178,1,44.0000013427735,2|0,0:1|0:1,0:0:0:0:
275,295,54541,1,2,0:1:0:0:
290,313,54619,1,2,0:1:0:0:
305,331,54697,2,0,L|365:333,1,44.0000013427735,2|0,0:1|0:1,0:0:0:0:
242,215,54853,2,0,L|182:217,1,44.0000013427735,2|0,0:1|0:1,0:0:0:0:
64,281,55010,6,0,P|103:288|143:281,1,80,6|0,0:0|0:0,0:0:0:0:
242,215,55322,1,2,0:0:0:0:
246,219,55478,1,0,0:0:0:0:
128,83,55635,2,0,P|130:123|140:162,1,80,2|0,0:0|0:0,0:0:0:0:
246,219,55947,1,2,0:0:0:0:
322,37,56103,6,0,P|277:39|242:44,1,80,2|0,0:0|0:0,0:0:0:0:
407,124,56416,1,2,0:0:0:0:
326,212,56572,2,0,P|286:218|247:219,1,80,2|0,0:0|0:0,0:0:0:0:
411,299,56885,1,2,0:0:0:0:
411,299,57197,1,2,0:0:0:0:
326,212,57353,1,0,0:0:0:0:
215,335,57510,6,0,P|260:333|295:328,1,80,2|0,0:0|0:0,0:0:0:0:
411,299,57822,1,2,0:0:0:0:
415,295,57978,1,0,0:0:0:0:
326,133,58135,2,0,P|322:173|326:213,1,80,2|0,0:0|0:0,0:0:0:0:
411,46,58447,1,2,0:0:0:0:
221,75,58603,6,0,P|210:113|207:153,1,80,2|0,0:0|0:0,0:0:0:0:
222,273,58916,1,2,0:0:0:0:
88,175,59072,2,0,P|53:168|-7:166,1,80,2|0,0:0|0:0,0:0:0:0:
143,282,59385,2,0,P|183:280|223:273,1,80,2|0,0:0|0:0,0:0:0:0:
390,273,59697,1,2,0:0:0:0:
306,189,59853,1,0,0:0:0:0:
399,352,60010,6,0,P|397:312|390:272,1,80,6|0,0:0|0:0,0:0:0:0:
390,105,60322,1,2,0:0:0:0:
306,189,60478,1,0,0:0:0:0:
469,96,60635,2,0,P|429:98|389:105,1,80,2|0,0:0|0:0,0:0:0:0:
390,273,60947,1,2,0:0:0:0:
227,180,61103,6,0,P|267:182|307:189,1,80,2|0,0:0|0:0,0:0:0:0:
119,231,61416,1,2,0:0:0:0:
174,72,61572,2,0,P|213:65|253:63,1,80,2|0,0:0|0:0,0:0:0:0:
66,123,61885,1,2,0:0:0:0:
66,123,62197,1,2,0:0:0:0:
174,72,62353,1,0,0:0:0:0:
58,242,62510,5,8,0:0:0:0:
74,4,62666,1,8,0:0:0:0:
274,140,62822,1,8,0:0:0:0:
58,242,62979,1,8,0:0:0:0:
74,4,63135,1,8,0:0:0:0:
74,4,63447,5,8,0:0:0:0:
58,242,63603,1,8,0:0:0:0:
74,4,63760,1,8,0:0:0:0:
58,242,63916,1,8,0:0:0:0:
75,259,63994,1,8,0:0:0:0:
92,276,64072,1,8,0:0:0:0:
0,119,64228,1,8,0:0:0:0:
109,293,64385,6,0,P|190:296|245:260,1,80,8|0,0:0|0:0,0:0:0:0:
253,115,64697,1,2,0:0:0:0:
154,182,64853,1,0,0:0:0:0:
348,188,65010,6,0,P|372:127|354:50,1,80,6|0,0:0|0:0,0:0:0:0:
311,10,65322,1,2,0:0:0:0:
307,6,65478,1,0,0:0:0:0:
173,119,65635,2,0,P|210:120|255:115,1,80,2|0,0:0|0:0,0:0:0:0:
307,6,65947,1,2,0:0:0:0:
173,119,66103,6,0,P|165:181|173:236,1,80,2|0,0:0|0:0,0:0:0:0:
228,302,66416,1,2,0:0:0:0:
366,185,66572,2,0,P|327:190|288:198,1,80,2|0,0:0|0:0,0:0:0:0:
108,304,66885,1,2,0:0:0:0:
108,304,67197,1,2,0:0:0:0:
228,302,67353,1,0,0:0:0:0:
173,119,67510,6,0,P|165:181|173:236,1,80,2|0,0:0|0:0,0:0:0:0:
113,15,67822,2,0,P|51:7|-4:15,1,80,2|0,0:0|0:0,0:0:0:0:
293,119,68135,1,2,0:0:0:0:
233,15,68291,1,0,0:0:0:0:
173,119,68447,1,2,0:0:0:0:
353,15,68603,6,0,P|415:7|470:15,1,80,2|0,0:0|0:0,0:0:0:0:
293,119,68916,1,2,0:0:0:0:
192,54,69072,2,0,P|130:46|75:54,1,80,2|0,0:0|0:0,0:0:0:0:
288,199,69385,2,0,L|294:96,1,80,2|0,0:0|0:0,0:0:0:0:
191,270,69697,1,2,0:0:0:0:
230,384,69853,1,0,0:0:0:0:
385,270,70010,6,0,L|391:167,1,80,6|0,0:0|0:0,0:0:0:0:
348,384,70322,1,2,0:0:0:0:
465,360,70478,1,0,0:0:0:0:
268,294,70635,2,0,P|229:296|163:310,1,80,2|0,0:0|0:0,0:0:0:0:
348,384,70947,1,2,0:0:0:0:
390,190,71103,6,0,P|350:183|310:181,1,80,2|0,0:0|0:0,0:0:0:0:
191,195,71416,1,2,0:0:0:0:
390,190,71572,2,0,P|396:150|398:110,1,80,2|0,0:0|0:0,0:0:0:0:
292,260,71885,1,2,0:0:0:0:
292,260,72197,1,2,0:0:0:0:
390,190,72353,1,0,0:0:0:0:
182,211,72510,5,8,0:0:0:0:
402,309,72666,1,8,0:0:0:0:
378,71,72822,1,8,0:0:0:0:
182,211,72978,1,8,0:0:0:0:
402,309,73135,1,8,0:0:0:0:
402,309,73447,5,8,0:0:0:0:
182,211,73603,1,8,0:0:0:0:
402,309,73760,1,8,0:0:0:0:
182,211,73916,1,8,0:0:0:0:
175,188,73994,1,8,0:0:0:0:
168,165,74072,1,8,0:0:0:0:
265,320,74228,1,8,0:0:0:0:
161,142,74385,6,0,P|165:89|188:35,1,80,8|0,0:0|0:0,0:0:0:0:
277,242,74697,2,0,P|273:295|250:349,1,80,2|2,0:0|0:0,0:0:0:0:
277,106,75010,6,0,L|355:110,1,44.0000013427735,6|0,0:1|0:1,0:1:0:0:
420,174,75166,2,0,L|342:178,1,44.0000013427735,2|0,0:1|0:1,0:1:0:0:
277,242,75322,2,0,L|355:246,1,44.0000013427735,2|0,0:1|0:1,0:1:0:0:
420,310,75478,2,0,L|342:314,1,44.0000013427735,2|0,0:1|0:1,0:1:0:0:
221,174,75635,6,0,L|143:178,1,44.0000013427735,2|0,0:1|0:1,0:1:0:0:
44,202,75791,1,2,0:1:0:0:
61,222,75869,1,2,0:1:0:0:
78,242,75947,2,0,L|156:246,1,44.0000013427735,2|0,0:1|0:1,0:1:0:0:
110,119,76103,2,0,L|32:115,1,44.0000013427735,2|0,0:1|0:1,0:1:0:0:
221,63,76260,6,0,L|299:67,1,44.0000013427735,2|0,0:1|0:1,0:1:0:0:
398,91,76416,1,2,0:1:0:0:
381,111,76494,1,2,0:1:0:0:
364,131,76572,2,0,L|286:135,1,44.0000013427735,2|0,0:1|0:1,0:1:0:0:
332,8,76728,2,0,L|410:4,1,44.0000013427735,2|0,0:1|0:1,0:1:0:0:
221,63,76885,6,0,L|65:55,1,95.9999970703126,2|0,0:1|0:1,0:1:0:0:
