osu file format v14

[General]
AudioFilename: audio.mp3
AudioLeadIn: 0
PreviewTime: 14697
Countdown: 0
SampleSet: Soft
StackLeniency: 0.4
Mode: 0
LetterboxInBreaks: 0
WidescreenStoryboard: 0

[Editor]
Bookmarks: 2510
DistanceSpacing: 1.5
BeatDivisor: 8
GridSize: 8
TimelineZoom: 1.9

[Metadata]
Title:Yi Bai Kuai Dou Bu Gei Wo
TitleUnicode:一百块都不给我
Artist:Lan Zi
ArtistUnicode:兰梓
Creator:Pata-Mon
Version:Regraz's Light Insane
Source:
Tags:liangv587 Kencho Regraz DreaM117er m1223961117 小红帽 Little Red Riding Hood xiao hong mao Bilibili Douga 鬼畜 remix 百元哥 T2o 天德池里丢东西
BeatmapID:935997
BeatmapSetID:425219

[Difficulty]
HPDrainRate:6
CircleSize:3.7
OverallDifficulty:7
ApproachRate:8
SliderMultiplier:2
SliderTickRate:2

[Events]
//Background and Video events
0,0,"BG.jpg",0,0
Video,70,"video.flv"
//Break Periods
//Storyboard Layer 0 (Background)
//Storyboard Layer 1 (Fail)
//Storyboard Layer 2 (Pass)
//Storyboard Layer 3 (Foreground)
//Storyboard Sound Samples

[TimingPoints]
10,625,4,2,1,30,1,0
4853,-100,4,2,1,5,0,0
5010,-100,4,2,1,40,0,0
15010,-66.6666666666667,4,2,1,50,0,0
35010,-66.6666666666667,4,2,1,50,0,1
55010,-66.6666666666667,4,2,1,50,0,0

[Colours]
Combo1 : 255,192,57
Combo2 : 242,24,57
Combo3 : 18,124,255

[HitObjects]
87,71,2510,5,2,0:0:0:0:
92,76,3135,1,2,0:0:0:0:
97,81,3760,1,2,0:0:0:0:
102,86,4385,2,0,B|110:137|98:210|98:210|140:179,1,150,2|0,0:0|0:0,0:0:0:0:
150,167,5010,6,0,P|205:155|276:179,1,100,6|0,0:0|0:0,0:0:0:0:
424,117,5635,2,0,P|365:125|322:108,1,100,2|0,0:0|0:0,0:0:0:0:
327,111,6103,2,0,L|321:239,1,100,2|2,0:0|0:0,0:0:0:0:
366,273,6572,1,2,0:0:0:0:
183,222,6885,2,0,P|111:217|77:231,1,100,2|2,0:0|0:0,0:0:0:0:
232,107,7510,6,0,P|298:121|336:106,1,100,2|0,0:0|0:0,0:0:0:0:
470,38,8135,2,0,L|457:142,1,100,2|0,0:0|0:0,0:0:0:0:
480,208,8603,2,0,P|429:172|380:184,1,100,2|2,0:0|0:0,0:0:0:0:
353,238,9072,1,2,0:0:0:0:
199,118,9385,2,0,P|145:126|99:104,1,100,2|2,1:2|0:0,0:0:0:0:
257,75,10010,6,0,L|247:196,1,100,6|0,0:0|0:0,0:0:0:0:
371,269,10635,2,0,L|379:169,1,100,2|0,0:0|0:0,0:0:0:0:
416,106,11103,2,0,P|476:115|505:155,1,100,2|2,0:0|0:0,0:0:0:0:
482,215,11572,1,2,0:0:0:0:
293,171,11885,2,0,P|235:182|191:171,1,100,2|2,0:0|0:0,0:0:0:0:
58,71,12510,6,0,P|116:60|160:71,1,100,2|0,0:0|0:0,0:0:0:0:
195,173,13135,2,0,L|185:276,1,100,2|0,0:0|0:0,0:0:0:0:
251,313,13603,1,2,0:0:0:0:
313,265,13760,5,2,3:0:0:0:
313,143,13916,1,2,3:0:0:0:
241,241,14073,1,2,3:0:0:0:
357,204,14229,1,2,3:0:0:0:
241,166,14385,1,2,1:2:0:0:
241,166,14697,2,0,L|145:153,1,50,2|0,0:0|0:0,0:0:0:0:
99,248,15010,6,0,L|210:232,1,75.0000028610231,6|0,0:0|0:0,0:0:0:0:
274,329,15322,2,0,L|179:313,1,75.0000028610231,2|0,0:0|0:0,0:0:0:0:
116,332,15635,1,2,0:0:0:0:
247,181,15947,6,0,L|376:199,1,75.0000028610231,2|2,0:0|0:0,0:0:0:0:
459,137,16260,2,0,P|417:145|383:137,1,75.0000028610231,2|0,0:0|0:0,0:0:0:0:
347,70,16572,1,2,0:0:0:0:
382,7,16728,1,0,0:0:0:0:
419,70,16885,1,2,0:0:0:0:
205,52,17197,6,0,L|122:46,1,75.0000028610231,2|0,0:0|0:0,0:0:0:0:
73,115,17510,2,0,P|66:156|75:193,2,75.0000028610231,2|0|0,0:0|0:0|0:0,0:0:0:0:
156,147,17978,1,2,0:0:0:0:
143,239,18135,2,0,P|225:220|301:251,1,150.000005722046,2|2,0:0|0:0,0:0:0:0:
380,243,18603,5,2,0:0:0:0:
426,161,18760,2,0,L|438:64,1,75.0000028610231,2|0,0:0|0:0,0:0:0:0:
313,85,19072,2,0,L|322:159,1,75.0000028610231,2|0,0:0|0:0,0:0:0:0:
358,286,19385,1,2,0:0:0:0:
358,286,19697,6,0,P|312:278|271:293,1,75.0000028610231,2|0,0:0|0:0,0:0:0:0:
120,251,20010,2,0,P|166:259|207:244,1,75.0000028610231,6|0,0:0|0:0,0:0:0:0:
287,210,20322,2,0,L|283:346,1,75.0000028610231,2|0,0:0|0:0,0:0:0:0:
196,168,20635,2,0,L|198:93,1,75.0000028610231,2|0,0:0|0:0,0:0:0:0:
277,42,20947,1,2,0:0:0:0:
277,42,21103,6,0,P|381:89|430:55,1,150.000005722046,2|2,0:0|0:0,0:0:0:0:
503,21,21572,2,0,L|496:133,1,75.0000028610231,2|0,0:0|0:0,0:0:0:0:
437,168,21885,1,2,0:0:0:0:
428,181,22197,2,0,L|419:81,1,75.0000028610231,2|0,0:0|0:0,0:0:0:0:
302,139,22510,5,8,0:0:0:0:
230,40,22666,1,8,0:0:0:0:
346,78,22822,1,8,0:0:0:0:
230,115,22978,1,8,0:0:0:0:
302,17,23135,1,8,0:0:0:0:
179,170,23447,5,8,0:0:0:0:
251,268,23604,1,8,0:0:0:0:
135,231,23760,1,8,0:0:0:0:
251,193,23916,2,0,L|266:128,2,37.5000014305115,8|8|8,0:0|0:0|0:0,0:0:0:0:
179,292,24228,1,8,0:0:0:0:
307,307,24385,1,8,0:0:0:0:
307,307,24697,6,0,L|392:325,1,75.0000028610231,2|0,0:0|0:0,0:0:0:0:
461,185,25010,2,0,L|376:203,1,75.0000028610231,6|0,0:0|0:0,0:0:0:0:
257,221,25322,1,2,0:0:0:0:
315,167,25478,1,0,0:0:0:0:
332,255,25635,1,2,0:0:0:0:
145,33,25947,6,0,L|127:130,1,75.0000028610231,2|2,0:0|0:0,0:0:0:0:
217,191,26260,2,0,L|210:96,1,75.0000028610231,2|0,0:0|0:0,0:0:0:0:
312,25,26572,1,2,0:0:0:0:
291,101,26728,1,0,0:0:0:0:
235,43,26885,1,2,0:0:0:0:
474,257,27353,5,2,0:0:0:0:
419,313,27510,2,0,L|342:288,1,75.0000028610231,2|0,0:0|0:0,0:0:0:0:
262,281,27822,2,0,P|336:229|316:140,1,150.000005722046,2|2,0:0|0:0,0:0:0:0:
251,53,28291,1,2,0:0:0:0:
251,53,28447,2,0,L|247:145,1,75.0000028610231,2|0,0:0|0:0,0:0:0:0:
290,231,28760,6,0,P|241:237|198:224,1,75.0000028610231,2|0,0:0|0:0,0:0:0:0:
323,151,29072,2,0,P|372:145|415:158,1,75.0000028610231,2|0,0:0|0:0,0:0:0:0:
470,269,29385,1,2,0:0:0:0:
470,269,29697,2,0,L|480:178,1,75.0000028610231,2|0,0:0|0:0,0:0:0:0:
392,96,30010,6,0,L|397:195,1,75.0000028610231,6|0,0:0|0:0,0:0:0:0:
313,120,30322,2,0,P|261:138|227:137,1,75.0000028610231,2|0,0:0|0:0,0:0:0:0:
169,82,30635,1,2,0:0:0:0:
162,69,30947,6,0,L|153:165,1,75.0000028610231,2|0,0:0|0:0,0:0:0:0:
260,219,31260,2,0,L|252:144,1,75.0000028610231,2|0,0:0|0:0,0:0:0:0:
365,112,31572,2,0,L|356:208,1,75.0000028610231,2|0,0:0|0:0,0:0:0:0:
342,289,31885,1,2,0:0:0:0:
343,315,32197,2,0,L|259:302,1,75.0000028610231,2|0,0:0|0:0,0:0:0:0:
224,242,32510,5,8,0:0:0:0:
152,341,32666,1,8,0:0:0:0:
268,303,32822,1,8,0:0:0:0:
152,266,32978,1,8,0:0:0:0:
224,364,33135,1,8,0:0:0:0:
101,211,33447,5,8,0:0:0:0:
173,113,33604,1,8,0:0:0:0:
57,150,33760,1,8,0:0:0:0:
173,188,33916,2,0,L|226:220,2,37.5000014305115,8|8|8,0:0|0:0|0:0,0:0:0:0:
101,89,34228,1,8,0:0:0:0:
17,229,34385,1,8,0:0:0:0:
488,57,35010,6,0,L|357:35,1,75.0000028610231,6|0,0:0|0:0,0:0:0:0:
347,85,35322,1,0,0:0:0:0:
326,168,35478,2,0,L|457:146,1,75.0000028610231,2|0,0:0|0:0,0:0:0:0:
467,196,35790,1,0,0:0:0:0:
411,261,35947,2,0,L|280:239,1,75.0000028610231,2|0,0:0|0:0,0:0:0:0:
270,289,36259,5,2,0:0:0:0:
266,208,36416,2,0,L|276:150,2,37.5000014305115,2|2|2,0:0|0:0|0:0,0:0:0:0:
197,255,36728,1,2,0:0:0:0:
143,348,36885,2,0,B|157:250|157:250|142:195,1,150.000005722046,2|0,0:0|0:0,0:0:0:0:
24,57,37510,6,0,L|155:35,1,75.0000028610231,2|0,0:1|0:1,0:0:0:0:
165,85,37822,1,0,0:1:0:0:
165,85,37978,1,0,0:1:0:0:
102,153,38134,2,0,L|27:165,1,75.0000028610231,2|0,0:1|0:1,0:0:0:0:
0,285,38447,2,0,L|131:263,1,75.0000028610231,2|0,0:1|0:1,0:0:0:0:
171,307,38759,5,2,0:1:0:0:
225,236,38916,2,0,L|205:168,2,37.5000014305115,2|2|2,0:1|0:1|0:1,0:0:0:0:
315,255,39228,1,2,0:1:0:0:
327,172,39385,2,0,P|335:137|320:85,2,75.0000028610231,2|0|0,0:1|0:0|0:0,0:0:0:0:
250,132,39853,1,2,0:0:0:0:
169,142,40010,6,0,L|95:132,1,75.0000028610231,6|0,0:0|0:0,0:0:0:0:
180,58,40322,2,0,L|253:45,1,75.0000028610231,2|0,0:0|0:0,0:0:0:0:
327,99,40635,1,2,0:0:0:0:
228,213,40947,6,0,L|357:195,1,75.0000028610231,2|0,0:0|0:0,0:0:0:0:
460,247,41260,2,0,P|418:239|384:247,1,75.0000028610231,2|0,0:0|0:0,0:0:0:0:
348,314,41572,1,2,0:0:0:0:
383,377,41728,1,0,0:0:0:0:
420,314,41885,1,2,0:0:0:0:
94,74,42353,5,0,0:0:0:0:
94,74,42510,2,0,L|83:175,1,75.0000028610231,2|2,0:1|0:1,0:0:0:0:
185,209,42822,2,0,L|178:124,1,75.0000028610231,2|2,0:1|0:1,0:0:0:0:
280,76,43135,2,0,L|269:177,1,75.0000028610231,2|0,0:1|0:1,0:0:0:0:
371,211,43447,2,0,L|364:126,1,75.0000028610231,2|0,0:1|0:1,0:0:0:0:
412,61,43760,5,2,0:1:0:0:
456,142,43916,2,0,L|495:165,2,37.5000014305115,2|2|2,0:1|0:1|0:1,0:0:0:0:
364,136,44228,1,2,0:1:0:0:
292,67,44385,2,0,P|241:89|201:80,1,75.0000028610231,2|0,0:1|0:0,0:0:0:0:
189,57,44619,1,0,0:0:0:0:
189,57,44697,2,0,P|142:87|128:120,1,75.0000028610231,2|0,0:1|0:0,0:0:0:0:
45,272,45010,6,0,P|134:268|155:246,1,75.0000028610231,6|0,0:0|0:0,0:0:0:0:
181,232,45322,1,0,0:0:0:0:
192,317,45478,2,0,P|261:261|265:231,1,75.0000028610231,2|0,0:0|0:0,0:0:0:0:
278,204,45790,1,0,0:0:0:0:
335,267,45947,2,0,P|358:181|344:154,1,75.0000028610231,2|0,0:0|0:0,0:0:0:0:
338,125,46259,5,2,0:0:0:0:
266,74,46416,2,0,L|270:13,2,37.5000014305115,2|2|2,0:0|0:0|0:0,0:0:0:0:
197,129,46728,1,2,0:0:0:0:
130,81,46885,2,0,P|49:96|47:167,1,150.000005722046,2|0,0:0|0:0,0:0:0:0:
359,247,47510,6,0,P|270:243|249:221,1,75.0000028610231,2|0,0:1|0:1,0:0:0:0:
223,207,47822,1,0,0:1:0:0:
212,292,47978,2,0,P|142:236|138:206,1,75.0000028610231,2|0,0:1|0:1,0:0:0:0:
126,179,48290,1,0,0:1:0:0:
69,242,48447,2,0,P|45:156|59:129,1,75.0000028610231,2|0,0:1|0:1,0:0:0:0:
66,100,48759,5,2,0:1:0:0:
138,49,48916,2,0,L|141:-2,2,37.5000014305115,2|2|2,0:1|0:1|0:1,0:0:0:0:
207,104,49228,1,2,0:1:0:0:
296,65,49385,2,0,L|284:150,1,75.0000028610231,2|0,0:1|0:0,0:0:0:0:
317,218,49697,1,2,0:0:0:0:
74,269,50010,6,0,P|67:228|76:191,2,75.0000028610231,6|0|0,0:0|0:0|0:0,0:0:0:0:
157,237,50478,1,2,0:0:0:0:
144,145,50635,2,0,P|226:164|302:133,1,150.000005722046,2|2,0:0|0:0,0:0:0:0:
381,141,51103,5,2,0:0:0:0:
430,209,51260,2,0,L|442:306,1,75.0000028610231,2|0,0:0|0:0,0:0:0:0:
320,288,51572,2,0,L|329:214,1,75.0000028610231,2|0,0:0|0:0,0:0:0:0:
359,98,51885,1,2,0:0:0:0:
94,310,52353,5,0,0:0:0:0:
94,310,52510,2,0,L|83:209,1,75.0000028610231,2|2,0:1|0:1,0:0:0:0:
185,175,52822,2,0,L|178:260,1,75.0000028610231,2|2,0:1|0:1,0:0:0:0:
280,308,53135,2,0,L|269:207,1,75.0000028610231,2|0,0:1|0:1,0:0:0:0:
371,173,53447,2,0,L|364:258,1,75.0000028610231,2|0,0:1|0:1,0:0:0:0:
412,323,53760,5,2,0:1:0:0:
456,242,53916,2,0,L|494:218,2,37.5000014305115,2|2|2,0:1|0:1|0:1,0:0:0:0:
364,248,54228,1,2,0:1:0:0:
317,331,54385,2,0,P|244:291|166:322,1,150.000005722046,2|0,0:1|0:1,0:0:0:0:
105,242,54853,1,2,0:0:0:0:
99,136,55010,6,0,L|210:152,1,75.0000028610231,6|0,0:0|0:0,0:0:0:0:
274,55,55322,2,0,L|179:71,1,75.0000028610231,2|0,0:0|0:0,0:0:0:0:
121,31,55635,1,2,0:0:0:0:
227,213,55947,6,0,L|356:195,1,75.0000028610231,2|0,0:0|0:0,0:0:0:0:
459,247,56260,2,0,P|417:239|383:247,1,75.0000028610231,2|2,0:0|0:0,0:0:0:0:
347,314,56572,1,2,0:0:0:0:
382,377,56728,1,0,0:0:0:0:
419,314,56885,1,2,0:0:0:0:
205,332,57197,6,0,L|122:338,1,75.0000028610231,2|0,0:0|0:0,0:0:0:0:
73,269,57510,2,0,P|66:228|75:191,2,75.0000028610231,2|0|0,0:0|0:0|0:0,0:0:0:0:
156,237,57978,1,2,0:0:0:0:
143,145,58135,2,0,P|225:164|301:133,1,150.000005722046,2|2,0:0|0:0,0:0:0:0:
380,141,58603,5,2,0:0:0:0:
429,209,58760,2,0,L|441:306,1,75.0000028610231,2|0,0:0|0:0,0:0:0:0:
319,288,59072,2,0,L|328:214,1,75.0000028610231,2|0,0:0|0:0,0:0:0:0:
358,98,59385,1,2,0:0:0:0:
358,98,59697,6,0,P|312:106|271:91,1,75.0000028610231,2|0,0:0|0:0,0:0:0:0:
120,133,60010,2,0,P|166:125|207:140,1,75.0000028610231,6|0,0:0|0:0,0:0:0:0:
287,174,60322,2,0,L|283:38,1,75.0000028610231,2|0,0:0|0:0,0:0:0:0:
196,216,60635,2,0,L|198:291,1,75.0000028610231,2|0,0:0|0:0,0:0:0:0:
277,342,60947,1,2,0:0:0:0:
277,342,61103,6,0,P|381:295|430:329,1,150.000005722046,2|2,0:0|0:0,0:0:0:0:
503,363,61572,2,0,L|496:251,1,75.0000028610231,2|0,0:0|0:0,0:0:0:0:
437,216,61885,1,2,0:0:0:0:
428,203,62197,2,0,L|419:303,1,75.0000028610231,2|0,0:0|0:0,0:0:0:0:
302,245,62510,5,8,0:0:0:0:
230,344,62666,1,8,0:0:0:0:
346,306,62822,1,8,0:0:0:0:
230,269,62978,1,8,0:0:0:0:
302,367,63135,1,8,0:0:0:0:
179,214,63447,5,8,0:0:0:0:
251,116,63604,1,8,0:0:0:0:
135,153,63760,1,8,0:0:0:0:
251,191,63916,2,0,L|294:231,2,37.5000014305115,8|8|8,0:0|0:0|0:0,0:0:0:0:
179,92,64228,1,8,0:0:0:0:
217,274,64385,1,8,0:0:0:0:
198,291,64697,6,0,L|113:309,1,75.0000028610231,2|0,0:0|0:0,0:0:0:0:
44,169,65010,2,0,L|129:187,1,75.0000028610231,6|0,0:0|0:0,0:0:0:0:
253,212,65322,1,2,0:0:0:0:
194,157,65478,1,0,0:0:0:0:
177,239,65635,1,2,0:0:0:0:
360,17,65947,6,0,L|378:114,1,75.0000028610231,2|0,0:0|0:0,0:0:0:0:
288,175,66260,2,0,L|295:80,1,75.0000028610231,2|0,0:0|0:0,0:0:0:0:
195,9,66572,1,2,0:0:0:0:
209,85,66728,1,0,0:0:0:0:
275,25,66885,1,2,0:0:0:0:
31,241,67353,5,2,0:0:0:0:
86,297,67510,2,0,L|163:272,1,75.0000028610231,2|0,0:0|0:0,0:0:0:0:
243,265,67822,2,0,P|169:213|189:124,1,150.000005722046,2|2,0:0|0:0,0:0:0:0:
254,37,68291,1,2,0:0:0:0:
254,37,68447,2,0,L|258:129,1,75.0000028610231,2|0,0:0|0:0,0:0:0:0:
215,215,68760,6,0,P|264:221|307:208,1,75.0000028610231,2|0,0:0|0:0,0:0:0:0:
182,135,69072,2,0,P|133:129|90:142,1,75.0000028610231,2|0,0:0|0:0,0:0:0:0:
35,253,69385,1,2,0:0:0:0:
35,253,69697,2,0,L|25:162,1,75.0000028610231,2|0,0:0|0:0,0:0:0:0:
113,80,70010,6,0,L|108:179,1,75.0000028610231,6|0,0:0|0:0,0:0:0:0:
192,104,70322,2,0,P|244:122|278:121,1,75.0000028610231,2|0,0:0|0:0,0:0:0:0:
336,66,70635,1,2,0:0:0:0:
343,53,70947,6,0,L|352:149,1,75.0000028610231,2|0,0:0|0:0,0:0:0:0:
242,188,71260,2,0,L|250:113,1,75.0000028610231,2|0,0:0|0:0,0:0:0:0:
147,53,71572,2,0,L|156:149,1,75.0000028610231,2|0,0:0|0:0,0:0:0:0:
64,112,71885,1,2,0:0:0:0:
162,299,72197,2,0,L|246:286,1,75.0000028610231,2|0,0:0|0:0,0:0:0:0:
281,226,72510,5,8,0:0:0:0:
353,325,72666,1,8,0:0:0:0:
237,287,72822,1,8,0:0:0:0:
353,250,72978,1,8,0:0:0:0:
281,348,73135,1,8,0:0:0:0:
404,195,73447,5,8,0:0:0:0:
332,97,73604,1,8,0:0:0:0:
448,134,73760,1,8,0:0:0:0:
332,172,73916,2,0,L|299:216,2,37.5000014305115,8|8|8,0:0|0:0|0:0,0:0:0:0:
404,73,74228,1,8,0:0:0:0:
276,58,74385,2,0,P|178:78|139:48,1,150.000005722046,8|0,0:0|0:0,0:0:0:0:
379,155,75010,6,0,P|340:140|283:148,1,75.0000028610231,6|2,0:1|0:1,0:0:0:0:
238,191,75322,1,2,0:1:0:0:
406,241,75478,2,0,P|445:226|502:234,1,75.0000028610231,2|2,0:1|0:1,0:0:0:0:
324,301,75791,2,0,L|273:303,2,37.5000014305115,2|2|2,0:1|0:1|0:1,0:0:0:0:
409,331,76103,1,2,0:1:0:0:
332,201,76260,5,2,0:1:0:0:
253,93,76416,1,2,0:1:0:0:
380,134,76572,1,2,0:1:0:0:
253,175,76728,1,2,0:1:0:0:
332,67,76885,5,2,0:1:0:0:
