osu file format v14

[General]
AudioFilename: audio.mp3
AudioLeadIn: 0
PreviewTime: 14697
Countdown: 0
SampleSet: Soft
StackLeniency: 0.7
Mode: 0
LetterboxInBreaks: 0
WidescreenStoryboard: 1

[Editor]
Bookmarks: 5010,15010,25010,35010,45010,55010,65010,75010
DistanceSpacing: 1.1
BeatDivisor: 4
GridSize: 32
TimelineZoom: 1.2

[Metadata]
Title:Yi Bai Kuai Dou Bu Gei Wo
TitleUnicode:一百块都不给我
Artist:Lan Zi
ArtistUnicode:兰梓
Creator:Pata-Mon
Version:Normal
Source:
Tags:liangv587 Kencho Regraz DreaM117er m1223961117 小红帽 Little Red Riding Hood xiao hong mao Bilibili Douga 鬼畜 remix 百元哥 T2o 天德池里丢东西
BeatmapID:1384399
BeatmapSetID:425219

[Difficulty]
HPDrainRate:4
CircleSize:2.5
OverallDifficulty:4
ApproachRate:5
SliderMultiplier:1.8
SliderTickRate:2

[Events]
//Background and Video events
Video,70,"video.flv"
0,0,"BG.jpg",0,0
//Break Periods
//Storyboard Layer 0 (Background)
//Storyboard Layer 1 (Fail)
//Storyboard Layer 2 (Pass)
//Storyboard Layer 3 (Foreground)
//Storyboard Sound Samples

[TimingPoints]
10,625,4,2,1,30,1,0
5010,-100,4,2,1,40,0,0
15010,-100,4,2,1,50,0,0
35010,-100,4,2,1,50,0,1
55010,-100,4,2,1,50,0,0

[Colours]
Combo1 : 255,192,57
Combo2 : 242,24,57
Combo3 : 18,124,255

[HitObjects]
158,108,2510,6,0,P|131:190|184:305,1,180,2|2,0:0|0:0,0:0:0:0:
355,277,3760,2,0,P|382:195|329:80,1,180,2|2,0:0|0:0,0:0:0:0:
179,17,5010,6,0,L|48:23,1,90,6|0,0:0|0:0,0:0:0:0:
17,89,5635,2,0,P|20:141|33:208,1,90,2|0,0:0|0:0,0:0:0:0:
69,202,6103,2,0,P|66:254|53:321,1,90,2|2,0:0|0:0,0:0:0:0:
42,337,6572,1,2,0:0:0:0:
133,375,6885,1,2,0:0:0:0:
224,337,7197,1,2,0:0:0:0:
315,375,7510,6,0,P|375:375|442:351,1,90,2|0,0:0|0:0,0:0:0:0:
469,293,8135,2,0,L|457:174,1,90,2|0,0:0|0:0,0:0:0:0:
421,173,8603,2,0,L|433:54,1,90,2|2,0:0|0:0,0:0:0:0:
436,34,9072,1,2,0:0:0:0:
340,9,9385,2,0,P|305:8|227:21,1,90,2|2,1:2|0:0,0:0:0:0:
170,73,10010,6,0,P|135:73|57:61,1,90,6|0,0:0|0:0,0:0:0:0:
9,135,10635,2,0,L|18:241,1,90,2|0,0:0|0:0,0:0:0:0:
46,263,11103,2,0,P|90:269|135:269,1,90,2|2,0:0|0:0,0:0:0:0:
184,260,11572,1,2,0:0:0:0:
254,330,11885,1,2,0:0:0:0:
324,260,12197,1,2,0:0:0:0:
254,190,12510,6,0,P|249:146|252:86,1,90,2|0,0:0|0:0,0:0:0:0:
327,38,13135,2,0,L|416:34,1,90,2|0,0:0|0:0,0:0:0:0:
442,76,13603,2,0,P|447:120|444:180,1,90,2|2,0:0|0:0,0:0:0:0:
432,213,14072,1,2,0:0:0:0:
347,265,14385,2,0,L|258:269,1,90,2|2,1:2|0:0,0:0:0:0:
224,305,14853,1,0,0:0:0:0:
224,305,15010,6,0,L|135:301,1,90,6|2,0:0|0:0,0:0:0:0:
54,242,15635,1,2,0:0:0:0:
106,158,15947,1,2,0:0:0:0:
106,158,16103,2,0,P|113:113|109:30,1,90,2|2,0:0|0:0,0:0:0:0:
110,19,16572,2,0,L|224:28,1,90,2|2,0:0|0:0,0:0:0:0:
271,93,17197,2,0,L|328:88,1,45,2|0,0:0|0:0,0:0:0:0:
362,71,17510,6,0,L|365:177,1,90,2|2,0:0|0:0,0:0:0:0:
369,260,18135,1,2,0:0:0:0:
282,307,18447,1,2,0:0:0:0:
282,307,18603,2,0,P|230:306|176:295,1,90,2|2,0:0|0:0,0:0:0:0:
155,266,19072,2,0,P|103:267|49:278,1,90,2|2,0:0|0:0,0:0:0:0:
19,185,19697,2,0,L|17:122,1,45,2|0,0:0|0:0,0:0:0:0:
46,99,20010,6,0,P|90:91|135:91,1,90,6|2,0:0|0:0,0:0:0:0:
231,116,20635,1,2,0:0:0:0:
326,91,20947,1,2,0:0:0:0:
326,91,21103,2,0,P|378:92|432:103,1,90,2|2,0:0|0:0,0:0:0:0:
459,120,21572,2,0,L|451:244,1,90,2|2,0:0|0:0,0:0:0:0:
381,277,22197,2,0,L|301:271,1,45,2|0,0:0|0:0,0:0:0:0:
286,273,22510,6,0,L|294:397,2,90,8|8|8,0:0|0:0|0:0,0:0:0:0:
222,197,23447,2,0,L|226:135,1,45,8|8,0:0|0:0,0:0:0:0:
256,113,23760,2,0,P|302:104|376:104,2,90,8|8|8,0:0|0:0|0:0,0:0:0:0:
164,75,24697,2,0,L|88:84,1,45,2|0,0:0|0:0,0:0:0:0:
70,91,25010,6,0,P|73:151|86:211,1,90,6|2,0:0|0:0,0:0:0:0:
113,272,25635,1,2,0:0:0:0:
205,237,25947,1,2,0:0:0:0:
205,237,26103,2,0,P|251:231|319:234,1,90,2|2,0:0|0:0,0:0:0:0:
327,268,26572,2,0,P|373:274|441:271,1,90,2|2,0:0|0:0,0:0:0:0:
488,205,27197,2,0,L|483:124,1,45,2|0,0:0|0:0,0:0:0:0:
461,116,27510,6,0,P|415:110|347:113,1,90,2|2,0:0|0:0,0:0:0:0:
275,135,28135,1,2,0:0:0:0:
178,110,28447,1,2,0:0:0:0:
178,110,28604,2,0,P|133:109|88:115,1,90,2|2,0:0|0:0,0:0:0:0:
42,133,29072,2,0,L|52:253,1,90,2|2,0:0|0:0,0:0:0:0:
112,298,29697,2,0,L|156:295,1,45,2|0,0:0|0:0,0:0:0:0:
193,260,30010,6,0,P|238:259|283:265,1,90,6|2,0:0|0:0,0:0:0:0:
372,305,30635,1,2,0:0:0:0:
448,242,30947,1,2,0:0:0:0:
448,242,31103,2,0,P|447:197|441:124,1,90,2|2,0:0|0:0,0:0:0:0:
401,125,31572,2,0,P|402:80|408:7,1,90,2|2,0:0|0:0,0:0:0:0:
309,8,32197,2,0,L|239:13,1,45,2|0,0:0|0:0,0:0:0:0:
226,44,32510,6,0,L|86:34,2,90,8|8|8,0:0|0:0|0:0,0:0:0:0:
299,109,33447,2,0,L|295:195,1,45,8|8,0:0|0:0,0:0:0:0:
329,192,33760,2,0,L|469:182,2,90,8|8|8,0:0|0:0|0:0,0:0:0:0:
246,246,34697,1,2,0:0:0:0:
163,192,35010,6,0,L|23:182,2,90,6|2|2,0:0|0:0|0:0,0:0:0:0:
246,138,35947,2,0,L|316:143,1,45,2|0,0:0|0:0,0:0:0:0:
330,171,36260,2,0,L|470:161,1,90,2|2,0:0|0:0,0:0:0:0:
469,164,36728,1,2,0:0:0:0:
469,164,36885,2,0,P|481:209|483:283,1,90,2|2,0:0|0:0,0:0:0:0:
417,324,37510,6,0,L|277:334,2,90,2|2|2,0:1|0:1|0:1,0:0:0:0:
389,228,38447,2,0,L|319:233,1,45,2|0,0:1|0:1,0:0:0:0:
303,202,38760,2,0,P|260:198|213:202,1,90,2|2,0:1|0:1,0:0:0:0:
183,241,39228,1,2,0:1:0:0:
183,241,39385,2,0,P|140:245|93:241,1,90,2|0,0:1|0:0,0:0:0:0:
49,217,39853,1,2,0:0:0:0:
49,217,40010,6,0,L|57:98,1,90,6|2,0:0|0:0,0:0:0:0:
60,28,40635,1,2,0:0:0:0:
156,48,40947,1,2,0:0:0:0:
156,48,41103,2,0,P|214:44|280:30,1,90,2|2,0:0|0:0,0:0:0:0:
284,9,41572,2,0,P|342:12|408:27,1,90,2|2,0:0|0:0,0:0:0:0:
462,61,42197,2,0,L|458:118,1,45,2|0,0:0|0:0,0:0:0:0:
428,145,42510,6,0,L|435:259,1,90,2|2,0:1|0:1,0:0:0:0:
363,304,43135,2,0,L|249:297,1,90,2|2,0:1|0:1,0:0:0:0:
234,267,43603,1,2,0:1:0:0:
234,267,43760,2,0,L|120:274,1,90,2|2,0:1|0:1,0:0:0:0:
95,279,44228,1,2,0:1:0:0:
95,279,44385,2,0,P|84:243|79:172,1,90,2|0,0:1|0:1,0:0:0:0:
115,99,45010,6,0,P|110:54|98:11,2,90,6|2|2,0:0|0:0|0:0,0:0:0:0:
211,125,45947,2,0,P|247:124|293:111,1,45,2|0,0:0|0:0,0:0:0:0:
300,99,46260,2,0,P|305:54|317:11,1,90,2|2,0:0|0:0,0:0:0:0:
366,10,46728,1,2,0:0:0:0:
366,10,46885,2,0,L|455:18,1,90,2|2,0:0|0:0,0:0:0:0:
484,112,47510,6,0,P|479:157|467:200,2,90,2|2|2,0:1|0:1|0:1,0:0:0:0:
385,115,48447,2,0,L|376:158,1,45,2|0,0:1|0:1,0:0:0:0:
332,183,48760,2,0,P|289:188|219:189,1,90,2|2,0:1|0:1,0:0:0:0:
206,155,49228,1,2,0:1:0:0:
206,155,49385,2,0,P|163:150|93:149,1,90,2|2,0:1|0:0,0:0:0:0:
67,151,49853,1,2,0:0:0:0:
67,151,50010,6,0,L|75:274,1,90,6|2,0:0|0:0,0:0:0:0:
125,325,50635,1,2,0:0:0:0:
221,302,50947,1,2,0:0:0:0:
221,302,51103,2,0,P|279:305|344:319,1,90,2|2,0:0|0:0,0:0:0:0:
339,350,51572,2,0,P|397:347|462:333,1,90,2|2,0:0|0:0,0:0:0:0:
508,282,52197,2,0,L|504:225,1,45,2|0,0:0|0:0,0:0:0:0:
466,205,52510,6,0,L|473:91,1,90,2|2,0:1|0:1,0:0:0:0:
406,40,53135,2,0,P|363:23|319:15,1,90,2|2,0:1|0:1,0:0:0:0:
278,41,53603,1,0,0:1:0:0:
278,41,53760,2,0,P|233:45|188:41,1,90,2|2,0:1|0:1,0:0:0:0:
146,15,54228,1,2,0:1:0:0:
146,15,54385,2,0,P|101:23|59:39,1,90,2|0,0:1|0:1,0:0:0:0:
19,67,54853,1,2,0:0:0:0:
19,67,55010,6,0,L|32:185,1,90,6|2,0:0|0:0,0:0:0:0:
89,234,55635,1,2,0:0:0:0:
169,176,55947,1,2,0:0:0:0:
169,176,56103,2,0,P|210:168|267:169,1,90,2|2,0:0|0:0,0:0:0:0:
298,196,56572,2,0,P|339:203|396:203,1,90,2|2,0:0|0:0,0:0:0:0:
485,217,57197,2,0,L|475:289,1,45,2|0,0:0|0:0,0:0:0:0:
442,295,57510,6,0,P|400:302|344:302,1,90,2|2,0:0|0:0,0:0:0:0:
256,278,58135,1,2,0:0:0:0:
159,302,58447,1,2,0:0:0:0:
159,302,58603,2,0,P|114:301|69:294,1,90,2|2,0:0|0:0,0:0:0:0:
24,273,59072,2,0,L|33:154,1,90,2|2,0:0|0:0,0:0:0:0:
97,110,59697,2,0,L|92:50,1,45,2|0,0:0|0:0,0:0:0:0:
125,26,60010,6,0,P|168:17|227:19,1,90,6|2,0:0|0:0,0:0:0:0:
303,59,60635,1,2,0:0:0:0:
391,17,60947,1,2,0:0:0:0:
391,17,61104,2,0,P|435:17|480:25,1,90,2|2,0:0|0:0,0:0:0:0:
512,63,61572,2,0,L|506:184,1,90,2|2,0:0|0:0,0:0:0:0:
447,232,62197,2,0,L|402:227,1,45,2|0,0:0|0:0,0:0:0:0:
357,206,62510,6,0,L|236:212,2,90,8|8|8,0:0|0:0|0:0,0:0:0:0:
339,303,63447,2,0,L|278:306,1,45,8|8,0:0|0:0,0:0:0:0:
249,329,63760,2,0,L|128:323,2,90,8|8|8,0:0|0:0|0:0,0:0:0:0:
231,232,64697,2,0,L|170:229,1,45,2|0,0:0|0:0,0:0:0:0:
136,225,65010,6,0,P|126:179|126:104,1,90,6|2,0:0|0:0,0:0:0:0:
141,38,65635,1,2,0:0:0:0:
237,58,65947,1,2,0:0:0:0:
237,58,66103,2,0,L|337:54,1,90,2|2,0:0|0:0,0:0:0:0:
361,19,66572,2,0,L|461:23,1,90,2|2,0:0|0:0,0:0:0:0:
512,101,67197,2,0,L|508:178,1,45,2|0,0:0|0:0,0:0:0:0:
466,170,67510,6,0,L|366:166,1,90,2|2,0:0|0:0,0:0:0:0:
277,160,68135,1,2,0:0:0:0:
227,245,68447,1,2,0:0:0:0:
227,245,68603,2,0,P|224:304|243:366,1,90,2|2,0:0|0:0,0:0:0:0:
256,375,69072,2,0,L|356:379,1,90,2|2,0:0|0:0,0:0:0:0:
410,303,69697,2,0,L|460:301,1,45,2|0,0:0|0:0,0:0:0:0:
490,265,70010,6,0,P|493:206|474:144,1,90,6|2,0:0|0:0,0:0:0:0:
425,98,70635,1,2,0:0:0:0:
332,132,70947,1,2,0:0:0:0:
332,132,71103,2,0,P|281:131|218:119,1,90,2|2,0:0|0:0,0:0:0:0:
206,90,71572,2,0,P|155:90|92:103,1,90,2|2,0:0|0:0,0:0:0:0:
37,156,72197,2,0,L|40:217,1,45,2|0,0:0|0:0,0:0:0:0:
73,237,72510,6,0,L|67:358,2,90,8|8|8,0:0|0:0|0:0,0:0:0:0:
141,165,73447,2,0,L|202:168,1,45,8|8,0:0|0:0,0:0:0:0:
221,202,73760,2,0,L|342:196,2,90,8|8|8,0:0|0:0|0:0,0:0:0:0:
149,270,74697,1,2,0:0:0:0:
256,192,75010,12,2,76885,0:0:0:0:
