osu file format v14

[General]
AudioFilename: audio.mp3
AudioLeadIn: 0
PreviewTime: 14697
Countdown: 0
SampleSet: Soft
StackLeniency: 0.7
Mode: 0
LetterboxInBreaks: 0
WidescreenStoryboard: 0

[Editor]
Bookmarks: 5010,15010,25010,35010,45010,55010,65010,75010
DistanceSpacing: 1.3
BeatDivisor: 4
GridSize: 32
TimelineZoom: 1.3

[Metadata]
Title:Yi Bai Kuai Dou Bu Gei Wo
TitleUnicode:一百块都不给我
Artist:Lan Zi
ArtistUnicode:兰梓
Creator:Pata-Mon
Version:Hard
Source:
Tags:liangv587 Kencho Regraz DreaM117er m1223961117 小红帽 Little Red Riding Hood xiao hong mao Bilibili Douga 鬼畜 remix 百元哥 T2o 天德池里丢东西
BeatmapID:925351
BeatmapSetID:425219

[Difficulty]
HPDrainRate:5
CircleSize:4
OverallDifficulty:6
ApproachRate:7.5
SliderMultiplier:2.4
SliderTickRate:2

[Events]
//Background and Video events
Video,70,"video.flv"
0,0,"BG.jpg",0,0
//Break Periods
//Storyboard Layer 0 (Background)
//Storyboard Layer 1 (Fail)
//Storyboard Layer 2 (Pass)
//Storyboard Layer 3 (Foreground)
//Storyboard Sound Samples

[TimingPoints]
10,625,4,2,1,30,1,0
5010,-100,4,2,1,40,0,0
15010,-100,4,2,1,50,0,0
35010,-100,4,2,1,50,0,1
55010,-100,4,2,1,50,0,0

[Colours]
Combo1 : 255,192,57
Combo2 : 242,24,57
Combo3 : 18,124,255

[HitObjects]
219,231,2510,5,2,0:0:0:0:
292,260,3135,1,2,0:0:0:0:
365,289,3760,1,2,0:0:0:0:
438,318,4385,1,2,0:0:0:0:
128,172,5010,6,0,P|187:176|247:172,1,120,6|0,0:0|0:0,0:0:0:0:
223,18,5635,2,0,P|163:13|103:17,1,120,2|0,0:0|0:0,0:0:0:0:
32,49,6103,2,0,P|46:107|50:167,1,120,2|2,0:0|0:0,0:0:0:0:
128,172,6572,2,0,P|131:231|146:290,1,120,2|2,0:0|0:0,0:0:0:0:
292,235,7197,1,2,0:0:0:0:
353,379,7510,6,0,P|412:383|472:378,1,120,2|0,0:0|0:0,0:0:0:0:
484,223,8135,2,0,P|506:168|483:114,1,120,2|0,0:0|0:0,0:0:0:0:
427,169,8603,2,0,P|368:175|308:169,1,120,2|2,0:0|0:0,0:0:0:0:
231,154,9072,1,2,0:0:0:0:
78,123,9385,1,2,1:2:0:0:
181,6,9697,1,2,0:0:0:0:
231,152,10010,6,0,P|282:123|319:76,1,120,6|0,0:0|0:0,0:0:0:0:
464,17,10635,2,0,P|476:75|464:134,1,120,2|0,0:0|0:0,0:0:0:0:
402,181,11103,2,0,P|389:239|401:297,1,120,2|2,0:0|0:0,0:0:0:0:
477,278,11572,1,2,0:0:0:0:
326,317,11885,1,2,0:0:0:0:
402,181,12197,2,0,P|374:169|345:162,1,60,2|0,0:0|0:0,0:0:0:0:
268,180,12510,6,0,P|213:158|166:121,1,120,2|0,0:0|0:0,0:0:0:0:
10,125,13135,2,0,P|56:87|112:65,1,120,2|0,0:0|0:0,0:0:0:0:
187,46,13603,1,2,0:0:0:0:
166,121,13760,2,0,L|223:141,1,60,2|2,3:0|3:0,0:0:0:0:
299,122,14072,2,0,L|355:141,1,60,2|2,3:0|3:0,0:0:0:0:
432,122,14385,2,0,P|480:155|509:208,1,120,2|2,1:2|0:0,0:0:0:0:
477,279,14853,1,0,0:0:0:0:
444,349,15010,6,0,P|396:316|367:264,1,120,6|2,0:0|0:0,0:0:0:0:
352,187,15478,1,0,0:0:0:0:
337,110,15635,2,0,P|284:138|250:187,1,120,2|2,0:0|0:0,0:0:0:0:
175,167,16103,2,0,P|173:197|183:225,1,60,2|0,0:0|0:0,0:0:0:0:
251,265,16416,1,2,0:0:0:0:
319,304,16572,2,0,P|328:333|327:363,2,60,2|0|2,0:0|0:0|0:0,0:0:0:0:
183,225,17197,2,0,P|173:197|175:167,1,60,2|0,0:0|0:0,0:0:0:0:
250,186,17510,6,0,P|310:185|366:166,1,120,2|2,0:0|0:0,0:0:0:0:
465,46,18135,1,2,0:0:0:0:
438,199,18447,1,2,0:0:0:0:
366,166,18603,2,0,P|345:145|328:121,1,60,2|0,0:0|0:0,0:0:0:0:
281,58,18916,1,2,0:0:0:0:
250,130,19072,2,0,P|247:159|250:189,1,60,2|0,0:0|0:0,0:0:0:0:
281,262,19385,1,2,0:0:0:0:
127,232,19697,2,0,P|125:261|128:291,1,60,2|0,0:0|0:0,0:0:0:0:
54,321,20010,6,0,P|46:262|55:202,1,120,6|2,0:0|0:0,0:0:0:0:
83,129,20478,1,0,0:0:0:0:
156,159,20635,2,0,P|215:153|270:128,1,120,2|2,0:0|0:0,0:0:0:0:
327,76,21103,2,0,P|386:81|441:106,1,120,2|2,0:0|0:0,0:0:0:0:
497,160,21572,2,0,P|486:219|488:279,1,120,2|2,0:0|0:0,0:0:0:0:
349,352,22197,2,0,L|291:333,1,60,2|0,0:0|0:0,0:0:0:0:
235,280,22510,6,0,L|177:298,1,60,8|8,0:0|0:0,0:0:0:0:
130,235,22822,2,0,L|72:253,1,60,8|8,0:0|0:0,0:0:0:0:
25,190,23135,1,8,0:0:0:0:
25,190,23447,2,0,L|83:172,1,60,8|8,0:0|0:0,0:0:0:0:
139,118,23760,2,0,L|197:136,1,60,8|8,0:0|0:0,0:0:0:0:
211,172,23994,1,8,0:0:0:0:
211,172,24072,2,0,L|269:190,1,60,8|8,0:0|0:0,0:0:0:0:
298,262,24385,1,8,0:0:0:0:
423,170,24697,2,0,P|439:196|449:224,1,60,2|0,0:0|0:0,0:0:0:0:
447,303,25010,6,0,P|392:325|332:331,2,120,6|2|2,0:0|0:0|0:0,0:0:0:0:
509,160,25947,1,2,0:0:0:0:
455,103,26103,2,0,L|396:89,1,60,2|0,0:0|0:0,0:0:0:0:
319,103,26416,1,2,0:0:0:0:
255,147,26572,2,0,L|196:133,1,60,2|0,0:0|0:0,0:0:0:0:
132,177,26885,2,0,P|76:156|32:115,1,120,2|2,0:0|0:0,0:0:0:0:
43,38,27353,1,0,0:0:0:0:
121,43,27510,6,0,P|180:48|240:43,1,120,2|2,0:0|0:0,0:0:0:0:
243,199,28135,2,0,P|302:193|362:198,1,120,2|2,0:0|0:0,0:0:0:0:
435,226,28603,1,2,0:0:0:0:
422,149,28760,2,0,P|410:121|393:96,1,60,0|2,0:0|0:0,0:0:0:0:
337,42,29072,2,0,P|313:23|286:10,1,60,2|0,0:0|0:0,0:0:0:0:
214,41,29385,2,0,L|214:161,1,120,2|2,0:0|0:0,0:0:0:0:
81,243,30010,6,0,L|81:363,2,120,6|2|2,0:0|0:0|0:0,0:0:0:0:
214,161,30947,1,2,0:0:0:0:
291,151,31103,2,0,P|314:206|322:265,1,120,2|2,0:0|0:0,0:0:0:0:
244,262,31572,2,0,P|220:317|212:376,1,120,2|2,0:0|0:0,0:0:0:0:
322,265,32197,2,0,L|353:213,1,60,2|0,0:0|0:0,0:0:0:0:
427,188,32510,6,0,L|458:136,1,60,8|8,0:0|0:0,0:0:0:0:
389,100,32822,2,0,L|420:48,1,60,8|8,0:0|0:0,0:0:0:0:
351,12,33135,1,8,0:0:0:0:
195,12,33447,2,0,L|163:63,1,60,8|8,0:0|0:0,0:0:0:0:
85,67,33760,2,0,L|53:118,1,60,8|8,0:0|0:0,0:0:0:0:
65,155,33994,1,8,0:0:0:0:
65,155,34072,2,0,L|33:206,1,60,8|8,0:0|0:0,0:0:0:0:
65,277,34385,2,0,P|109:270|149:251,1,90,8|2,0:0|0:0,0:0:0:0:
183,231,34697,2,0,L|183:171,1,60,2|2,0:0|0:0,0:0:0:0:
237,114,35010,6,0,P|212:98|183:92,2,60,6|0|2,0:0|0:0|0:0,0:0:0:0:
288,173,35478,2,0,P|313:189|342:195,2,60,0|2|0,0:0|0:0|0:0,0:0:0:0:
342,116,35947,1,2,0:0:0:0:
410,154,36103,1,0,0:0:0:0:
410,232,36260,2,0,P|406:261|394:288,1,60,2|2,0:0|0:0,0:0:0:0:
360,307,36494,1,2,0:0:0:0:
360,307,36572,2,0,P|347:334|344:363,1,60,2|2,0:0|0:0,0:0:0:0:
266,346,36885,2,0,P|207:340|147:346,1,120,2|2,0:0|0:0,0:0:0:0:
87,201,37510,6,0,L|96:141,2,60,2|2|2,0:1|0:1|0:1,0:0:0:0:
144,254,37978,1,2,0:1:0:0:
202,201,38135,2,0,L|211:141,1,60,2|0,0:1|0:1,0:0:0:0:
289,142,38447,2,0,L|279:201,1,60,2|0,0:1|0:1,0:0:0:0:
338,254,38760,1,2,0:1:0:0:
396,307,38916,2,0,L|391:336,2,30,2|2|2,0:1|0:1|0:1,0:0:0:0:
453,254,39228,1,2,0:1:0:0:
472,178,39385,2,0,P|476:148|472:118,1,60,2|0,0:1|0:0,0:0:0:0:
398,94,39697,2,0,P|394:64|398:34,1,60,0|2,0:0|0:0,0:0:0:0:
320,25,40010,6,0,P|265:47|228:93,1,120,6|2,0:0|0:0,0:0:0:0:
162,236,40635,2,0,P|218:213|254:167,1,120,2|2,0:0|0:0,0:0:0:0:
228,93,41103,2,0,P|287:96|327:138,1,120,2|2,0:0|0:0,0:0:0:0:
374,201,41572,2,0,P|371:230|358:257,1,60,2|0,0:0|0:0,0:0:0:0:
384,331,41885,2,0,P|325:328|285:286,1,120,2|2,0:0|0:0,0:0:0:0:
295,210,42353,1,0,0:0:0:0:
329,139,42510,6,0,P|346:114|371:98,1,60,2|2,0:1|0:1,0:0:0:0:
442,129,42822,2,0,P|468:113|485:89,1,60,2|2,0:1|0:1,0:0:0:0:
413,57,43135,2,0,P|388:73|371:98,1,60,2|0,0:1|0:1,0:0:0:0:
379,175,43447,2,0,P|400:196|428:207,1,60,2|0,0:1|0:1,0:0:0:0:
505,213,43760,1,2,0:1:0:0:
470,282,43916,1,2,0:1:0:0:
470,282,43994,1,2,0:1:0:0:
470,282,44072,2,0,P|447:302|418:311,1,60,2|2,0:1|0:1,0:0:0:0:
360,260,44385,1,2,0:1:0:0:
345,337,44541,2,0,P|340:351|333:364,2,30,2|2|2,0:1|0:1|0:1,0:0:0:0:
268,322,44853,1,2,0:1:0:0:
282,244,45010,6,0,P|267:187|224:147,1,120,6|2,0:0|0:0,0:0:0:0:
88,68,45635,2,0,P|103:125|146:165,1,120,2|2,0:0|0:0,0:0:0:0:
223,147,46103,2,0,P|282:139|341:146,1,120,2|2,0:0|0:0,0:0:0:0:
413,178,46572,2,0,L|413:238,1,60,2|2,0:0|0:0,0:0:0:0:
371,304,46885,1,2,0:0:0:0:
493,207,47197,1,2,0:0:0:0:
370,303,47510,6,0,P|354:279|343:251,1,60,2|2,0:1|0:1,0:0:0:0:
341,173,47822,1,2,0:1:0:0:
324,96,47978,1,2,0:1:0:0:
266,148,48135,2,0,P|262:178|270:207,2,60,2|0|2,0:1|0:1|0:1,0:0:0:0:
324,96,48603,1,0,0:1:0:0:
248,73,48760,2,0,P|221:85|200:106,1,60,2|2,0:1|0:1,0:0:0:0:
188,144,48994,1,2,0:1:0:0:
188,144,49072,2,0,P|167:165|140:177,2,60,2|2|2,0:1|0:1|0:1,0:0:0:0:
107,11,49697,2,0,P|80:23|59:44,1,60,2|2,0:0|0:0,0:0:0:0:
62,122,50010,6,0,P|55:181|31:236,2,120,6|2|2,0:0|0:0|0:0,0:0:0:0:
207,65,50947,1,2,0:0:0:0:
280,89,51103,2,0,P|303:143|310:203,1,120,2|2,0:0|0:0,0:0:0:0:
300,281,51572,1,2,0:0:0:0:
152,332,51885,2,0,P|143:273|158:215,1,120,2|2,0:0|0:0,0:0:0:0:
233,194,52353,1,0,0:0:0:0:
310,203,52510,6,0,L|368:186,1,60,2|2,0:1|0:1,0:0:0:0:
446,195,52823,2,0,L|504:178,1,60,2|2,0:1|0:1,0:0:0:0:
473,106,53135,2,0,L|414:122,1,60,2|0,0:1|0:1,0:0:0:0:
337,114,53448,2,0,L|279:130,1,60,2|0,0:1|0:1,0:0:0:0:
203,122,53760,1,2,0:1:0:0:
126,113,53916,1,2,0:1:0:0:
126,113,53994,1,2,0:1:0:0:
126,113,54072,2,0,L|68:129,1,60,2|2,0:1|0:1,0:0:0:0:
14,186,54385,1,2,0:1:0:0:
90,204,54541,2,0,L|119:196,2,30,2|2|2,0:1|0:1|0:1,0:0:0:0:
37,261,54853,1,2,0:1:0:0:
60,336,55010,6,0,P|119:342|179:336,1,120,6|2,0:0|0:0,0:0:0:0:
223,186,55635,2,0,P|282:179|342:185,1,120,2|2,0:0|0:0,0:0:0:0:
366,112,56103,2,0,P|425:118|485:112,1,120,2|2,0:0|0:0,0:0:0:0:
512,186,56572,2,0,P|510:215|501:244,1,60,2|0,0:0|0:0,0:0:0:0:
467,314,56885,1,2,0:0:0:0:
359,201,57197,2,0,P|350:229|348:259,1,60,2|0,0:0|0:0,0:0:0:0:
347,337,57510,6,0,P|287:342|227:336,2,120,2|2|2,0:0|0:0|0:0,0:0:0:0:
347,180,58447,1,2,0:0:0:0:
271,159,58603,2,0,P|242:166|215:179,1,60,2|0,0:0|0:0,0:0:0:0:
206,257,58916,1,2,0:0:0:0:
128,252,59072,2,0,P|107:275|92:300,1,60,2|0,0:0|0:0,0:0:0:0:
52,367,59385,2,0,P|12:323|1:265,1,120,2|2,0:0|0:0,0:0:0:0:
23,110,60010,6,0,P|82:115|142:110,1,120,6|2,0:0|0:0,0:0:0:0:
279,35,60635,2,0,P|219:29|159:34,1,120,2|2,0:0|0:0,0:0:0:0:
142,110,61103,2,0,P|146:174|165:236,1,120,2|2,0:0|0:0,0:0:0:0:
233,259,61572,2,0,L|314:249,1,60,2|0,0:0|0:0,0:0:0:0:
356,205,61885,1,2,0:0:0:0:
489,123,62197,2,0,P|503:97|512:68,1,60,2|0,0:0|0:0,0:0:0:0:
433,68,62510,6,0,P|418:93|409:122,1,60,8|8,0:0|0:0,0:0:0:0:
449,190,62822,2,0,P|440:218|425:244,1,60,8|8,0:0|0:0,0:0:0:0:
349,263,63135,1,8,0:0:0:0:
349,263,63447,2,0,L|302:300,1,60,8|8,0:0|0:0,0:0:0:0:
234,263,63760,2,0,L|187:300,1,60,8|8,0:0|0:0,0:0:0:0:
148,294,63994,1,8,0:0:0:0:
148,294,64072,2,0,L|101:331,1,60,8|8,0:0|0:0,0:0:0:0:
32,370,64385,2,0,P|12:313|9:254,1,120,8|2,0:0|0:0,0:0:0:0:
57,105,65010,6,0,P|76:161|80:221,1,120,6|2,0:0|0:0,0:0:0:0:
185,105,65635,2,0,P|165:161|161:221,1,120,2|2,0:0|0:0,0:0:0:0:
221,271,66103,2,0,L|204:328,2,60,2|0|2,0:0|0:0|0:0,0:0:0:0:
300,271,66572,2,0,L|316:328,1,60,2|0,0:0|0:0,0:0:0:0:
388,360,66885,2,0,P|407:303|411:243,1,120,2|2,0:0|0:0,0:0:0:0:
343,206,67353,1,0,0:0:0:0:
411,166,67510,6,0,P|407:106|387:49,1,120,2|2,0:0|0:0,0:0:0:0:
231,21,68135,2,0,L|171:10,2,60,2|0|2,0:0|0:0|0:0,0:0:0:0:
309,35,68603,2,0,P|306:64|297:93,1,60,2|0,0:0|0:0,0:0:0:0:
265,164,68916,1,2,0:0:0:0:
194,132,69072,2,0,P|174:188|169:248,2,120,2|2|2,0:0|0:0|0:0,0:0:0:0:
336,196,70010,6,0,P|355:139|360:79,2,120,6|2|2,0:0|0:0|0:0,0:0:0:0:
179,196,70947,1,2,0:0:0:0:
138,262,71103,2,0,P|143:321|162:378,1,120,2|2,0:0|0:0,0:0:0:0:
237,361,71572,2,0,P|278:357|312:371,2,60,2|0|2,0:0|0:0|0:0,0:0:0:0:
263,206,72197,2,0,P|268:176|280:149,1,60,2|0,0:0|0:0,0:0:0:0:
306,75,72510,6,0,L|363:91,1,60,8|8,0:0|0:0,0:0:0:0:
409,155,72822,2,0,L|466:171,1,60,8|8,0:0|0:0,0:0:0:0:
512,235,73135,1,8,0:0:0:0:
512,235,73447,2,0,L|454:251,1,60,8|8,0:0|0:0,0:0:0:0:
409,315,73760,1,8,0:0:0:0:
334,336,73916,1,8,0:0:0:0:
334,336,73994,1,8,0:0:0:0:
334,336,74072,2,0,L|276:352,1,60,8|8,0:0|0:0,0:0:0:0:
206,315,74385,2,0,L|90:347,1,120,8|2,0:0|0:0,0:0:0:0:
256,192,75010,12,2,76885,0:0:0:0:
