osu file format v14

[General]
AudioFilename: audio.mp3
AudioLeadIn: 0
PreviewTime: -1
Countdown: 1
SampleSet: Soft
StackLeniency: 0.7
Mode: 3
LetterboxInBreaks: 0
SpecialStyle: 0
WidescreenStoryboard: 1

[Editor]
DistanceSpacing: 1
BeatDivisor: 4
GridSize: 4
TimelineZoom: 1

[Metadata]
Title:~~DISC 1~~
TitleUnicode:~​~​DISC 1​~​~
Artist:Lambda Bledsoe, ndividedbyzero
ArtistUnicode:Lambda Bledsoe, ndividedbyzero
Creator:Weber
Version:EZ
Source:Homestuck
Tags:Disc Disk 1 Land of Fans and Music LOFAM 4
BeatmapID:1528375
BeatmapSetID:723920

[Difficulty]
HPDrainRate:6
CircleSize:4
OverallDifficulty:6
ApproachRate:5
SliderMultiplier:1.4
SliderTickRate:1

[Events]
//Background and Video events
0,0,"41bb1272234cff70e713f3095f381a16.png",0,0
//Break Periods
//Storyboard Layer 0 (Background)
//Storyboard Layer 1 (Fail)
//Storyboard Layer 2 (Pass)
//Storyboard Layer 3 (Foreground)
//Storyboard Layer 4 (Overlay)
//Storyboard Sound Samples

[TimingPoints]
0,900.922388059703,4,2,0,100,1,0

[HitObjects]
64,192,0,5,0,0:0:0:0:
448,192,0,1,0,0:0:0:0:
192,192,450,1,0,0:0:0:0:
320,192,900,1,0,0:0:0:0:
192,192,1351,1,0,0:0:0:0:
320,192,1576,1,0,0:0:0:0:
448,192,1801,1,0,0:0:0:0:
192,192,2252,1,0,0:0:0:0:
64,192,2702,1,0,0:0:0:0:
64,192,3378,1,0,0:0:0:0:
192,192,3603,1,0,0:0:0:0:
320,192,4054,1,0,0:0:0:0:
448,192,4504,1,0,0:0:0:0:
64,192,4729,1,0,0:0:0:0:
192,192,4955,1,0,0:0:0:0:
320,192,5180,1,0,0:0:0:0:
64,192,5405,1,0,0:0:0:0:
64,192,6081,1,0,0:0:0:0:
64,192,7207,1,0,0:0:0:0:
320,192,7207,1,0,0:0:0:0:
192,192,7657,1,0,0:0:0:0:
448,192,8108,1,0,0:0:0:0:
64,192,8558,1,0,0:0:0:0:
320,192,8783,1,0,0:0:0:0:
448,192,9009,1,0,0:0:0:0:
192,192,9459,1,0,0:0:0:0:
64,192,9910,1,0,0:0:0:0:
64,192,10585,1,0,0:0:0:0:
192,192,10811,1,0,0:0:0:0:
320,192,10811,1,0,0:0:0:0:
320,192,11261,1,0,0:0:0:0:
448,192,11711,1,0,0:0:0:0:
64,192,11937,1,0,0:0:0:0:
192,192,12162,1,0,0:0:0:0:
448,192,12387,1,0,0:0:0:0:
64,192,12612,1,0,0:0:0:0:
64,192,13288,1,0,0:0:0:0:
64,192,14414,128,0,17117:0:0:0:0:
320,192,14414,128,0,17117:0:0:0:0:
192,192,17117,1,0,0:0:0:0:
448,192,17342,1,0,0:0:0:0:
320,192,17567,1,0,0:0:0:0:
192,192,17793,1,0,0:0:0:0:
64,192,18018,128,0,21622:0:0:0:0:
192,192,21622,128,0,24324:0:0:0:0:
448,192,21622,128,0,24324:0:0:0:0:
64,192,24324,1,0,0:0:0:0:
320,192,24550,1,0,0:0:0:0:
448,192,24775,1,0,0:0:0:0:
192,192,25000,1,0,0:0:0:0:
64,192,25225,128,0,30631:0:0:0:0:
448,192,26577,128,0,27027:0:0:0:0:
320,192,27027,128,0,30631:0:0:0:0:
