osu file format v14

[General]
AudioFilename: audio.mp3
AudioLeadIn: 0
PreviewTime: 117420
Countdown: 0
SampleSet: Normal
StackLeniency: 0.7
Mode: 1
LetterboxInBreaks: 0
WidescreenStoryboard: 0

[Editor]
DistanceSpacing: 0.5
BeatDivisor: 6
GridSize: 32
TimelineZoom: 3.739999

[Metadata]
Title:Laid to Rest
TitleUnicode:Laid to Rest
Artist:Lamb of God
ArtistUnicode:Lamb of God
Creator:frukoyurdakul
Version:Inner Oni
Source:
Tags:ashes of the wake groove metal zigizigiefe taiko
BeatmapID:1434384
BeatmapSetID:678365

[Difficulty]
HPDrainRate:6
CircleSize:2
OverallDifficulty:6
ApproachRate:10
SliderMultiplier:2.1
SliderTickRate:1

[Events]
//Background and Video events
0,0,"BG.jpg",0,0
//Break Periods
2,1288,4038
//Storyboard Layer 0 (Background)
//Storyboard Layer 1 (Fail)
//Storyboard Layer 2 (Pass)
//Storyboard Layer 3 (Foreground)
//Storyboard Sound Samples

[TimingPoints]
236,425.531914893617,4,1,0,80,1,8
236,-101.440454453236,4,1,0,80,0,0
1088,425.531914893617,4,1,0,80,1,0
1088,-101.440454453236,4,1,0,80,0,0
4488,425.531914893617,4,1,0,80,1,0
4488,-101.440454453236,4,1,0,80,0,0
6174,419.58041958042,4,1,0,90,1,0
6174,-102.880658436214,4,1,0,90,0,0
7852,431.654676258993,4,1,0,90,1,0
21664,431.654676258993,4,1,0,80,1,8
21670,431.654676258993,4,1,0,80,1,0
35481,431.654676258993,4,1,0,90,1,8
35484,431.654676258993,4,1,0,90,1,0
47570,287.769784172662,6,1,0,90,1,0
47570,-150.0000015,6,1,0,90,0,0
47857,431.654676258993,4,1,0,90,1,8
48000,431.654676258993,4,1,0,90,1,8
48431,431.654676258993,4,1,0,90,1,8
49294,431.654676258993,4,1,0,90,1,0
69725,-95.2380952380952,4,1,0,90,0,0
69869,-90.9090909090909,4,1,0,95,0,0
70013,-86.9565217391304,4,1,0,100,0,1
83538,-90.9090909090909,4,1,0,100,0,1
83682,-95.2380952380952,4,1,0,95,0,1
83826,-100,4,1,0,90,0,0
95912,287.769784172662,6,1,0,90,1,0
95912,-150.000000015,6,1,0,90,0,0
96199,431.654676258993,4,1,0,90,1,8
96342,431.654676258993,4,1,0,90,1,8
96773,431.654676258993,4,1,0,90,1,8
97636,431.654676258993,4,1,0,90,1,0
118067,-95.2380952380952,4,1,0,90,0,0
118211,-90.9090909090909,4,1,0,95,0,0
118355,-86.9565217391304,4,1,0,100,0,1
131880,-91.743119266055,4,1,0,100,0,1
132024,-97.0873786407767,4,1,0,90,0,1
132168,444.444444444444,4,1,0,80,1,8
132172,444.444444444444,4,1,0,80,1,0
133068,444.444444444444,4,1,0,80,1,8
133841,444.444444444444,4,1,0,80,1,0
134879,444.444444444444,4,1,0,80,1,8
135735,444.444444444444,4,1,0,80,1,0
137400,444.444444444444,4,1,0,80,1,0
138440,444.444444444444,4,1,0,80,1,8
139301,444.444444444444,4,1,0,80,1,8
139792,444.444444444444,4,1,0,90,1,0
146898,444.444444444444,4,1,0,90,1,0
168231,431.654676258993,4,1,0,100,1,1
168231,-86.9565217391304,4,1,0,100,0,1
182043,454.545454545455,4,1,0,90,1,0
182043,-82.6446280991736,4,1,0,90,0,0
182951,-90.9090909090909,4,1,0,80,0,0
183859,300.751879699248,3,1,0,100,1,1
183859,-150.0000015,3,1,0,100,0,1
197693,-147.058823529412,3,1,0,100,0,1
197768,-144.927536231884,3,1,0,100,0,1
197843,-142.857142857143,3,1,0,100,0,1
197919,-140.845070422535,3,1,0,100,0,1
197994,-138.888888888889,3,1,0,100,0,1
198069,-136.986301369863,3,1,0,100,0,1
198144,-135.135135135135,3,1,0,100,0,1
198295,-131.578947368421,3,1,0,100,0,1
205287,-129.87012987013,3,1,0,100,0,1
205362,-128.205128205128,3,1,0,100,0,1
205513,-125,3,1,0,100,0,1
211979,-128.205128205128,3,1,0,100,0,1
212129,-131.578947368421,3,1,0,100,0,1
212280,-135.135135135135,3,1,0,100,0,1
212430,-138.888888888889,3,1,0,100,0,1
212580,-142.857142857143,3,1,0,100,0,1
212731,436.363636363636,4,1,0,80,1,8
212740,436.363636363636,4,1,0,80,1,0
223067,-102.040816326531,4,1,0,80,0,0
223212,454.545454545455,4,1,0,80,1,0
224121,444.444444444444,4,1,0,80,1,8
224908,454.545454545455,4,1,0,80,1,0
225963,454.545454545455,4,1,0,80,1,8

[HitObjects]
160,96,377,5,0,0:0:0:0:
160,96,448,1,0,0:0:0:0:
160,96,519,1,0,0:0:0:0:
160,96,590,1,0,0:0:0:0:
352,288,661,1,12,0:0:0:0:
160,288,1088,1,4,0:0:0:0:
160,288,4488,5,4,0:0:0:0:
256,192,4629,12,0,6048,0:0:0:0:
160,288,6174,5,4,0:0:0:0:
352,96,6313,1,8,0:0:0:0:
352,96,6383,1,8,0:0:0:0:
352,96,6453,1,8,0:0:0:0:
160,96,6593,1,0,0:0:0:0:
352,96,6733,1,8,0:0:0:0:
160,96,6873,1,0,0:0:0:0:
352,96,7013,1,8,0:0:0:0:
160,96,7153,1,0,0:0:0:0:
160,96,7222,1,0,0:0:0:0:
160,96,7292,1,0,0:0:0:0:
352,96,7432,1,8,0:0:0:0:
160,96,7572,1,0,0:0:0:0:
352,96,7712,1,8,0:0:0:0:
352,288,7852,1,12,0:0:0:0:
160,96,7995,1,0,0:0:0:0:
160,96,8067,1,0,0:0:0:0:
160,96,8139,1,0,0:0:0:0:
352,96,8283,1,8,0:0:0:0:
160,288,8427,1,4,0:0:0:0:
352,288,8715,1,12,0:0:0:0:
160,96,8859,1,0,0:0:0:0:
160,96,8931,1,0,0:0:0:0:
160,96,9003,1,0,0:0:0:0:
352,96,9146,1,8,0:0:0:0:
160,288,9290,1,4,0:0:0:0:
352,288,9578,1,12,0:0:0:0:
160,96,9722,1,0,0:0:0:0:
160,96,9794,1,0,0:0:0:0:
160,96,9866,1,0,0:0:0:0:
160,96,9938,1,0,0:0:0:0:
352,96,10010,1,8,0:0:0:0:
160,96,10154,1,0,0:0:0:0:
160,96,10298,1,0,0:0:0:0:
352,288,10441,1,12,0:0:0:0:
160,96,10585,1,0,0:0:0:0:
160,96,10729,1,0,0:0:0:0:
352,96,10873,1,8,0:0:0:0:
352,96,11017,1,8,0:0:0:0:
160,96,11161,1,0,0:0:0:0:
352,288,11305,1,12,0:0:0:0:
160,96,11449,1,0,0:0:0:0:
160,96,11521,1,0,0:0:0:0:
160,96,11593,1,0,0:0:0:0:
352,96,11736,1,8,0:0:0:0:
160,288,11880,1,4,0:0:0:0:
352,288,12168,1,12,0:0:0:0:
160,96,12312,1,0,0:0:0:0:
160,96,12384,1,0,0:0:0:0:
160,96,12456,1,0,0:0:0:0:
352,96,12600,1,8,0:0:0:0:
160,288,12744,1,4,0:0:0:0:
352,288,13031,1,12,0:0:0:0:
160,96,13175,1,0,0:0:0:0:
352,96,13247,1,8,0:0:0:0:
160,96,13319,1,0,0:0:0:0:
160,96,13391,1,0,0:0:0:0:
352,96,13463,1,8,0:0:0:0:
160,96,13607,1,0,0:0:0:0:
160,96,13751,1,0,0:0:0:0:
352,288,13895,1,12,0:0:0:0:
352,96,14039,1,8,0:0:0:0:
160,96,14182,1,0,0:0:0:0:
352,96,14326,1,8,0:0:0:0:
160,96,14470,1,0,0:0:0:0:
160,96,14614,1,0,0:0:0:0:
352,288,14758,1,12,0:0:0:0:
160,96,14902,1,0,0:0:0:0:
160,96,14974,1,0,0:0:0:0:
160,96,15046,1,0,0:0:0:0:
352,96,15190,1,8,0:0:0:0:
160,288,15334,1,4,0:0:0:0:
352,288,15621,1,12,0:0:0:0:
160,96,15765,1,0,0:0:0:0:
160,96,15837,1,0,0:0:0:0:
160,96,15909,1,0,0:0:0:0:
352,96,16053,1,8,0:0:0:0:
160,288,16197,1,4,0:0:0:0:
352,288,16485,1,12,0:0:0:0:
160,96,16628,1,0,0:0:0:0:
160,96,16700,1,0,0:0:0:0:
352,96,16772,1,8,0:0:0:0:
160,96,16844,1,0,0:0:0:0:
352,96,16916,1,8,0:0:0:0:
160,96,17060,1,0,0:0:0:0:
160,96,17204,1,0,0:0:0:0:
352,288,17348,1,12,0:0:0:0:
160,96,17492,1,0,0:0:0:0:
160,96,17636,1,0,0:0:0:0:
352,96,17780,1,8,0:0:0:0:
160,96,17923,1,0,0:0:0:0:
160,96,18067,1,0,0:0:0:0:
352,288,18211,1,12,0:0:0:0:
160,96,18355,1,0,0:0:0:0:
160,96,18427,1,0,0:0:0:0:
160,96,18499,1,0,0:0:0:0:
352,96,18643,1,8,0:0:0:0:
160,288,18787,1,4,0:0:0:0:
352,288,19075,1,12,0:0:0:0:
160,96,19218,1,0,0:0:0:0:
160,96,19290,1,0,0:0:0:0:
160,96,19362,1,0,0:0:0:0:
352,96,19506,1,8,0:0:0:0:
160,288,19650,1,4,0:0:0:0:
352,288,19938,1,12,0:0:0:0:
352,96,20082,1,8,0:0:0:0:
352,96,20154,1,8,0:0:0:0:
160,96,20226,1,0,0:0:0:0:
160,96,20298,1,0,0:0:0:0:
352,96,20369,1,8,0:0:0:0:
160,96,20513,1,0,0:0:0:0:
160,96,20657,1,0,0:0:0:0:
352,96,20801,1,8,0:0:0:0:
352,96,20945,1,8,0:0:0:0:
160,96,21089,1,0,0:0:0:0:
352,96,21233,1,8,0:0:0:0:
160,96,21377,1,0,0:0:0:0:
160,96,21521,1,0,0:0:0:0:
352,288,21670,1,12,0:0:0:0:
352,96,21813,1,8,0:0:0:0:
160,96,21957,1,0,0:0:0:0:
160,96,22029,1,0,0:0:0:0:
352,96,22101,1,8,0:0:0:0:
352,96,22245,1,8,0:0:0:0:
160,96,22389,1,0,0:0:0:0:
352,96,22533,1,8,0:0:0:0:
160,96,22677,1,0,0:0:0:0:
160,96,22749,1,0,0:0:0:0:
160,96,22821,1,0,0:0:0:0:
352,96,22964,1,8,0:0:0:0:
352,96,23108,1,8,0:0:0:0:
160,96,23252,1,0,0:0:0:0:
352,96,23396,1,8,0:0:0:0:
352,96,23540,1,8,0:0:0:0:
352,96,23612,1,8,0:0:0:0:
160,96,23684,1,0,0:0:0:0:
352,96,23828,1,8,0:0:0:0:
352,96,23972,1,8,0:0:0:0:
160,96,24116,1,0,0:0:0:0:
352,96,24259,1,8,0:0:0:0:
352,96,24403,1,8,0:0:0:0:
160,96,24475,1,0,0:0:0:0:
160,96,24547,1,0,0:0:0:0:
352,96,24691,1,8,0:0:0:0:
160,96,24763,1,0,0:0:0:0:
352,96,24835,1,8,0:0:0:0:
352,96,24907,1,8,0:0:0:0:
160,96,24979,1,0,0:0:0:0:
352,96,25123,1,8,0:0:0:0:
352,96,25267,1,8,0:0:0:0:
160,96,25411,1,0,0:0:0:0:
160,96,25482,1,0,0:0:0:0:
352,96,25554,1,8,0:0:0:0:
352,96,25698,1,8,0:0:0:0:
160,96,25842,1,0,0:0:0:0:
352,96,25986,1,8,0:0:0:0:
352,96,26130,1,8,0:0:0:0:
160,96,26202,1,0,0:0:0:0:
160,96,26274,1,0,0:0:0:0:
352,96,26418,1,8,0:0:0:0:
160,96,26562,1,0,0:0:0:0:
160,96,26705,1,0,0:0:0:0:
352,96,26849,1,8,0:0:0:0:
160,96,26993,1,0,0:0:0:0:
352,96,27137,1,8,0:0:0:0:
352,96,27281,1,8,0:0:0:0:
160,96,27353,1,0,0:0:0:0:
160,96,27425,1,0,0:0:0:0:
352,96,27569,1,8,0:0:0:0:
352,96,27713,1,8,0:0:0:0:
160,96,27785,1,0,0:0:0:0:
352,96,27857,1,8,0:0:0:0:
352,96,28000,1,8,0:0:0:0:
160,96,28072,1,0,0:0:0:0:
352,96,28144,1,8,0:0:0:0:
160,96,28216,1,0,0:0:0:0:
352,96,28288,1,8,0:0:0:0:
160,96,28432,1,0,0:0:0:0:
352,96,28576,1,8,0:0:0:0:
160,96,28720,1,0,0:0:0:0:
160,96,28864,1,0,0:0:0:0:
160,96,28936,1,0,0:0:0:0:
352,96,29008,1,8,0:0:0:0:
160,96,29152,1,0,0:0:0:0:
160,96,29295,1,0,0:0:0:0:
352,96,29439,1,8,0:0:0:0:
352,96,29511,1,8,0:0:0:0:
160,96,29583,1,0,0:0:0:0:
352,96,29727,1,8,0:0:0:0:
352,96,29871,1,8,0:0:0:0:
352,96,30015,1,8,0:0:0:0:
160,96,30159,1,0,0:0:0:0:
160,96,30231,1,0,0:0:0:0:
352,96,30303,1,8,0:0:0:0:
160,96,30446,1,0,0:0:0:0:
352,96,30590,1,8,0:0:0:0:
352,96,30734,1,8,0:0:0:0:
160,96,30878,1,0,0:0:0:0:
160,96,30950,1,0,0:0:0:0:
352,96,31022,1,8,0:0:0:0:
352,96,31166,1,8,0:0:0:0:
160,96,31310,1,0,0:0:0:0:
160,96,31382,1,0,0:0:0:0:
160,96,31454,1,0,0:0:0:0:
352,96,31598,1,8,0:0:0:0:
352,96,31670,1,8,0:0:0:0:
160,96,31741,1,0,0:0:0:0:
160,96,31813,1,0,0:0:0:0:
160,96,31885,1,0,0:0:0:0:
352,96,32029,1,8,0:0:0:0:
352,96,32173,1,8,0:0:0:0:
160,96,32317,1,0,0:0:0:0:
160,96,32389,1,0,0:0:0:0:
352,96,32461,1,8,0:0:0:0:
160,96,32605,1,0,0:0:0:0:
160,96,32677,1,0,0:0:0:0:
160,96,32749,1,0,0:0:0:0:
352,96,32893,1,8,0:0:0:0:
352,96,33036,1,8,0:0:0:0:
160,96,33180,1,0,0:0:0:0:
160,96,33252,1,0,0:0:0:0:
352,96,33324,1,8,0:0:0:0:
352,96,33468,1,8,0:0:0:0:
160,96,33540,1,0,0:0:0:0:
160,96,33612,1,0,0:0:0:0:
352,96,33756,1,8,0:0:0:0:
160,96,33900,1,0,0:0:0:0:
352,96,34044,1,8,0:0:0:0:
160,96,34116,1,0,0:0:0:0:
352,96,34187,1,8,0:0:0:0:
352,96,34259,1,8,0:0:0:0:
160,96,34331,1,0,0:0:0:0:
352,96,34475,1,8,0:0:0:0:
352,96,34619,1,8,0:0:0:0:
352,96,34691,1,8,0:0:0:0:
160,96,34763,1,0,0:0:0:0:
160,96,34835,1,0,0:0:0:0:
352,96,34907,1,8,0:0:0:0:
160,96,34979,1,0,0:0:0:0:
352,96,35051,1,8,0:0:0:0:
160,96,35195,1,0,0:0:0:0:
160,96,35339,1,0,0:0:0:0:
352,288,35484,1,12,0:0:0:0:
160,96,35627,1,0,0:0:0:0:
160,96,35699,1,0,0:0:0:0:
160,96,35771,1,0,0:0:0:0:
352,96,35915,1,8,0:0:0:0:
160,288,36059,1,4,0:0:0:0:
352,288,36347,1,12,0:0:0:0:
160,96,36491,1,0,0:0:0:0:
160,96,36563,1,0,0:0:0:0:
160,96,36635,1,0,0:0:0:0:
160,96,36707,1,0,0:0:0:0:
352,96,36778,1,8,0:0:0:0:
160,288,36922,1,4,0:0:0:0:
352,288,37210,1,12,0:0:0:0:
160,96,37354,1,0,0:0:0:0:
160,96,37426,1,0,0:0:0:0:
160,96,37498,1,0,0:0:0:0:
160,96,37570,1,0,0:0:0:0:
352,96,37642,1,8,0:0:0:0:
160,96,37786,1,0,0:0:0:0:
160,96,37858,1,0,0:0:0:0:
160,96,37930,1,0,0:0:0:0:
352,288,38073,1,12,0:0:0:0:
352,96,38217,1,8,0:0:0:0:
160,96,38361,1,0,0:0:0:0:
352,96,38505,1,8,0:0:0:0:
352,96,38649,1,8,0:0:0:0:
160,96,38793,1,0,0:0:0:0:
352,288,38937,1,12,0:0:0:0:
160,96,39081,1,0,0:0:0:0:
160,96,39153,1,0,0:0:0:0:
160,96,39225,1,0,0:0:0:0:
160,96,39296,1,0,0:0:0:0:
352,96,39368,1,8,0:0:0:0:
160,288,39512,1,4,0:0:0:0:
352,288,39800,1,12,0:0:0:0:
160,96,39944,1,0,0:0:0:0:
160,96,40016,1,0,0:0:0:0:
160,96,40088,1,0,0:0:0:0:
352,96,40232,1,8,0:0:0:0:
160,288,40376,1,4,0:0:0:0:
352,288,40663,1,12,0:0:0:0:
160,96,40807,1,0,0:0:0:0:
352,96,40879,1,8,0:0:0:0:
160,96,40951,1,0,0:0:0:0:
160,96,41023,1,0,0:0:0:0:
352,96,41095,1,8,0:0:0:0:
160,96,41239,1,0,0:0:0:0:
160,96,41311,1,0,0:0:0:0:
352,96,41383,1,8,0:0:0:0:
352,288,41527,1,12,0:0:0:0:
160,96,41671,1,0,0:0:0:0:
160,96,41814,1,0,0:0:0:0:
352,96,41958,1,8,0:0:0:0:
160,96,42102,1,0,0:0:0:0:
160,96,42246,1,0,0:0:0:0:
352,288,42390,1,12,0:0:0:0:
160,96,42534,1,0,0:0:0:0:
160,96,42606,1,0,0:0:0:0:
160,96,42678,1,0,0:0:0:0:
352,96,42822,1,8,0:0:0:0:
352,96,42966,1,8,0:0:0:0:
160,96,43037,1,0,0:0:0:0:
160,96,43109,1,0,0:0:0:0:
352,96,43253,1,8,0:0:0:0:
160,96,43397,1,0,0:0:0:0:
160,96,43469,1,0,0:0:0:0:
352,96,43541,1,8,0:0:0:0:
352,96,43685,1,8,0:0:0:0:
352,96,43829,1,8,0:0:0:0:
352,96,43901,1,8,0:0:0:0:
160,96,43973,1,0,0:0:0:0:
352,96,44117,1,8,0:0:0:0:
352,96,44189,1,8,0:0:0:0:
160,96,44260,1,0,0:0:0:0:
160,96,44332,1,0,0:0:0:0:
160,96,44404,1,0,0:0:0:0:
352,96,44548,1,8,0:0:0:0:
352,96,44692,1,8,0:0:0:0:
160,96,44836,1,0,0:0:0:0:
160,96,44908,1,0,0:0:0:0:
352,96,44980,1,8,0:0:0:0:
160,96,45124,1,0,0:0:0:0:
352,96,45268,1,8,0:0:0:0:
160,96,45340,1,0,0:0:0:0:
352,96,45412,1,8,0:0:0:0:
352,96,45555,1,8,0:0:0:0:
160,96,45699,1,0,0:0:0:0:
160,96,45771,1,0,0:0:0:0:
352,96,45843,1,8,0:0:0:0:
160,96,45987,1,0,0:0:0:0:
352,96,46131,1,8,0:0:0:0:
352,96,46275,1,8,0:0:0:0:
160,96,46347,1,0,0:0:0:0:
352,96,46419,1,8,0:0:0:0:
160,96,46563,1,0,0:0:0:0:
352,96,46707,1,8,0:0:0:0:
352,96,46778,1,8,0:0:0:0:
160,96,46850,1,0,0:0:0:0:
160,96,46922,1,0,0:0:0:0:
352,96,46994,1,8,0:0:0:0:
352,96,47138,1,8,0:0:0:0:
352,96,47282,1,8,0:0:0:0:
160,96,47426,1,0,0:0:0:0:
352,96,47570,1,8,0:0:0:0:
352,96,47665,1,8,0:0:0:0:
352,96,47761,1,8,0:0:0:0:
160,96,47857,1,0,0:0:0:0:
352,96,48000,1,8,0:0:0:0:
160,96,48143,1,0,0:0:0:0:
352,96,48287,1,8,0:0:0:0:
160,96,48431,1,0,0:0:0:0:
352,96,48574,1,8,0:0:0:0:
160,96,48718,1,0,0:0:0:0:
352,96,48862,1,8,0:0:0:0:
160,96,49006,1,0,0:0:0:0:
352,96,49150,1,8,0:0:0:0:
160,288,49294,1,4,0:0:0:0:
160,96,49437,1,0,0:0:0:0:
160,96,49581,1,0,0:0:0:0:
352,96,49725,1,8,0:0:0:0:
352,96,49869,1,8,0:0:0:0:
160,96,49941,1,0,0:0:0:0:
352,96,50013,1,8,0:0:0:0:
352,96,50157,1,8,0:0:0:0:
160,96,50301,1,0,0:0:0:0:
160,96,50373,1,0,0:0:0:0:
352,96,50445,1,8,0:0:0:0:
352,96,50588,1,8,0:0:0:0:
352,96,50732,1,8,0:0:0:0:
352,96,50804,1,8,0:0:0:0:
160,96,50876,1,0,0:0:0:0:
160,96,50948,1,0,0:0:0:0:
352,96,51020,1,8,0:0:0:0:
160,96,51164,1,0,0:0:0:0:
160,96,51236,1,0,0:0:0:0:
160,96,51308,1,0,0:0:0:0:
352,96,51452,1,8,0:0:0:0:
352,96,51596,1,8,0:0:0:0:
160,96,51740,1,0,0:0:0:0:
160,96,51811,1,0,0:0:0:0:
352,96,51883,1,8,0:0:0:0:
160,96,52027,1,0,0:0:0:0:
160,96,52099,1,0,0:0:0:0:
352,96,52171,1,8,0:0:0:0:
160,96,52243,1,0,0:0:0:0:
352,96,52315,1,8,0:0:0:0:
352,96,52459,1,8,0:0:0:0:
352,96,52531,1,8,0:0:0:0:
160,96,52603,1,0,0:0:0:0:
352,96,52747,1,8,0:0:0:0:
160,96,52891,1,0,0:0:0:0:
160,96,52963,1,0,0:0:0:0:
352,96,53035,1,8,0:0:0:0:
352,96,53178,1,8,0:0:0:0:
352,96,53250,1,8,0:0:0:0:
160,96,53322,1,0,0:0:0:0:
352,96,53394,1,8,0:0:0:0:
160,96,53466,1,0,0:0:0:0:
352,96,53610,1,8,0:0:0:0:
160,96,53754,1,0,0:0:0:0:
160,96,53826,1,0,0:0:0:0:
160,96,53898,1,0,0:0:0:0:
352,96,54042,1,8,0:0:0:0:
352,96,54186,1,8,0:0:0:0:
352,96,54258,1,8,0:0:0:0:
160,96,54329,1,0,0:0:0:0:
352,288,54473,1,12,0:0:0:0:
352,96,54617,1,8,0:0:0:0:
352,96,54689,1,8,0:0:0:0:
352,96,54761,1,8,0:0:0:0:
160,96,54905,1,0,0:0:0:0:
160,96,55049,1,0,0:0:0:0:
352,96,55193,1,8,0:0:0:0:
352,96,55337,1,8,0:0:0:0:
160,96,55481,1,0,0:0:0:0:
352,96,55624,1,8,0:0:0:0:
352,96,55768,1,8,0:0:0:0:
160,96,55912,1,0,0:0:0:0:
352,96,56056,1,8,0:0:0:0:
160,288,56200,1,4,0:0:0:0:
160,96,56344,1,0,0:0:0:0:
160,96,56416,1,0,0:0:0:0:
160,96,56488,1,0,0:0:0:0:
352,288,56632,1,12,0:0:0:0:
352,96,56776,1,8,0:0:0:0:
160,96,56919,1,0,0:0:0:0:
160,96,56991,1,0,0:0:0:0:
352,96,57063,1,8,0:0:0:0:
160,96,57207,1,0,0:0:0:0:
352,96,57351,1,8,0:0:0:0:
160,96,57423,1,0,0:0:0:0:
352,96,57495,1,8,0:0:0:0:
160,96,57567,1,0,0:0:0:0:
352,96,57639,1,8,0:0:0:0:
160,96,57783,1,0,0:0:0:0:
160,96,57855,1,0,0:0:0:0:
352,96,57927,1,8,0:0:0:0:
160,96,58070,1,0,0:0:0:0:
352,96,58214,1,8,0:0:0:0:
160,96,58286,1,0,0:0:0:0:
352,96,58358,1,8,0:0:0:0:
352,96,58430,1,8,0:0:0:0:
160,96,58502,1,0,0:0:0:0:
160,96,58646,1,0,0:0:0:0:
160,96,58718,1,0,0:0:0:0:
352,96,58790,1,8,0:0:0:0:
160,96,58934,1,0,0:0:0:0:
160,96,59006,1,0,0:0:0:0:
160,96,59078,1,0,0:0:0:0:
352,96,59222,1,8,0:0:0:0:
160,96,59365,1,0,0:0:0:0:
160,96,59509,1,0,0:0:0:0:
352,96,59653,1,8,0:0:0:0:
160,96,59797,1,0,0:0:0:0:
160,96,59869,1,0,0:0:0:0:
160,96,59941,1,0,0:0:0:0:
160,96,60013,1,0,0:0:0:0:
352,96,60085,1,8,0:0:0:0:
352,96,60229,1,8,0:0:0:0:
160,96,60301,1,0,0:0:0:0:
352,96,60373,1,8,0:0:0:0:
352,96,60517,1,8,0:0:0:0:
160,96,60660,1,0,0:0:0:0:
160,96,60732,1,0,0:0:0:0:
352,96,60804,1,8,0:0:0:0:
352,96,60948,1,8,0:0:0:0:
352,96,61092,1,8,0:0:0:0:
352,96,61164,1,8,0:0:0:0:
160,96,61236,1,0,0:0:0:0:
160,96,61308,1,0,0:0:0:0:
352,96,61380,1,8,0:0:0:0:
160,96,61524,1,0,0:0:0:0:
352,96,61668,1,8,0:0:0:0:
352,96,61811,1,8,0:0:0:0:
352,96,61955,1,8,0:0:0:0:
160,96,62099,1,0,0:0:0:0:
352,96,62243,1,8,0:0:0:0:
160,96,62387,1,0,0:0:0:0:
352,96,62531,1,8,0:0:0:0:
352,96,62675,1,8,0:0:0:0:
352,96,62819,1,8,0:0:0:0:
352,96,62963,1,8,0:0:0:0:
160,288,63106,1,4,0:0:0:0:
160,96,63250,1,0,0:0:0:0:
160,96,63322,1,0,0:0:0:0:
160,96,63394,1,0,0:0:0:0:
352,288,63538,1,12,0:0:0:0:
160,96,63682,1,0,0:0:0:0:
352,96,63754,1,8,0:0:0:0:
352,96,63826,1,8,0:0:0:0:
352,96,63898,1,8,0:0:0:0:
160,96,63970,1,0,0:0:0:0:
160,96,64114,1,0,0:0:0:0:
160,96,64186,1,0,0:0:0:0:
160,96,64258,1,0,0:0:0:0:
352,96,64401,1,8,0:0:0:0:
160,96,64545,1,0,0:0:0:0:
352,96,64689,1,8,0:0:0:0:
160,96,64833,1,0,0:0:0:0:
160,96,64977,1,0,0:0:0:0:
160,96,65049,1,0,0:0:0:0:
352,96,65121,1,8,0:0:0:0:
160,96,65193,1,0,0:0:0:0:
352,96,65265,1,8,0:0:0:0:
352,96,65409,1,8,0:0:0:0:
352,96,65481,1,8,0:0:0:0:
160,96,65552,1,0,0:0:0:0:
352,96,65696,1,8,0:0:0:0:
160,96,65840,1,0,0:0:0:0:
160,96,65912,1,0,0:0:0:0:
352,96,65984,1,8,0:0:0:0:
352,96,66128,1,8,0:0:0:0:
352,96,66272,1,8,0:0:0:0:
160,96,66344,1,0,0:0:0:0:
160,96,66416,1,0,0:0:0:0:
352,96,66560,1,8,0:0:0:0:
352,96,66632,1,8,0:0:0:0:
160,96,66704,1,0,0:0:0:0:
160,96,66776,1,0,0:0:0:0:
160,96,66847,1,0,0:0:0:0:
352,96,66991,1,8,0:0:0:0:
352,96,67135,1,8,0:0:0:0:
160,96,67207,1,0,0:0:0:0:
160,96,67279,1,0,0:0:0:0:
352,96,67423,1,8,0:0:0:0:
160,96,67567,1,0,0:0:0:0:
160,96,67639,1,0,0:0:0:0:
160,96,67711,1,0,0:0:0:0:
352,96,67855,1,8,0:0:0:0:
352,96,67999,1,8,0:0:0:0:
160,96,68142,1,0,0:0:0:0:
352,288,68286,1,12,0:0:0:0:
352,96,68430,1,8,0:0:0:0:
352,96,68502,1,8,0:0:0:0:
352,96,68574,1,8,0:0:0:0:
352,96,68718,1,8,0:0:0:0:
160,96,68862,1,0,0:0:0:0:
160,96,68934,1,0,0:0:0:0:
160,96,69006,1,0,0:0:0:0:
352,96,69150,1,8,0:0:0:0:
160,96,69294,1,0,0:0:0:0:
352,96,69365,1,8,0:0:0:0:
160,96,69437,1,0,0:0:0:0:
352,96,69581,1,8,0:0:0:0:
160,96,69725,1,0,0:0:0:0:
160,96,69869,1,0,0:0:0:0:
352,288,70013,1,12,0:0:0:0:
160,96,70157,1,0,0:0:0:0:
160,96,70229,1,0,0:0:0:0:
160,96,70301,1,0,0:0:0:0:
352,96,70445,1,8,0:0:0:0:
160,96,70588,1,0,0:0:0:0:
352,96,70660,1,8,0:0:0:0:
160,96,70732,1,0,0:0:0:0:
160,96,70804,1,0,0:0:0:0:
352,96,70876,1,8,0:0:0:0:
160,96,71020,1,0,0:0:0:0:
160,96,71092,1,0,0:0:0:0:
160,96,71164,1,0,0:0:0:0:
352,96,71308,1,8,0:0:0:0:
160,96,71380,1,0,0:0:0:0:
352,96,71452,1,8,0:0:0:0:
352,96,71524,1,8,0:0:0:0:
160,96,71596,1,0,0:0:0:0:
160,96,71668,1,0,0:0:0:0:
352,96,71740,1,8,0:0:0:0:
160,96,71883,1,0,0:0:0:0:
160,96,71955,1,0,0:0:0:0:
160,96,72027,1,0,0:0:0:0:
352,96,72171,1,8,0:0:0:0:
160,96,72315,1,0,0:0:0:0:
352,96,72387,1,8,0:0:0:0:
160,96,72459,1,0,0:0:0:0:
352,96,72603,1,8,0:0:0:0:
160,96,72675,1,0,0:0:0:0:
160,96,72747,1,0,0:0:0:0:
160,96,72819,1,0,0:0:0:0:
352,96,72891,1,8,0:0:0:0:
160,96,73035,1,0,0:0:0:0:
160,96,73106,1,0,0:0:0:0:
352,96,73178,1,8,0:0:0:0:
352,96,73250,1,8,0:0:0:0:
160,96,73322,1,0,0:0:0:0:
352,288,73466,1,12,0:0:0:0:
160,96,73610,1,0,0:0:0:0:
160,96,73682,1,0,0:0:0:0:
160,96,73754,1,0,0:0:0:0:
352,96,73898,1,8,0:0:0:0:
160,96,74042,1,0,0:0:0:0:
352,96,74114,1,8,0:0:0:0:
352,96,74186,1,8,0:0:0:0:
160,96,74258,1,0,0:0:0:0:
352,96,74329,1,8,0:0:0:0:
160,96,74473,1,0,0:0:0:0:
160,96,74545,1,0,0:0:0:0:
160,96,74617,1,0,0:0:0:0:
352,96,74761,1,8,0:0:0:0:
160,96,74833,1,0,0:0:0:0:
352,96,74905,1,8,0:0:0:0:
352,96,74977,1,8,0:0:0:0:
160,96,75049,1,0,0:0:0:0:
352,288,75193,1,12,0:0:0:0:
352,96,75337,1,8,0:0:0:0:
352,96,75409,1,8,0:0:0:0:
352,96,75481,1,8,0:0:0:0:
352,96,75624,1,8,0:0:0:0:
352,96,75768,1,8,0:0:0:0:
352,96,75912,1,8,0:0:0:0:
352,96,76056,1,8,0:0:0:0:
352,96,76200,1,8,0:0:0:0:
352,96,76272,1,8,0:0:0:0:
352,96,76344,1,8,0:0:0:0:
352,96,76488,1,8,0:0:0:0:
352,96,76632,1,8,0:0:0:0:
352,96,76776,1,8,0:0:0:0:
160,288,76919,1,4,0:0:0:0:
160,96,77063,1,0,0:0:0:0:
160,96,77135,1,0,0:0:0:0:
160,96,77207,1,0,0:0:0:0:
352,288,77351,1,12,0:0:0:0:
160,96,77495,1,0,0:0:0:0:
352,96,77567,1,8,0:0:0:0:
160,96,77639,1,0,0:0:0:0:
352,96,77783,1,8,0:0:0:0:
160,96,77855,1,0,0:0:0:0:
160,96,77927,1,0,0:0:0:0:
160,96,78070,1,0,0:0:0:0:
352,96,78214,1,8,0:0:0:0:
160,96,78358,1,0,0:0:0:0:
160,96,78430,1,0,0:0:0:0:
352,96,78502,1,8,0:0:0:0:
160,96,78574,1,0,0:0:0:0:
352,96,78646,1,8,0:0:0:0:
160,96,78790,1,0,0:0:0:0:
160,96,78862,1,0,0:0:0:0:
160,96,78934,1,0,0:0:0:0:
352,96,79078,1,8,0:0:0:0:
352,96,79222,1,8,0:0:0:0:
160,96,79294,1,0,0:0:0:0:
160,96,79365,1,0,0:0:0:0:
352,96,79509,1,8,0:0:0:0:
160,96,79653,1,0,0:0:0:0:
160,96,79725,1,0,0:0:0:0:
352,96,79797,1,8,0:0:0:0:
160,96,79941,1,0,0:0:0:0:
352,96,80085,1,8,0:0:0:0:
352,96,80157,1,8,0:0:0:0:
160,96,80229,1,0,0:0:0:0:
160,96,80301,1,0,0:0:0:0:
352,96,80373,1,8,0:0:0:0:
160,96,80517,1,0,0:0:0:0:
160,96,80588,1,0,0:0:0:0:
160,96,80660,1,0,0:0:0:0:
352,96,80804,1,8,0:0:0:0:
160,96,80948,1,0,0:0:0:0:
352,96,81020,1,8,0:0:0:0:
160,96,81092,1,0,0:0:0:0:
160,96,81164,1,0,0:0:0:0:
352,96,81236,1,8,0:0:0:0:
160,96,81380,1,0,0:0:0:0:
160,96,81524,1,0,0:0:0:0:
160,96,81596,1,0,0:0:0:0:
352,96,81668,1,8,0:0:0:0:
160,96,81740,1,0,0:0:0:0:
160,96,81811,1,0,0:0:0:0:
352,96,81883,1,8,0:0:0:0:
352,96,81955,1,8,0:0:0:0:
352,96,82027,1,8,0:0:0:0:
160,96,82099,1,0,0:0:0:0:
160,96,82243,1,0,0:0:0:0:
160,96,82315,1,0,0:0:0:0:
160,96,82387,1,0,0:0:0:0:
352,96,82531,1,8,0:0:0:0:
160,96,82675,1,0,0:0:0:0:
352,96,82747,1,8,0:0:0:0:
160,96,82819,1,0,0:0:0:0:
160,96,82891,1,0,0:0:0:0:
352,96,82963,1,8,0:0:0:0:
160,96,83106,1,0,0:0:0:0:
352,96,83178,1,8,0:0:0:0:
352,96,83250,1,8,0:0:0:0:
160,96,83322,1,0,0:0:0:0:
352,96,83394,1,8,0:0:0:0:
352,96,83538,1,8,0:0:0:0:
160,96,83682,1,0,0:0:0:0:
352,288,83826,1,12,0:0:0:0:
160,96,83970,1,0,0:0:0:0:
160,96,84042,1,0,0:0:0:0:
160,96,84114,1,0,0:0:0:0:
352,96,84258,1,8,0:0:0:0:
160,288,84401,1,4,0:0:0:0:
352,288,84689,1,12,0:0:0:0:
160,96,84833,1,0,0:0:0:0:
160,96,84905,1,0,0:0:0:0:
160,96,84977,1,0,0:0:0:0:
352,96,85121,1,8,0:0:0:0:
160,288,85265,1,4,0:0:0:0:
352,288,85552,1,12,0:0:0:0:
160,96,85696,1,0,0:0:0:0:
160,96,85768,1,0,0:0:0:0:
160,96,85840,1,0,0:0:0:0:
160,96,85912,1,0,0:0:0:0:
352,96,85984,1,8,0:0:0:0:
160,96,86128,1,0,0:0:0:0:
160,96,86272,1,0,0:0:0:0:
352,288,86416,1,12,0:0:0:0:
352,96,86560,1,8,0:0:0:0:
160,96,86704,1,0,0:0:0:0:
352,96,86847,1,8,0:0:0:0:
352,96,86991,1,8,0:0:0:0:
160,96,87135,1,0,0:0:0:0:
352,288,87279,1,12,0:0:0:0:
160,96,87423,1,0,0:0:0:0:
160,96,87495,1,0,0:0:0:0:
160,96,87567,1,0,0:0:0:0:
160,96,87639,1,0,0:0:0:0:
352,96,87711,1,8,0:0:0:0:
160,288,87855,1,4,0:0:0:0:
352,288,88142,1,12,0:0:0:0:
160,96,88286,1,0,0:0:0:0:
160,96,88358,1,0,0:0:0:0:
160,96,88430,1,0,0:0:0:0:
352,96,88574,1,8,0:0:0:0:
160,288,88718,1,4,0:0:0:0:
352,288,89006,1,12,0:0:0:0:
160,96,89150,1,0,0:0:0:0:
352,96,89222,1,8,0:0:0:0:
160,96,89294,1,0,0:0:0:0:
160,96,89365,1,0,0:0:0:0:
352,96,89437,1,8,0:0:0:0:
160,96,89581,1,0,0:0:0:0:
160,96,89725,1,0,0:0:0:0:
352,288,89869,1,12,0:0:0:0:
352,96,90013,1,8,0:0:0:0:
160,96,90157,1,0,0:0:0:0:
352,96,90301,1,8,0:0:0:0:
160,96,90445,1,0,0:0:0:0:
160,96,90588,1,0,0:0:0:0:
352,288,90732,1,12,0:0:0:0:
160,96,90876,1,0,0:0:0:0:
160,96,91020,1,0,0:0:0:0:
160,96,91092,1,0,0:0:0:0:
352,96,91164,1,8,0:0:0:0:
352,96,91308,1,8,0:0:0:0:
160,96,91452,1,0,0:0:0:0:
352,96,91596,1,8,0:0:0:0:
160,96,91740,1,0,0:0:0:0:
160,96,91811,1,0,0:0:0:0:
352,96,91883,1,8,0:0:0:0:
352,96,92027,1,8,0:0:0:0:
352,96,92171,1,8,0:0:0:0:
352,96,92243,1,8,0:0:0:0:
160,96,92315,1,0,0:0:0:0:
160,96,92387,1,0,0:0:0:0:
352,96,92459,1,8,0:0:0:0:
160,96,92603,1,0,0:0:0:0:
160,96,92675,1,0,0:0:0:0:
160,96,92747,1,0,0:0:0:0:
352,96,92891,1,8,0:0:0:0:
160,96,93035,1,0,0:0:0:0:
352,96,93106,1,8,0:0:0:0:
160,96,93178,1,0,0:0:0:0:
352,96,93322,1,8,0:0:0:0:
352,96,93466,1,8,0:0:0:0:
160,96,93610,1,0,0:0:0:0:
352,96,93754,1,8,0:0:0:0:
160,96,93898,1,0,0:0:0:0:
352,96,93970,1,8,0:0:0:0:
160,96,94042,1,0,0:0:0:0:
160,96,94114,1,0,0:0:0:0:
352,96,94186,1,8,0:0:0:0:
160,96,94329,1,0,0:0:0:0:
160,96,94473,1,0,0:0:0:0:
352,96,94617,1,8,0:0:0:0:
160,96,94689,1,0,0:0:0:0:
352,96,94761,1,8,0:0:0:0:
352,96,94833,1,8,0:0:0:0:
160,96,94905,1,0,0:0:0:0:
352,96,95049,1,8,0:0:0:0:
160,96,95193,1,0,0:0:0:0:
160,96,95265,1,0,0:0:0:0:
160,96,95337,1,0,0:0:0:0:
352,96,95481,1,8,0:0:0:0:
160,96,95624,1,0,0:0:0:0:
352,96,95696,1,8,0:0:0:0:
160,96,95768,1,0,0:0:0:0:
352,96,95912,1,8,0:0:0:0:
352,96,96007,1,8,0:0:0:0:
352,96,96103,1,8,0:0:0:0:
160,96,96199,1,0,0:0:0:0:
352,96,96342,1,8,0:0:0:0:
160,96,96485,1,0,0:0:0:0:
352,96,96629,1,8,0:0:0:0:
160,96,96773,1,0,0:0:0:0:
352,96,96916,1,8,0:0:0:0:
160,96,97060,1,0,0:0:0:0:
352,96,97204,1,8,0:0:0:0:
160,96,97348,1,0,0:0:0:0:
352,96,97492,1,8,0:0:0:0:
160,288,97636,1,4,0:0:0:0:
160,96,97779,1,0,0:0:0:0:
160,96,97923,1,0,0:0:0:0:
160,96,97995,1,0,0:0:0:0:
352,96,98067,1,8,0:0:0:0:
352,96,98211,1,8,0:0:0:0:
352,96,98355,1,8,0:0:0:0:
160,96,98427,1,0,0:0:0:0:
352,96,98499,1,8,0:0:0:0:
160,96,98643,1,0,0:0:0:0:
352,96,98787,1,8,0:0:0:0:
160,96,98859,1,0,0:0:0:0:
352,96,98930,1,8,0:0:0:0:
160,96,99002,1,0,0:0:0:0:
352,96,99074,1,8,0:0:0:0:
160,96,99218,1,0,0:0:0:0:
352,96,99362,1,8,0:0:0:0:
352,96,99434,1,8,0:0:0:0:
160,96,99506,1,0,0:0:0:0:
160,96,99650,1,0,0:0:0:0:
160,96,99722,1,0,0:0:0:0:
352,96,99794,1,8,0:0:0:0:
160,96,99938,1,0,0:0:0:0:
352,96,100082,1,8,0:0:0:0:
352,96,100225,1,8,0:0:0:0:
160,96,100369,1,0,0:0:0:0:
160,96,100513,1,0,0:0:0:0:
352,96,100657,1,8,0:0:0:0:
352,96,100729,1,8,0:0:0:0:
160,96,100801,1,0,0:0:0:0:
160,96,100873,1,0,0:0:0:0:
160,96,100945,1,0,0:0:0:0:
352,96,101089,1,8,0:0:0:0:
160,96,101233,1,0,0:0:0:0:
160,96,101305,1,0,0:0:0:0:
160,96,101377,1,0,0:0:0:0:
352,96,101520,1,8,0:0:0:0:
352,96,101592,1,8,0:0:0:0:
160,96,101664,1,0,0:0:0:0:
352,96,101736,1,8,0:0:0:0:
160,96,101808,1,0,0:0:0:0:
352,96,101952,1,8,0:0:0:0:
160,96,102096,1,0,0:0:0:0:
160,96,102168,1,0,0:0:0:0:
160,96,102240,1,0,0:0:0:0:
352,96,102384,1,8,0:0:0:0:
352,96,102528,1,8,0:0:0:0:
160,96,102671,1,0,0:0:0:0:
352,288,102815,1,12,0:0:0:0:
352,96,102959,1,8,0:0:0:0:
352,96,103031,1,8,0:0:0:0:
352,96,103103,1,8,0:0:0:0:
160,96,103247,1,0,0:0:0:0:
352,96,103391,1,8,0:0:0:0:
352,96,103535,1,8,0:0:0:0:
160,96,103679,1,0,0:0:0:0:
352,96,103823,1,8,0:0:0:0:
352,96,103966,1,8,0:0:0:0:
352,96,104110,1,8,0:0:0:0:
160,96,104254,1,0,0:0:0:0:
352,96,104398,1,8,0:0:0:0:
160,288,104542,1,4,0:0:0:0:
160,96,104686,1,0,0:0:0:0:
160,96,104758,1,0,0:0:0:0:
160,96,104830,1,0,0:0:0:0:
352,288,104974,1,12,0:0:0:0:
160,96,105118,1,0,0:0:0:0:
160,96,105261,1,0,0:0:0:0:
352,96,105405,1,8,0:0:0:0:
352,96,105477,1,8,0:0:0:0:
160,96,105549,1,0,0:0:0:0:
352,96,105693,1,8,0:0:0:0:
352,96,105837,1,8,0:0:0:0:
160,96,105909,1,0,0:0:0:0:
352,96,105981,1,8,0:0:0:0:
352,96,106053,1,8,0:0:0:0:
160,96,106125,1,0,0:0:0:0:
352,96,106269,1,8,0:0:0:0:
160,96,106412,1,0,0:0:0:0:
160,96,106484,1,0,0:0:0:0:
352,96,106556,1,8,0:0:0:0:
352,96,106700,1,8,0:0:0:0:
352,96,106844,1,8,0:0:0:0:
160,96,106916,1,0,0:0:0:0:
160,96,106988,1,0,0:0:0:0:
352,96,107132,1,8,0:0:0:0:
160,96,107276,1,0,0:0:0:0:
352,96,107348,1,8,0:0:0:0:
352,96,107420,1,8,0:0:0:0:
160,96,107492,1,0,0:0:0:0:
352,96,107564,1,8,0:0:0:0:
160,96,107707,1,0,0:0:0:0:
160,96,107851,1,0,0:0:0:0:
352,96,107995,1,8,0:0:0:0:
160,96,108139,1,0,0:0:0:0:
160,96,108211,1,0,0:0:0:0:
160,96,108283,1,0,0:0:0:0:
352,96,108427,1,8,0:0:0:0:
352,96,108499,1,8,0:0:0:0:
160,96,108571,1,0,0:0:0:0:
352,96,108715,1,8,0:0:0:0:
160,96,108859,1,0,0:0:0:0:
352,96,109002,1,8,0:0:0:0:
160,96,109074,1,0,0:0:0:0:
160,96,109146,1,0,0:0:0:0:
160,96,109218,1,0,0:0:0:0:
352,96,109290,1,8,0:0:0:0:
160,96,109434,1,0,0:0:0:0:
352,96,109506,1,8,0:0:0:0:
160,96,109578,1,0,0:0:0:0:
352,96,109722,1,8,0:0:0:0:
160,96,109866,1,0,0:0:0:0:
352,96,110010,1,8,0:0:0:0:
352,96,110153,1,8,0:0:0:0:
352,96,110297,1,8,0:0:0:0:
160,96,110441,1,0,0:0:0:0:
352,96,110585,1,8,0:0:0:0:
160,96,110729,1,0,0:0:0:0:
352,96,110873,1,8,0:0:0:0:
352,96,111017,1,8,0:0:0:0:
352,96,111161,1,8,0:0:0:0:
352,96,111305,1,8,0:0:0:0:
160,288,111448,1,4,0:0:0:0:
160,96,111592,1,0,0:0:0:0:
160,96,111664,1,0,0:0:0:0:
160,96,111736,1,0,0:0:0:0:
352,288,111880,1,12,0:0:0:0:
160,96,112024,1,0,0:0:0:0:
160,96,112168,1,0,0:0:0:0:
352,96,112312,1,8,0:0:0:0:
160,96,112456,1,0,0:0:0:0:
160,96,112528,1,0,0:0:0:0:
160,96,112600,1,0,0:0:0:0:
160,96,112671,1,0,0:0:0:0:
352,96,112743,1,8,0:0:0:0:
160,96,112887,1,0,0:0:0:0:
160,96,112959,1,0,0:0:0:0:
352,96,113031,1,8,0:0:0:0:
352,96,113175,1,8,0:0:0:0:
160,96,113319,1,0,0:0:0:0:
352,96,113463,1,8,0:0:0:0:
160,96,113535,1,0,0:0:0:0:
352,96,113607,1,8,0:0:0:0:
352,96,113751,1,8,0:0:0:0:
160,96,113894,1,0,0:0:0:0:
352,96,114038,1,8,0:0:0:0:
160,96,114110,1,0,0:0:0:0:
160,96,114182,1,0,0:0:0:0:
352,96,114326,1,8,0:0:0:0:
160,96,114398,1,0,0:0:0:0:
352,96,114470,1,8,0:0:0:0:
352,96,114542,1,8,0:0:0:0:
352,96,114614,1,8,0:0:0:0:
160,96,114758,1,0,0:0:0:0:
352,96,114902,1,8,0:0:0:0:
352,96,114974,1,8,0:0:0:0:
160,96,115046,1,0,0:0:0:0:
160,96,115118,1,0,0:0:0:0:
160,96,115189,1,0,0:0:0:0:
352,96,115333,1,8,0:0:0:0:
160,96,115477,1,0,0:0:0:0:
160,96,115549,1,0,0:0:0:0:
160,96,115621,1,0,0:0:0:0:
352,96,115765,1,8,0:0:0:0:
160,96,115909,1,0,0:0:0:0:
352,96,115981,1,8,0:0:0:0:
160,96,116053,1,0,0:0:0:0:
352,96,116197,1,8,0:0:0:0:
352,96,116341,1,8,0:0:0:0:
160,96,116484,1,0,0:0:0:0:
352,288,116628,1,12,0:0:0:0:
352,96,116772,1,8,0:0:0:0:
352,96,116844,1,8,0:0:0:0:
352,96,116916,1,8,0:0:0:0:
160,96,117060,1,0,0:0:0:0:
352,96,117204,1,8,0:0:0:0:
160,96,117348,1,0,0:0:0:0:
352,96,117492,1,8,0:0:0:0:
160,96,117636,1,0,0:0:0:0:
160,96,117707,1,0,0:0:0:0:
160,96,117779,1,0,0:0:0:0:
160,96,117923,1,0,0:0:0:0:
160,96,118067,1,0,0:0:0:0:
160,96,118211,1,0,0:0:0:0:
352,288,118355,1,12,0:0:0:0:
160,96,118499,1,0,0:0:0:0:
160,96,118571,1,0,0:0:0:0:
160,96,118643,1,0,0:0:0:0:
352,96,118787,1,8,0:0:0:0:
160,96,118930,1,0,0:0:0:0:
352,96,119002,1,8,0:0:0:0:
160,96,119074,1,0,0:0:0:0:
160,96,119146,1,0,0:0:0:0:
352,96,119218,1,8,0:0:0:0:
160,96,119362,1,0,0:0:0:0:
160,96,119434,1,0,0:0:0:0:
160,96,119506,1,0,0:0:0:0:
352,96,119650,1,8,0:0:0:0:
160,96,119722,1,0,0:0:0:0:
352,96,119794,1,8,0:0:0:0:
352,96,119866,1,8,0:0:0:0:
160,96,119938,1,0,0:0:0:0:
160,96,120010,1,0,0:0:0:0:
352,96,120082,1,8,0:0:0:0:
160,96,120225,1,0,0:0:0:0:
160,96,120297,1,0,0:0:0:0:
160,96,120369,1,0,0:0:0:0:
352,96,120513,1,8,0:0:0:0:
160,96,120657,1,0,0:0:0:0:
352,96,120729,1,8,0:0:0:0:
160,96,120801,1,0,0:0:0:0:
352,96,120945,1,8,0:0:0:0:
160,96,121017,1,0,0:0:0:0:
160,96,121089,1,0,0:0:0:0:
160,96,121161,1,0,0:0:0:0:
352,96,121233,1,8,0:0:0:0:
160,96,121377,1,0,0:0:0:0:
160,96,121448,1,0,0:0:0:0:
352,96,121520,1,8,0:0:0:0:
352,96,121592,1,8,0:0:0:0:
160,96,121664,1,0,0:0:0:0:
352,288,121808,1,12,0:0:0:0:
160,96,121952,1,0,0:0:0:0:
160,96,122024,1,0,0:0:0:0:
160,96,122096,1,0,0:0:0:0:
352,96,122240,1,8,0:0:0:0:
160,96,122384,1,0,0:0:0:0:
352,96,122456,1,8,0:0:0:0:
352,96,122528,1,8,0:0:0:0:
160,96,122600,1,0,0:0:0:0:
352,96,122671,1,8,0:0:0:0:
160,96,122815,1,0,0:0:0:0:
160,96,122887,1,0,0:0:0:0:
160,96,122959,1,0,0:0:0:0:
352,96,123103,1,8,0:0:0:0:
160,96,123175,1,0,0:0:0:0:
352,96,123247,1,8,0:0:0:0:
352,96,123319,1,8,0:0:0:0:
160,96,123391,1,0,0:0:0:0:
352,288,123535,1,12,0:0:0:0:
352,96,123679,1,8,0:0:0:0:
352,96,123751,1,8,0:0:0:0:
352,96,123823,1,8,0:0:0:0:
352,96,123966,1,8,0:0:0:0:
352,96,124110,1,8,0:0:0:0:
352,96,124254,1,8,0:0:0:0:
352,96,124398,1,8,0:0:0:0:
352,96,124542,1,8,0:0:0:0:
352,96,124614,1,8,0:0:0:0:
352,96,124686,1,8,0:0:0:0:
352,96,124830,1,8,0:0:0:0:
352,96,124974,1,8,0:0:0:0:
352,96,125118,1,8,0:0:0:0:
160,288,125261,1,4,0:0:0:0:
160,96,125405,1,0,0:0:0:0:
160,96,125477,1,0,0:0:0:0:
160,96,125549,1,0,0:0:0:0:
352,288,125693,1,12,0:0:0:0:
160,96,125837,1,0,0:0:0:0:
352,96,125909,1,8,0:0:0:0:
160,96,125981,1,0,0:0:0:0:
352,96,126125,1,8,0:0:0:0:
160,96,126197,1,0,0:0:0:0:
160,96,126269,1,0,0:0:0:0:
160,96,126412,1,0,0:0:0:0:
352,96,126556,1,8,0:0:0:0:
160,96,126700,1,0,0:0:0:0:
160,96,126772,1,0,0:0:0:0:
352,96,126844,1,8,0:0:0:0:
160,96,126916,1,0,0:0:0:0:
352,96,126988,1,8,0:0:0:0:
160,96,127132,1,0,0:0:0:0:
160,96,127204,1,0,0:0:0:0:
160,96,127276,1,0,0:0:0:0:
352,96,127420,1,8,0:0:0:0:
352,96,127564,1,8,0:0:0:0:
160,96,127636,1,0,0:0:0:0:
160,96,127707,1,0,0:0:0:0:
352,96,127851,1,8,0:0:0:0:
160,96,127995,1,0,0:0:0:0:
160,96,128067,1,0,0:0:0:0:
352,96,128139,1,8,0:0:0:0:
160,96,128283,1,0,0:0:0:0:
352,96,128427,1,8,0:0:0:0:
352,96,128499,1,8,0:0:0:0:
160,96,128571,1,0,0:0:0:0:
160,96,128643,1,0,0:0:0:0:
352,96,128715,1,8,0:0:0:0:
160,96,128859,1,0,0:0:0:0:
160,96,128930,1,0,0:0:0:0:
160,96,129002,1,0,0:0:0:0:
352,96,129146,1,8,0:0:0:0:
160,96,129290,1,0,0:0:0:0:
352,96,129362,1,8,0:0:0:0:
160,96,129434,1,0,0:0:0:0:
160,96,129506,1,0,0:0:0:0:
352,96,129578,1,8,0:0:0:0:
160,96,129722,1,0,0:0:0:0:
160,96,129866,1,0,0:0:0:0:
160,96,129938,1,0,0:0:0:0:
352,96,130010,1,8,0:0:0:0:
160,96,130082,1,0,0:0:0:0:
160,96,130153,1,0,0:0:0:0:
352,96,130225,1,8,0:0:0:0:
352,96,130297,1,8,0:0:0:0:
352,96,130369,1,8,0:0:0:0:
160,96,130441,1,0,0:0:0:0:
160,96,130585,1,0,0:0:0:0:
160,96,130657,1,0,0:0:0:0:
160,96,130729,1,0,0:0:0:0:
352,96,130873,1,8,0:0:0:0:
160,96,131017,5,0,0:0:0:0:
352,96,131089,1,8,0:0:0:0:
160,96,131161,1,0,0:0:0:0:
160,96,131233,1,0,0:0:0:0:
352,96,131305,1,8,0:0:0:0:
160,96,131448,1,0,0:0:0:0:
352,96,131520,1,8,0:0:0:0:
352,96,131592,1,8,0:0:0:0:
160,96,131664,1,0,0:0:0:0:
352,96,131736,1,8,0:0:0:0:
160,96,131880,1,0,0:0:0:0:
160,96,132024,1,0,0:0:0:0:
352,96,132172,5,8,0:0:0:0:
352,96,132320,1,8,0:0:0:0:
352,96,132468,1,8,0:0:0:0:
352,96,132616,1,8,0:0:0:0:
352,96,132764,1,8,0:0:0:0:
352,96,133068,1,8,0:0:0:0:
352,96,133216,1,8,0:0:0:0:
352,96,133364,1,8,0:0:0:0:
352,96,133512,1,8,0:0:0:0:
352,96,133660,1,8,0:0:0:0:
352,96,134137,1,8,0:0:0:0:
352,96,134285,1,8,0:0:0:0:
352,96,134581,1,8,0:0:0:0:
352,96,134879,1,8,0:0:0:0:
352,96,135027,1,8,0:0:0:0:
352,96,135175,1,8,0:0:0:0:
352,96,135323,1,8,0:0:0:0:
352,96,135735,1,8,0:0:0:0:
352,96,135883,1,8,0:0:0:0:
352,96,136031,1,8,0:0:0:0:
352,96,136179,1,8,0:0:0:0:
352,96,136327,1,8,0:0:0:0:
352,96,136623,1,8,0:0:0:0:
352,96,136772,1,8,0:0:0:0:
352,96,136920,1,8,0:0:0:0:
352,96,137068,1,8,0:0:0:0:
352,96,137216,1,8,0:0:0:0:
352,96,137696,1,8,0:0:0:0:
352,96,137844,1,8,0:0:0:0:
352,96,138140,1,8,0:0:0:0:
352,96,138440,1,8,0:0:0:0:
352,96,138588,1,8,0:0:0:0:
160,288,139792,1,4,0:0:0:0:
160,96,139940,1,0,0:0:0:0:
160,96,140014,1,0,0:0:0:0:
160,96,140088,1,0,0:0:0:0:
160,96,140236,1,0,0:0:0:0:
160,96,140384,1,0,0:0:0:0:
352,96,140680,1,8,0:0:0:0:
160,96,140829,1,0,0:0:0:0:
160,96,140903,1,0,0:0:0:0:
160,96,140977,1,0,0:0:0:0:
160,96,141125,1,0,0:0:0:0:
160,96,141273,1,0,0:0:0:0:
160,96,141866,1,0,0:0:0:0:
160,96,142014,1,0,0:0:0:0:
160,96,142310,1,0,0:0:0:0:
160,96,142606,1,0,0:0:0:0:
160,96,142754,1,0,0:0:0:0:
160,96,142829,1,0,0:0:0:0:
352,96,142903,1,8,0:0:0:0:
160,96,143051,1,0,0:0:0:0:
160,96,143347,1,0,0:0:0:0:
160,96,143421,1,0,0:0:0:0:
160,96,143495,1,0,0:0:0:0:
160,96,143643,1,0,0:0:0:0:
160,96,143792,1,0,0:0:0:0:
160,96,143940,1,0,0:0:0:0:
352,96,144236,1,8,0:0:0:0:
160,96,144310,1,0,0:0:0:0:
160,96,144384,1,0,0:0:0:0:
160,96,144532,1,0,0:0:0:0:
160,96,144680,1,0,0:0:0:0:
160,96,144829,1,0,0:0:0:0:
160,96,145421,1,0,0:0:0:0:
160,96,145569,1,0,0:0:0:0:
160,96,145866,1,0,0:0:0:0:
160,96,146162,1,0,0:0:0:0:
160,96,146310,1,0,0:0:0:0:
160,96,146384,1,0,0:0:0:0:
352,96,146458,1,8,0:0:0:0:
160,96,146606,1,0,0:0:0:0:
352,96,146898,1,8,0:0:0:0:
160,96,147046,1,0,0:0:0:0:
160,96,147194,1,0,0:0:0:0:
160,96,147268,1,0,0:0:0:0:
352,96,147342,1,8,0:0:0:0:
160,96,147490,1,0,0:0:0:0:
352,96,147786,1,8,0:0:0:0:
160,96,147935,1,0,0:0:0:0:
160,96,148009,1,0,0:0:0:0:
160,96,148083,1,0,0:0:0:0:
352,96,148231,1,8,0:0:0:0:
160,96,148379,1,0,0:0:0:0:
352,96,148675,1,8,0:0:0:0:
160,96,148972,1,0,0:0:0:0:
352,96,149120,1,8,0:0:0:0:
160,96,149416,1,0,0:0:0:0:
352,96,149564,1,8,0:0:0:0:
160,96,149712,1,0,0:0:0:0:
160,96,149860,1,0,0:0:0:0:
352,96,150009,1,8,0:0:0:0:
160,96,150157,1,0,0:0:0:0:
352,96,150453,1,8,0:0:0:0:
160,96,150527,1,0,0:0:0:0:
160,96,150601,1,0,0:0:0:0:
160,96,150749,1,0,0:0:0:0:
352,96,150898,1,8,0:0:0:0:
160,96,151046,1,0,0:0:0:0:
352,96,151342,1,8,0:0:0:0:
352,96,151416,1,8,0:0:0:0:
160,96,151490,1,0,0:0:0:0:
160,96,151638,1,0,0:0:0:0:
352,96,151786,1,8,0:0:0:0:
160,96,151935,1,0,0:0:0:0:
352,96,152231,1,8,0:0:0:0:
160,96,152527,1,0,0:0:0:0:
352,96,152675,1,8,0:0:0:0:
160,96,152972,1,0,0:0:0:0:
352,96,153120,1,8,0:0:0:0:
160,96,153268,1,0,0:0:0:0:
160,96,153342,1,0,0:0:0:0:
160,96,153416,1,0,0:0:0:0:
352,96,153564,1,8,0:0:0:0:
160,96,153712,1,0,0:0:0:0:
352,288,154009,1,12,0:0:0:0:
160,96,154157,1,0,0:0:0:0:
160,96,154231,1,0,0:0:0:0:
160,96,154305,1,0,0:0:0:0:
352,96,154453,1,8,0:0:0:0:
352,96,154601,1,8,0:0:0:0:
160,96,154749,1,0,0:0:0:0:
352,96,154898,1,8,0:0:0:0:
160,96,155046,1,0,0:0:0:0:
160,96,155120,1,0,0:0:0:0:
160,96,155194,1,0,0:0:0:0:
352,96,155342,1,8,0:0:0:0:
160,96,155490,1,0,0:0:0:0:
352,96,155638,1,8,0:0:0:0:
160,96,155786,1,0,0:0:0:0:
160,96,155935,1,0,0:0:0:0:
160,96,156009,1,0,0:0:0:0:
352,96,156083,1,8,0:0:0:0:
352,96,156231,1,8,0:0:0:0:
160,96,156379,1,0,0:0:0:0:
352,96,156527,1,8,0:0:0:0:
160,96,156675,1,0,0:0:0:0:
352,96,156823,1,8,0:0:0:0:
160,96,156898,1,0,0:0:0:0:
352,96,156972,1,8,0:0:0:0:
352,96,157120,1,8,0:0:0:0:
160,96,157268,1,0,0:0:0:0:
160,96,157416,1,0,0:0:0:0:
160,288,157564,1,4,0:0:0:0:
160,96,157712,1,0,0:0:0:0:
160,96,157786,1,0,0:0:0:0:
160,96,157860,1,0,0:0:0:0:
352,96,158009,1,8,0:0:0:0:
352,96,158157,1,8,0:0:0:0:
160,96,158305,1,0,0:0:0:0:
352,96,158453,1,8,0:0:0:0:
160,96,158601,1,0,0:0:0:0:
160,96,158675,1,0,0:0:0:0:
160,96,158749,1,0,0:0:0:0:
352,96,158898,1,8,0:0:0:0:
160,96,159046,1,0,0:0:0:0:
352,96,159194,1,8,0:0:0:0:
160,96,159342,1,0,0:0:0:0:
160,96,159490,1,0,0:0:0:0:
160,96,159564,1,0,0:0:0:0:
352,96,159638,1,8,0:0:0:0:
352,96,159786,1,8,0:0:0:0:
160,96,159935,1,0,0:0:0:0:
352,96,160083,1,8,0:0:0:0:
352,96,160157,1,8,0:0:0:0:
160,96,160231,1,0,0:0:0:0:
352,96,160379,1,8,0:0:0:0:
352,96,160527,1,8,0:0:0:0:
352,96,160675,1,8,0:0:0:0:
160,96,160823,1,0,0:0:0:0:
160,96,160972,1,0,0:0:0:0:
352,288,161120,1,12,0:0:0:0:
160,96,161268,1,0,0:0:0:0:
160,96,161342,1,0,0:0:0:0:
160,96,161416,1,0,0:0:0:0:
160,96,161490,1,0,0:0:0:0:
352,96,161564,1,8,0:0:0:0:
352,96,161712,1,8,0:0:0:0:
160,96,161860,1,0,0:0:0:0:
352,96,162009,1,8,0:0:0:0:
160,96,162157,1,0,0:0:0:0:
160,96,162231,1,0,0:0:0:0:
160,96,162305,1,0,0:0:0:0:
160,96,162379,1,0,0:0:0:0:
352,96,162453,1,8,0:0:0:0:
160,96,162601,1,0,0:0:0:0:
352,96,162749,1,8,0:0:0:0:
160,96,162898,1,0,0:0:0:0:
160,96,163046,1,0,0:0:0:0:
160,96,163120,1,0,0:0:0:0:
352,96,163194,1,8,0:0:0:0:
160,96,163268,1,0,0:0:0:0:
352,96,163342,1,8,0:0:0:0:
160,96,163490,1,0,0:0:0:0:
352,96,163638,1,8,0:0:0:0:
160,96,163786,1,0,0:0:0:0:
352,96,163935,1,8,0:0:0:0:
160,96,164009,1,0,0:0:0:0:
352,96,164083,1,8,0:0:0:0:
160,96,164157,1,0,0:0:0:0:
352,96,164231,1,8,0:0:0:0:
160,96,164379,1,0,0:0:0:0:
160,96,164527,1,0,0:0:0:0:
160,288,164675,1,4,0:0:0:0:
160,96,164823,1,0,0:0:0:0:
160,96,164897,1,0,0:0:0:0:
160,96,164972,1,0,0:0:0:0:
160,96,165046,1,0,0:0:0:0:
352,96,165120,1,8,0:0:0:0:
352,96,165268,1,8,0:0:0:0:
160,96,165416,1,0,0:0:0:0:
160,96,165490,1,0,0:0:0:0:
352,96,165564,1,8,0:0:0:0:
160,96,165712,1,0,0:0:0:0:
160,96,165786,1,0,0:0:0:0:
160,96,165860,1,0,0:0:0:0:
160,96,165935,1,0,0:0:0:0:
352,96,166009,1,8,0:0:0:0:
160,96,166157,1,0,0:0:0:0:
352,96,166305,1,8,0:0:0:0:
160,288,166453,1,4,0:0:0:0:
256,192,167638,12,0,168083,0:0:0:0:
352,288,168231,5,12,0:0:0:0:
160,96,168374,1,0,0:0:0:0:
160,96,168446,1,0,0:0:0:0:
160,96,168518,1,0,0:0:0:0:
352,96,168662,1,8,0:0:0:0:
160,96,168806,1,0,0:0:0:0:
160,96,168878,1,0,0:0:0:0:
160,96,168950,1,0,0:0:0:0:
160,96,169022,1,0,0:0:0:0:
352,96,169094,1,8,0:0:0:0:
160,96,169238,1,0,0:0:0:0:
160,96,169310,1,0,0:0:0:0:
160,96,169382,1,0,0:0:0:0:
160,96,169454,1,0,0:0:0:0:
352,96,169525,1,8,0:0:0:0:
160,96,169669,1,0,0:0:0:0:
160,96,169813,1,0,0:0:0:0:
160,96,169885,1,0,0:0:0:0:
352,96,169957,1,8,0:0:0:0:
160,96,170101,1,0,0:0:0:0:
160,96,170173,1,0,0:0:0:0:
160,96,170245,1,0,0:0:0:0:
352,96,170389,1,8,0:0:0:0:
160,96,170533,1,0,0:0:0:0:
160,96,170605,1,0,0:0:0:0:
160,96,170677,1,0,0:0:0:0:
160,96,170748,1,0,0:0:0:0:
352,96,170820,1,8,0:0:0:0:
160,96,170964,1,0,0:0:0:0:
160,96,171036,1,0,0:0:0:0:
352,96,171108,1,8,0:0:0:0:
352,96,171252,1,8,0:0:0:0:
352,96,171396,1,8,0:0:0:0:
352,96,171468,1,8,0:0:0:0:
160,96,171540,1,0,0:0:0:0:
352,96,171684,1,8,0:0:0:0:
160,96,171828,1,0,0:0:0:0:
160,96,171900,1,0,0:0:0:0:
160,96,171972,1,0,0:0:0:0:
352,96,172115,1,8,0:0:0:0:
160,96,172259,1,0,0:0:0:0:
160,96,172331,1,0,0:0:0:0:
160,96,172403,1,0,0:0:0:0:
160,96,172475,1,0,0:0:0:0:
352,96,172547,1,8,0:0:0:0:
160,96,172691,1,0,0:0:0:0:
160,96,172763,1,0,0:0:0:0:
160,96,172835,1,0,0:0:0:0:
160,96,172907,1,0,0:0:0:0:
352,96,172979,1,8,0:0:0:0:
352,96,173123,1,8,0:0:0:0:
352,96,173195,1,8,0:0:0:0:
160,96,173266,1,0,0:0:0:0:
352,288,173410,1,12,0:0:0:0:
352,96,173554,1,8,0:0:0:0:
352,96,173626,1,8,0:0:0:0:
352,96,173698,1,8,0:0:0:0:
352,96,173842,1,8,0:0:0:0:
352,96,173986,1,8,0:0:0:0:
352,96,174130,1,8,0:0:0:0:
352,96,174274,1,8,0:0:0:0:
352,96,174418,1,8,0:0:0:0:
352,96,174489,1,8,0:0:0:0:
352,96,174561,1,8,0:0:0:0:
352,96,174705,1,8,0:0:0:0:
352,96,174849,1,8,0:0:0:0:
352,96,174993,1,8,0:0:0:0:
160,288,175137,1,4,0:0:0:0:
160,96,175281,1,0,0:0:0:0:
160,96,175353,1,0,0:0:0:0:
160,96,175425,1,0,0:0:0:0:
352,96,175569,1,8,0:0:0:0:
160,96,175713,1,0,0:0:0:0:
352,96,175856,1,8,0:0:0:0:
160,96,176000,1,0,0:0:0:0:
160,96,176144,1,0,0:0:0:0:
160,96,176216,1,0,0:0:0:0:
160,96,176288,1,0,0:0:0:0:
352,96,176432,1,8,0:0:0:0:
352,96,176576,1,8,0:0:0:0:
160,96,176720,1,0,0:0:0:0:
160,96,176864,1,0,0:0:0:0:
160,96,177007,1,0,0:0:0:0:
160,96,177079,1,0,0:0:0:0:
160,96,177151,1,0,0:0:0:0:
352,96,177295,1,8,0:0:0:0:
160,96,177439,1,0,0:0:0:0:
352,96,177583,1,8,0:0:0:0:
160,96,177727,1,0,0:0:0:0:
160,96,177871,1,0,0:0:0:0:
160,96,177943,1,0,0:0:0:0:
160,96,178015,1,0,0:0:0:0:
160,96,178087,1,0,0:0:0:0:
352,96,178159,1,8,0:0:0:0:
352,96,178302,1,8,0:0:0:0:
160,96,178446,1,0,0:0:0:0:
160,96,178590,1,0,0:0:0:0:
160,96,178734,1,0,0:0:0:0:
160,96,178806,1,0,0:0:0:0:
160,96,178878,1,0,0:0:0:0:
352,96,179022,1,8,0:0:0:0:
160,96,179166,1,0,0:0:0:0:
352,96,179310,1,8,0:0:0:0:
160,96,179454,1,0,0:0:0:0:
160,96,179597,1,0,0:0:0:0:
160,96,179669,1,0,0:0:0:0:
160,96,179741,1,0,0:0:0:0:
352,96,179885,1,8,0:0:0:0:
352,96,180029,1,8,0:0:0:0:
160,96,180173,1,0,0:0:0:0:
160,96,180317,1,0,0:0:0:0:
160,96,180461,1,0,0:0:0:0:
160,96,180533,1,0,0:0:0:0:
160,96,180605,1,0,0:0:0:0:
352,96,180748,1,8,0:0:0:0:
160,96,180892,1,0,0:0:0:0:
352,96,181036,1,8,0:0:0:0:
352,96,181108,1,8,0:0:0:0:
160,96,181180,1,0,0:0:0:0:
160,96,181252,1,0,0:0:0:0:
160,96,181324,1,0,0:0:0:0:
160,96,181468,1,0,0:0:0:0:
352,96,181612,1,8,0:0:0:0:
352,96,181756,1,8,0:0:0:0:
352,96,181828,1,8,0:0:0:0:
160,96,181900,1,0,0:0:0:0:
160,288,182043,1,4,0:0:0:0:
160,288,182952,1,4,0:0:0:0:
352,288,183859,1,12,0:0:0:0:
160,96,184009,1,0,0:0:0:0:
160,96,184159,1,0,0:0:0:0:
160,96,184310,1,0,0:0:0:0:
160,96,184385,1,0,0:0:0:0:
352,96,184460,1,8,0:0:0:0:
160,96,184610,1,0,0:0:0:0:
352,96,184761,1,8,0:0:0:0:
160,96,184911,1,0,0:0:0:0:
160,96,184986,1,0,0:0:0:0:
352,96,185062,1,8,0:0:0:0:
160,96,185212,1,0,0:0:0:0:
352,96,185362,1,8,0:0:0:0:
160,96,185437,1,0,0:0:0:0:
160,96,185513,1,0,0:0:0:0:
352,96,185663,1,8,0:0:0:0:
160,96,185813,1,0,0:0:0:0:
160,96,185889,1,0,0:0:0:0:
352,96,185964,1,8,0:0:0:0:
160,96,186114,1,0,0:0:0:0:
352,96,186265,1,8,0:0:0:0:
352,96,186340,1,8,0:0:0:0:
160,96,186415,1,0,0:0:0:0:
352,96,186565,1,8,0:0:0:0:
160,96,186640,1,0,0:0:0:0:
160,96,186716,1,0,0:0:0:0:
160,96,186791,1,0,0:0:0:0:
160,96,186866,1,0,0:0:0:0:
160,96,187016,1,0,0:0:0:0:
352,96,187167,1,8,0:0:0:0:
160,96,187317,1,0,0:0:0:0:
160,96,187392,1,0,0:0:0:0:
352,96,187468,1,8,0:0:0:0:
160,96,187618,1,0,0:0:0:0:
160,96,187768,1,0,0:0:0:0:
160,96,187919,1,0,0:0:0:0:
160,96,187994,1,0,0:0:0:0:
352,96,188069,1,8,0:0:0:0:
160,96,188219,1,0,0:0:0:0:
352,96,188370,1,8,0:0:0:0:
160,96,188520,1,0,0:0:0:0:
160,96,188595,1,0,0:0:0:0:
160,96,188671,1,0,0:0:0:0:
160,96,188821,1,0,0:0:0:0:
352,96,188971,1,8,0:0:0:0:
160,96,189122,1,0,0:0:0:0:
352,96,189272,1,8,0:0:0:0:
160,96,189422,1,0,0:0:0:0:
160,96,189573,1,0,0:0:0:0:
160,96,189723,1,0,0:0:0:0:
352,96,189874,1,8,0:0:0:0:
160,96,190024,1,0,0:0:0:0:
352,96,190174,1,8,0:0:0:0:
160,96,190325,1,0,0:0:0:0:
160,96,190475,1,0,0:0:0:0:
352,96,190625,1,8,0:0:0:0:
352,96,190701,1,8,0:0:0:0:
352,96,190776,1,8,0:0:0:0:
352,96,190926,1,8,0:0:0:0:
352,288,191077,1,12,0:0:0:0:
160,96,191227,1,0,0:0:0:0:
160,96,191377,1,0,0:0:0:0:
160,96,191528,1,0,0:0:0:0:
160,96,191603,1,0,0:0:0:0:
352,96,191678,1,8,0:0:0:0:
160,96,191828,1,0,0:0:0:0:
352,96,191979,1,8,0:0:0:0:
160,96,192054,1,0,0:0:0:0:
160,96,192129,1,0,0:0:0:0:
352,96,192280,1,8,0:0:0:0:
160,96,192430,1,0,0:0:0:0:
160,96,192505,1,0,0:0:0:0:
352,96,192580,1,8,0:0:0:0:
160,96,192731,1,0,0:0:0:0:
352,96,192881,1,8,0:0:0:0:
352,96,192956,1,8,0:0:0:0:
160,96,193031,1,0,0:0:0:0:
352,96,193182,1,8,0:0:0:0:
160,96,193332,1,0,0:0:0:0:
160,96,193407,1,0,0:0:0:0:
352,96,193483,1,8,0:0:0:0:
160,96,193633,1,0,0:0:0:0:
352,96,193783,1,8,0:0:0:0:
352,96,193859,1,8,0:0:0:0:
160,96,193934,1,0,0:0:0:0:
160,96,194009,1,0,0:0:0:0:
160,96,194084,1,0,0:0:0:0:
160,96,194234,1,0,0:0:0:0:
352,96,194385,1,8,0:0:0:0:
160,96,194535,1,0,0:0:0:0:
160,96,194610,1,0,0:0:0:0:
352,96,194686,1,8,0:0:0:0:
160,96,194836,1,0,0:0:0:0:
160,96,194911,1,0,0:0:0:0:
160,96,194986,1,0,0:0:0:0:
160,96,195137,1,0,0:0:0:0:
352,96,195287,1,8,0:0:0:0:
160,96,195437,1,0,0:0:0:0:
352,96,195588,1,8,0:0:0:0:
160,96,195663,1,0,0:0:0:0:
160,96,195738,1,0,0:0:0:0:
160,96,195889,1,0,0:0:0:0:
160,96,196039,1,0,0:0:0:0:
352,96,196189,1,8,0:0:0:0:
160,96,196340,1,0,0:0:0:0:
352,96,196490,1,8,0:0:0:0:
352,96,196565,1,8,0:0:0:0:
160,96,196640,1,0,0:0:0:0:
160,96,196716,1,0,0:0:0:0:
352,96,196791,1,8,0:0:0:0:
352,96,196866,1,8,0:0:0:0:
160,96,196941,1,0,0:0:0:0:
160,96,197016,1,0,0:0:0:0:
352,96,197092,1,8,0:0:0:0:
160,96,197167,1,0,0:0:0:0:
160,96,197242,1,0,0:0:0:0:
160,96,197317,1,0,0:0:0:0:
352,96,197392,1,8,0:0:0:0:
352,96,197468,1,8,0:0:0:0:
160,96,197543,1,0,0:0:0:0:
160,96,197618,1,0,0:0:0:0:
352,96,197693,1,8,0:0:0:0:
352,96,197768,1,8,0:0:0:0:
160,96,197843,1,0,0:0:0:0:
160,96,197919,1,0,0:0:0:0:
352,96,197994,1,8,0:0:0:0:
352,96,198069,1,8,0:0:0:0:
352,96,198144,1,8,0:0:0:0:
352,288,198295,1,12,0:0:0:0:
160,96,198445,1,0,0:0:0:0:
160,96,198520,1,0,0:0:0:0:
160,96,198595,1,0,0:0:0:0:
160,96,198746,1,0,0:0:0:0:
352,96,198896,1,8,0:0:0:0:
160,96,199046,1,0,0:0:0:0:
160,96,199122,1,0,0:0:0:0:
352,96,199197,1,8,0:0:0:0:
160,96,199347,1,0,0:0:0:0:
352,96,199498,1,8,0:0:0:0:
352,96,199573,1,8,0:0:0:0:
160,96,199648,1,0,0:0:0:0:
352,96,199798,1,8,0:0:0:0:
352,96,199874,1,8,0:0:0:0:
160,96,199949,1,0,0:0:0:0:
160,96,200024,1,0,0:0:0:0:
352,96,200099,1,8,0:0:0:0:
160,96,200249,1,0,0:0:0:0:
160,96,200325,1,0,0:0:0:0:
352,96,200400,1,8,0:0:0:0:
160,96,200550,1,0,0:0:0:0:
352,96,200701,1,8,0:0:0:0:
160,96,200776,1,0,0:0:0:0:
160,96,200851,1,0,0:0:0:0:
352,96,201001,1,8,0:0:0:0:
352,96,201077,1,8,0:0:0:0:
160,96,201152,1,0,0:0:0:0:
160,96,201227,1,0,0:0:0:0:
352,96,201302,1,8,0:0:0:0:
160,96,201452,1,0,0:0:0:0:
352,96,201603,1,8,0:0:0:0:
160,96,201753,1,0,0:0:0:0:
160,96,201828,1,0,0:0:0:0:
352,96,201904,1,8,0:0:0:0:
160,96,202054,1,0,0:0:0:0:
160,96,202129,1,0,0:0:0:0:
160,96,202204,1,0,0:0:0:0:
160,96,202355,1,0,0:0:0:0:
352,96,202505,1,8,0:0:0:0:
160,96,202580,1,0,0:0:0:0:
160,96,202655,1,0,0:0:0:0:
160,96,202806,1,0,0:0:0:0:
160,96,202956,1,0,0:0:0:0:
160,96,203031,1,0,0:0:0:0:
352,96,203107,1,8,0:0:0:0:
160,96,203257,1,0,0:0:0:0:
160,96,203407,1,0,0:0:0:0:
160,96,203558,1,0,0:0:0:0:
160,96,203633,1,0,0:0:0:0:
352,96,203708,1,8,0:0:0:0:
160,96,203859,1,0,0:0:0:0:
160,96,204009,1,0,0:0:0:0:
160,96,204159,1,0,0:0:0:0:
160,96,204234,1,0,0:0:0:0:
352,96,204310,1,8,0:0:0:0:
160,96,204460,1,0,0:0:0:0:
352,96,204610,1,8,0:0:0:0:
352,96,204686,1,8,0:0:0:0:
160,96,204761,1,0,0:0:0:0:
160,96,204836,1,0,0:0:0:0:
352,96,204911,1,8,0:0:0:0:
160,96,204986,1,0,0:0:0:0:
160,96,205062,1,0,0:0:0:0:
160,96,205137,1,0,0:0:0:0:
352,96,205212,1,8,0:0:0:0:
160,96,205287,1,0,0:0:0:0:
160,96,205362,1,0,0:0:0:0:
352,288,205513,1,12,0:0:0:0:
160,96,205663,1,0,0:0:0:0:
160,96,205738,1,0,0:0:0:0:
352,96,205813,1,8,0:0:0:0:
160,96,205964,1,0,0:0:0:0:
160,96,206039,1,0,0:0:0:0:
352,96,206114,1,8,0:0:0:0:
160,96,206265,1,0,0:0:0:0:
160,96,206340,1,0,0:0:0:0:
352,96,206415,1,8,0:0:0:0:
160,96,206490,1,0,0:0:0:0:
160,96,206565,1,0,0:0:0:0:
160,96,206640,1,0,0:0:0:0:
352,96,206716,1,8,0:0:0:0:
160,96,206866,1,0,0:0:0:0:
160,96,206941,1,0,0:0:0:0:
352,96,207016,1,8,0:0:0:0:
352,96,207092,1,8,0:0:0:0:
160,96,207167,1,0,0:0:0:0:
160,96,207242,1,0,0:0:0:0:
352,96,207317,1,8,0:0:0:0:
160,96,207468,1,0,0:0:0:0:
160,96,207543,1,0,0:0:0:0:
352,96,207618,1,8,0:0:0:0:
160,96,207768,1,0,0:0:0:0:
160,96,207843,1,0,0:0:0:0:
352,96,207919,1,8,0:0:0:0:
160,96,208069,1,0,0:0:0:0:
160,96,208144,1,0,0:0:0:0:
352,96,208219,1,8,0:0:0:0:
352,96,208295,1,8,0:0:0:0:
352,96,208370,1,8,0:0:0:0:
160,96,208445,1,0,0:0:0:0:
352,96,208520,1,8,0:0:0:0:
160,96,208671,1,0,0:0:0:0:
160,96,208746,1,0,0:0:0:0:
352,96,208821,1,8,0:0:0:0:
352,96,208896,1,8,0:0:0:0:
160,96,208971,1,0,0:0:0:0:
160,96,209046,1,0,0:0:0:0:
352,96,209122,1,8,0:0:0:0:
160,96,209272,1,0,0:0:0:0:
160,96,209347,1,0,0:0:0:0:
352,96,209422,1,8,0:0:0:0:
160,96,209573,1,0,0:0:0:0:
160,96,209648,1,0,0:0:0:0:
352,96,209723,1,8,0:0:0:0:
160,96,209874,1,0,0:0:0:0:
160,96,209949,1,0,0:0:0:0:
352,96,210024,1,8,0:0:0:0:
160,96,210099,1,0,0:0:0:0:
352,96,210174,1,8,0:0:0:0:
160,96,210249,1,0,0:0:0:0:
352,96,210325,1,8,0:0:0:0:
352,96,210400,1,8,0:0:0:0:
160,96,210475,1,0,0:0:0:0:
160,96,210550,1,0,0:0:0:0:
352,96,210625,1,8,0:0:0:0:
160,96,210776,1,0,0:0:0:0:
160,96,210851,1,0,0:0:0:0:
352,96,210926,1,8,0:0:0:0:
160,96,211077,1,0,0:0:0:0:
160,96,211152,1,0,0:0:0:0:
352,96,211227,1,8,0:0:0:0:
352,96,211302,1,8,0:0:0:0:
160,96,211377,1,0,0:0:0:0:
160,96,211452,1,0,0:0:0:0:
352,96,211528,1,8,0:0:0:0:
352,96,211603,1,8,0:0:0:0:
160,96,211678,1,0,0:0:0:0:
160,288,211828,1,4,0:0:0:0:
160,288,211979,1,4,0:0:0:0:
160,288,212129,1,4,0:0:0:0:
160,288,212280,1,4,0:0:0:0:
160,288,212430,1,4,0:0:0:0:
160,288,212580,1,4,0:0:0:0:
352,288,212740,1,12,0:0:0:0:
160,96,212885,1,0,0:0:0:0:
160,96,213030,1,0,0:0:0:0:
160,96,213103,1,0,0:0:0:0:
352,96,213176,1,8,0:0:0:0:
160,96,213321,1,0,0:0:0:0:
160,96,213467,1,0,0:0:0:0:
352,96,213612,1,8,0:0:0:0:
352,96,213685,1,8,0:0:0:0:
160,96,213758,1,0,0:0:0:0:
352,96,213903,1,8,0:0:0:0:
352,96,214049,1,8,0:0:0:0:
160,96,214194,1,0,0:0:0:0:
160,96,214267,1,0,0:0:0:0:
160,96,214340,1,0,0:0:0:0:
160,96,214412,1,0,0:0:0:0:
352,96,214485,1,8,0:0:0:0:
160,96,214630,1,0,0:0:0:0:
160,96,214776,1,0,0:0:0:0:
160,96,214849,1,0,0:0:0:0:
352,96,214921,1,8,0:0:0:0:
160,96,215067,1,0,0:0:0:0:
352,96,215212,1,8,0:0:0:0:
160,96,215285,1,0,0:0:0:0:
352,96,215358,1,8,0:0:0:0:
352,96,215430,1,8,0:0:0:0:
160,96,215503,1,0,0:0:0:0:
352,96,215649,1,8,0:0:0:0:
352,96,215794,1,8,0:0:0:0:
352,96,215940,1,8,0:0:0:0:
160,96,216012,1,0,0:0:0:0:
160,96,216085,1,0,0:0:0:0:
352,96,216230,1,8,0:0:0:0:
352,96,216376,1,8,0:0:0:0:
160,96,216521,1,0,0:0:0:0:
160,96,216594,1,0,0:0:0:0:
352,96,216667,1,8,0:0:0:0:
352,96,216812,1,8,0:0:0:0:
160,96,216958,1,0,0:0:0:0:
352,96,217103,1,8,0:0:0:0:
352,96,217176,1,8,0:0:0:0:
160,96,217249,1,0,0:0:0:0:
352,96,217394,1,8,0:0:0:0:
352,96,217540,1,8,0:0:0:0:
160,96,217685,1,0,0:0:0:0:
160,96,217758,1,0,0:0:0:0:
160,96,217830,1,0,0:0:0:0:
160,96,217903,1,0,0:0:0:0:
352,96,217976,1,8,0:0:0:0:
160,96,218121,1,0,0:0:0:0:
352,96,218267,1,8,0:0:0:0:
160,96,218340,1,0,0:0:0:0:
352,96,218412,1,8,0:0:0:0:
160,96,218558,1,0,0:0:0:0:
352,96,218703,1,8,0:0:0:0:
160,96,218776,1,0,0:0:0:0:
352,96,218849,1,8,0:0:0:0:
160,96,218921,1,0,0:0:0:0:
352,96,218994,1,8,0:0:0:0:
160,96,219140,1,0,0:0:0:0:
352,96,219285,1,8,0:0:0:0:
352,96,219430,1,8,0:0:0:0:
352,96,219503,1,8,0:0:0:0:
160,96,219576,1,0,0:0:0:0:
160,96,219649,1,0,0:0:0:0:
352,96,219721,1,8,0:0:0:0:
160,96,219867,1,0,0:0:0:0:
160,96,220012,1,0,0:0:0:0:
160,96,220085,1,0,0:0:0:0:
352,96,220158,1,8,0:0:0:0:
160,96,220303,1,0,0:0:0:0:
160,96,220376,1,0,0:0:0:0:
160,96,220449,1,0,0:0:0:0:
160,96,220521,1,0,0:0:0:0:
352,96,220594,1,8,0:0:0:0:
352,96,220740,1,8,0:0:0:0:
352,96,220812,1,8,0:0:0:0:
160,96,220885,1,0,0:0:0:0:
352,96,221030,1,8,0:0:0:0:
160,96,221176,1,0,0:0:0:0:
160,96,221321,1,0,0:0:0:0:
352,96,221467,1,8,0:0:0:0:
352,96,221612,1,8,0:0:0:0:
160,96,221758,1,0,0:0:0:0:
160,96,221830,1,0,0:0:0:0:
352,96,221903,1,8,0:0:0:0:
160,96,222049,1,0,0:0:0:0:
352,96,222194,1,8,0:0:0:0:
160,96,222267,1,0,0:0:0:0:
352,96,222340,1,8,0:0:0:0:
352,96,222485,1,8,0:0:0:0:
160,96,222558,1,0,0:0:0:0:
352,96,222630,1,8,0:0:0:0:
160,96,222703,1,0,0:0:0:0:
352,96,222776,1,8,0:0:0:0:
160,96,222849,1,0,0:0:0:0:
352,96,222921,1,8,0:0:0:0:
160,96,223067,1,0,0:0:0:0:
160,96,223212,5,0,0:0:0:0:
160,96,223363,1,0,0:0:0:0:
160,96,223515,1,0,0:0:0:0:
160,96,223666,1,0,0:0:0:0:
160,96,223818,1,0,0:0:0:0:
160,96,224121,1,0,0:0:0:0:
160,96,224269,1,0,0:0:0:0:
160,96,224417,1,0,0:0:0:0:
160,96,224565,1,0,0:0:0:0:
160,96,224713,1,0,0:0:0:0:
160,96,225211,1,0,0:0:0:0:
160,96,225362,1,0,0:0:0:0:
160,96,225665,1,0,0:0:0:0:
160,96,225963,1,0,0:0:0:0:
160,96,226114,1,0,0:0:0:0:
160,96,226266,1,0,0:0:0:0:
160,96,226417,1,0,0:0:0:0:
