osu file format v14

[General]
AudioFilename: audio.mp3
AudioLeadIn: 993
PreviewTime:47966
Countdown: 0
SampleSet: None
StackLeniency: 0.7
Mode: 1
LetterboxInBreaks: 0
WidescreenStoryboard: 0

[Editor]
DistanceSpacing: 1.6
BeatDivisor: 4
GridSize: 32
TimelineZoom: 2.4

[Metadata]
Title:Triple Baka
TitleUnicode:驫麤~とりぷるばか~
Artist:LamazeP
ArtistUnicode:ラマーズP
Creator:Sotarks
Version:Sur's Futsuu
Source:
Tags:初音ミク 重音テト 亞北ネル Hatsune Miku Kasane Teto Akita Neru Niconico Vocaloid Japanese Female Fool Stupid Short Cut Edit Version Electronic kudosu kowari chiga elinor eli [_eli_] soop so0p charlotte surono yasuho ayyri eiri-
BeatmapID:2551599
BeatmapSetID:1224831

[Difficulty]
HPDrainRate:6
CircleSize:2
OverallDifficulty:4
ApproachRate:10
SliderMultiplier:1.4
SliderTickRate:1

[Events]
//Background and Video events
0,0,"bg.jpg",0,69
//Break Periods
//Storyboard Layer 0 (Background)
//Storyboard Layer 1 (Fail)
//Storyboard Layer 2 (Pass)
//Storyboard Layer 3 (Foreground)
//Storyboard Layer 4 (Overlay)
//Storyboard Sound Samples

[TimingPoints]
-1283,333.333333333333,4,1,0,45,1,0
2633,-100,4,1,0,65,0,0
4550,-100,4,1,0,85,0,0
85300,-100,4,1,0,42,0,0

[Colours]
Combo1 : 241,150,223
Combo2 : 65,250,222
Combo3 : 252,255,113

[HitObjects]
256,192,50,5,8,0:0:0:0:
256,192,550,1,8,0:0:0:0:
256,192,1216,1,0,0:0:0:0:
256,192,1383,1,8,0:0:0:0:
256,192,1883,1,8,0:0:0:0:
256,192,2550,1,0,0:0:0:0:
256,192,2716,1,8,0:0:0:0:
256,192,3216,1,0,0:0:0:0:
256,192,3383,1,0,0:0:0:0:
256,192,3883,1,0,0:0:0:0:
256,192,4050,1,0,0:0:0:0:
256,192,4383,1,0,0:0:0:0:
256,192,4716,1,8,0:0:0:0:
256,192,4883,1,4,0:0:0:0:
256,192,5216,1,4,0:0:0:0:
256,192,5383,1,4,0:0:0:0:
256,192,5716,1,8,0:0:0:0:
256,192,6383,1,8,0:0:0:0:
256,192,6716,1,0,0:0:0:0:
256,192,7050,1,8,0:0:0:0:
256,192,7216,1,0,0:0:0:0:
256,192,7716,1,8,0:0:0:0:
256,192,8050,1,0,0:0:0:0:
256,192,8383,1,8,0:0:0:0:
256,192,9050,1,8,0:0:0:0:
256,192,9383,1,0,0:0:0:0:
256,192,9716,1,8,0:0:0:0:
256,192,10050,1,0,0:0:0:0:
256,192,10383,1,12,0:0:0:0:
256,192,10550,1,12,0:0:0:0:
256,192,10716,1,4,0:0:0:0:
256,192,11050,1,8,0:0:0:0:
256,192,11717,1,8,0:0:0:0:
256,192,12050,1,0,0:0:0:0:
256,192,12384,1,8,0:0:0:0:
256,192,12550,1,0,0:0:0:0:
256,192,13050,1,8,0:0:0:0:
256,192,13384,1,0,0:0:0:0:
256,192,13717,1,8,0:0:0:0:
256,192,14384,1,8,0:0:0:0:
256,192,14717,1,0,0:0:0:0:
256,192,15050,1,8,0:0:0:0:
256,192,15384,1,4,0:0:0:0:
256,192,15717,1,4,0:0:0:0:
256,192,15884,1,4,0:0:0:0:
256,192,16050,1,12,0:0:0:0:
256,192,16716,1,0,0:0:0:0:
256,192,17050,1,0,0:0:0:0:
256,192,17383,1,8,0:0:0:0:
256,192,17716,1,0,0:0:0:0:
256,192,18050,1,0,0:0:0:0:
256,192,18216,1,0,0:0:0:0:
256,192,18550,1,8,0:0:0:0:
256,192,18883,1,8,0:0:0:0:
256,192,19050,1,8,0:0:0:0:
256,192,19716,1,8,0:0:0:0:
256,192,20216,1,0,0:0:0:0:
256,192,20383,1,8,0:0:0:0:
256,192,20716,1,8,0:0:0:0:
256,192,21050,1,8,0:0:0:0:
256,192,21383,1,0,0:0:0:0:
256,192,22050,1,0,0:0:0:0:
256,192,22383,1,8,0:0:0:0:
256,192,22716,1,8,0:0:0:0:
256,192,23216,1,0,0:0:0:0:
256,192,23383,1,0,0:0:0:0:
256,192,23550,1,0,0:0:0:0:
256,192,23883,1,0,0:0:0:0:
256,192,24383,1,8,0:0:0:0:
256,192,25050,1,8,0:0:0:0:
256,192,25383,1,0,0:0:0:0:
256,192,25716,1,8,0:0:0:0:
256,192,26050,1,0,0:0:0:0:
256,192,26383,1,8,0:0:0:0:
256,192,26550,1,0,0:0:0:0:
256,192,26716,1,0,0:0:0:0:
256,192,27383,1,0,0:0:0:0:
256,192,27717,1,8,0:0:0:0:
256,192,28050,1,8,0:0:0:0:
256,192,28383,1,0,0:0:0:0:
256,192,28717,1,8,0:0:0:0:
256,192,28883,1,8,0:0:0:0:
256,192,29217,1,8,0:0:0:0:
256,192,29550,1,0,0:0:0:0:
256,192,29717,1,0,0:0:0:0:
256,192,30383,1,8,0:0:0:0:
256,192,30883,1,0,0:0:0:0:
256,192,31050,1,8,0:0:0:0:
256,192,31383,1,0,0:0:0:0:
256,192,31717,1,8,0:0:0:0:
256,192,32050,1,8,0:0:0:0:
256,192,32717,1,0,0:0:0:0:
256,192,33050,1,8,0:0:0:0:
256,192,33383,1,0,0:0:0:0:
256,192,33716,1,8,0:0:0:0:
256,192,33883,1,0,0:0:0:0:
256,192,34216,1,0,0:0:0:0:
256,192,35050,1,8,0:0:0:0:
256,192,35383,1,8,0:0:0:0:
256,192,35716,1,0,0:0:0:0:
256,192,36050,1,0,0:0:0:0:
256,192,36383,1,8,0:0:0:0:
256,192,36550,1,8,0:0:0:0:
256,192,36883,1,12,0:0:0:0:
256,192,37050,1,12,0:0:0:0:
256,192,37383,1,0,0:0:0:0:
256,192,38050,1,8,0:0:0:0:
256,192,38383,1,8,0:0:0:0:
256,192,38716,1,0,0:0:0:0:
256,192,39050,1,0,0:0:0:0:
256,192,39216,1,0,0:0:0:0:
256,192,39550,1,8,0:0:0:0:
256,192,39883,1,8,0:0:0:0:
256,192,40050,1,0,0:0:0:0:
256,192,40717,1,8,0:0:0:0:
256,192,41050,1,8,0:0:0:0:
256,192,41383,1,0,0:0:0:0:
256,192,41717,1,0,0:0:0:0:
256,192,41883,1,0,0:0:0:0:
256,192,42217,1,8,0:0:0:0:
256,192,42550,1,8,0:0:0:0:
256,192,42716,1,0,0:0:0:0:
256,192,43383,1,8,0:0:0:0:
256,192,43716,1,8,0:0:0:0:
256,192,44049,1,0,0:0:0:0:
256,192,44383,1,0,0:0:0:0:
256,192,44549,1,0,0:0:0:0:
256,192,44883,1,8,0:0:0:0:
256,192,45216,1,8,0:0:0:0:
256,192,45383,1,0,0:0:0:0:
256,192,46050,1,8,0:0:0:0:
256,192,46383,1,8,0:0:0:0:
256,192,46716,1,8,0:0:0:0:
256,192,47050,1,0,0:0:0:0:
256,192,47216,1,0,0:0:0:0:
256,192,47550,1,4,0:0:0:0:
256,192,47716,1,4,0:0:0:0:
256,192,48050,1,12,0:0:0:0:
256,192,48383,1,12,0:0:0:0:
256,192,48716,1,12,0:0:0:0:
256,192,49216,1,8,0:0:0:0:
256,192,49383,1,0,0:0:0:0:
256,192,49716,1,8,0:0:0:0:
256,192,50050,1,0,0:0:0:0:
256,192,50383,1,0,0:0:0:0:
256,192,50550,1,0,0:0:0:0:
256,192,50716,1,8,0:0:0:0:
256,192,51050,1,8,0:0:0:0:
256,192,51383,1,8,0:0:0:0:
256,192,51716,1,0,0:0:0:0:
256,192,51883,1,0,0:0:0:0:
256,192,52550,1,8,0:0:0:0:
256,192,52716,1,8,0:0:0:0:
256,192,53383,1,0,0:0:0:0:
256,192,53716,1,0,0:0:0:0:
256,192,54050,1,8,0:0:0:0:
256,192,54383,1,8,0:0:0:0:
256,192,54550,1,8,0:0:0:0:
256,192,54716,1,0,0:0:0:0:
256,192,55050,1,0,0:0:0:0:
256,192,55383,1,8,0:0:0:0:
256,192,55716,1,8,0:0:0:0:
256,192,56050,1,0,0:0:0:0:
256,192,56550,1,8,0:0:0:0:
256,192,56716,1,0,0:0:0:0:
256,192,57383,1,0,0:0:0:0:
256,192,57716,1,8,0:0:0:0:
256,192,57883,1,8,0:0:0:0:
256,192,58216,1,0,0:0:0:0:
256,192,58383,1,0,0:0:0:0:
256,192,58716,1,12,0:0:0:0:
256,192,59050,1,12,0:0:0:0:
256,192,59383,1,12,0:0:0:0:
256,192,59883,1,0,0:0:0:0:
256,192,60050,1,8,0:0:0:0:
256,192,60383,1,0,0:0:0:0:
256,192,60717,1,8,0:0:0:0:
256,192,61050,1,0,0:0:0:0:
256,192,61217,1,0,0:0:0:0:
256,192,61383,1,8,0:0:0:0:
256,192,61717,1,8,0:0:0:0:
256,192,62050,1,0,0:0:0:0:
256,192,62383,1,8,0:0:0:0:
256,192,62716,1,0,0:0:0:0:
256,192,63217,1,8,0:0:0:0:
256,192,63383,1,0,0:0:0:0:
256,192,64050,1,8,0:0:0:0:
256,192,64383,1,8,0:0:0:0:
256,192,64717,1,0,0:0:0:0:
256,192,65050,1,8,0:0:0:0:
256,192,65217,1,8,0:0:0:0:
256,192,65383,1,8,0:0:0:0:
256,192,65717,1,0,0:0:0:0:
256,192,66050,1,8,0:0:0:0:
256,192,66383,1,8,0:0:0:0:
256,192,66717,5,0,0:0:0:0:
256,192,67217,1,0,0:0:0:0:
256,192,67383,1,0,0:0:0:0:
256,192,68050,1,0,0:0:0:0:
256,192,68383,5,8,0:0:0:0:
256,192,68550,1,8,0:0:0:0:
256,192,68883,1,0,0:0:0:0:
256,192,69050,1,0,0:0:0:0:
256,192,69550,1,8,0:0:0:0:
256,192,69716,1,8,0:0:0:0:
256,192,70050,1,0,0:0:0:0:
256,192,70383,1,8,0:0:0:0:
256,192,70883,1,0,0:0:0:0:
256,192,71050,1,0,0:0:0:0:
256,192,71883,1,4,0:0:0:0:
256,192,72050,1,4,0:0:0:0:
256,192,72383,1,8,0:0:0:0:
256,192,73050,1,8,0:0:0:0:
256,192,73383,1,0,0:0:0:0:
256,192,73717,1,8,0:0:0:0:
256,192,73883,1,0,0:0:0:0:
256,192,74383,1,8,0:0:0:0:
256,192,74717,1,0,0:0:0:0:
256,192,75050,1,8,0:0:0:0:
256,192,75717,1,8,0:0:0:0:
256,192,76050,1,0,0:0:0:0:
256,192,76383,1,8,0:0:0:0:
256,192,76717,1,0,0:0:0:0:
256,192,77050,1,12,0:0:0:0:
256,192,77217,1,12,0:0:0:0:
256,192,77383,1,4,0:0:0:0:
256,192,77717,1,8,0:0:0:0:
256,192,78384,1,8,0:0:0:0:
256,192,78717,1,0,0:0:0:0:
256,192,79051,1,8,0:0:0:0:
256,192,79217,1,0,0:0:0:0:
256,192,79717,1,8,0:0:0:0:
256,192,80051,1,0,0:0:0:0:
256,192,80384,1,8,0:0:0:0:
256,192,81051,1,8,0:0:0:0:
256,192,81384,1,0,0:0:0:0:
256,192,81717,1,8,0:0:0:0:
256,192,82051,1,4,0:0:0:0:
256,192,82384,1,12,0:0:0:0:
256,192,82551,1,4,0:0:0:0:
256,192,83050,1,0,0:0:0:0:
256,192,83383,1,4,0:0:0:0:
256,192,83716,1,12,0:0:0:0:
256,192,83883,1,4,0:0:0:0:
256,192,84383,1,0,0:0:0:0:
256,192,84716,1,12,0:0:0:0:
256,192,85049,1,4,0:0:0:0:
256,192,85216,1,12,0:0:0:0:
256,192,85383,12,0,88050,0:0:0:0:
