osu file format v14

[General]
AudioFilename: audio.mp3
AudioLeadIn: 993
PreviewTime: 47966
Countdown: 0
SampleSet: Soft
StackLeniency: 0.7
Mode: 0
LetterboxInBreaks: 0
WidescreenStoryboard: 1

[Editor]
Bookmarks: 16050,37383,58716
DistanceSpacing: 1.6
BeatDivisor: 4
GridSize: 16
TimelineZoom: 2.4

[Metadata]
Title:Triple Baka
TitleUnicode:驫麤~とりぷるばか~
Artist:LamazeP
ArtistUnicode:ラマーズP
Creator:Sotarks
Version:Kudowari's Insane
Source:
Tags:初音ミク 重音テト 亞北ネル Hatsune Miku Kasane Teto Akita Neru Niconico Vocaloid Japanese Female Fool Stupid Short Cut Edit Version Electronic kudosu kowari chiga elinor eli [_eli_] soop so0p charlotte surono yasuho ayyri eiri-
BeatmapID:2552715
BeatmapSetID:1224831

[Difficulty]
HPDrainRate:5
CircleSize:4.1
OverallDifficulty:8
ApproachRate:9
SliderMultiplier:1.6
SliderTickRate:1

[Events]
//Background and Video events
0,0,"bg.jpg",0,0
//Break Periods
//Storyboard Layer 0 (Background)
//Storyboard Layer 1 (Fail)
//Storyboard Layer 2 (Pass)
//Storyboard Layer 3 (Foreground)
//Storyboard Layer 4 (Overlay)
//Storyboard Sound Samples

[TimingPoints]
-1283,333.333333333333,4,2,22,52,1,0
4050,-100,4,2,22,52,0,0
5383,-100,4,2,22,72,0,0
5633,-100,4,2,22,5,0,0
5716,-100,4,2,22,72,0,0
10966,-100,4,2,22,5,0,0
11050,-100,4,2,22,72,0,0
16050,-125,4,2,22,62,0,0
26383,-71.4285714285714,4,2,22,62,0,0
26466,-71.4285714285714,4,2,22,5,0,0
26550,-142.857142857143,4,2,22,62,0,0
26716,-125,4,2,22,62,0,0
46716,-100,4,2,22,62,0,0
47550,-66.6666666666667,4,2,22,62,0,0
48050,-95.2380952380952,4,2,22,82,0,0
53050,-66.6666666666667,4,2,22,82,0,0
53383,-95.2380952380952,4,2,22,82,0,0
63716,-66.6666666666667,4,2,22,82,0,0
64050,-95.2380952380952,4,2,22,82,0,0
69216,-74.0740740740741,4,2,22,82,0,0
69383,-95.2380952380952,4,2,22,82,0,0
70883,-68.9655172413793,4,2,22,82,0,0
71716,-117.647058823529,4,2,22,82,0,0
71883,-98.0392156862745,4,2,22,62,0,0
72050,-100,4,2,22,72,0,0
82550,-71.4285714285714,4,2,22,72,0,0
82883,-100,4,2,22,72,0,0
83883,-71.4285714285714,4,2,22,72,0,0
84716,-62.5,4,2,22,72,0,0
84883,-83.3333333333333,4,2,22,72,0,0
85050,-62.5,4,2,22,72,0,0
85216,-83.3333333333333,4,2,22,72,0,0
85383,-83.3333333333333,4,2,22,62,0,0

[Colours]
Combo1 : 241,150,223
Combo2 : 65,250,222
Combo3 : 252,255,113

[HitObjects]
24,137,4050,5,2,1:2:0:0:
33,141,4133,1,0,0:2:0:0:
42,145,4216,2,0,L|87:137,1,40.8000002490234,2|2,0:2|0:2,0:0:0:0:
229,189,4383,1,2,1:2:0:0:
220,193,4466,1,0,0:2:0:0:
210,196,4549,2,0,L|164:188,1,40.8000002490234,2|0,0:2|0:2,0:0:0:0:
94,320,4716,6,0,L|80:230,1,80,0|0,3:2|3:2,0:0:0:0:
170,30,5050,1,0,3:2:0:0:
166,39,5133,1,0,3:2:0:0:
163,48,5216,2,0,L|171:94,1,40.8000002490234,0|0,3:2|3:2,0:0:0:0:
339,226,5383,6,0,P|394:192|474:227,1,120,6|0,1:2|0:0,0:0:0:0:
503,307,5716,2,0,P|467:300|424:294,1,80,10|0,0:2|0:2,0:0:0:0:
287,142,6050,1,2,1:2:0:0:
283,133,6133,1,2,0:2:0:0:
280,124,6216,2,0,L|292:45,1,80,2|10,0:2|0:2,0:0:0:0:
115,253,6716,6,0,L|122:300,2,40,2|2|2,1:2|0:2|0:2,0:0:0:0:
177,160,7050,1,10,0:2:0:0:
34,280,7216,1,2,0:2:0:0:
210,344,7383,1,2,1:2:0:0:
219,348,7466,1,2,0:2:0:0:
228,351,7549,2,0,L|307:338,1,80,2|10,0:2|0:2,0:0:0:0:
396,363,7883,1,0,0:2:0:0:
263,214,8050,6,0,L|257:254,2,40,2|2|2,1:2|0:2|0:2,0:0:0:0:
418,118,8383,1,10,0:2:0:0:
353,189,8550,1,0,0:2:0:0:
268,49,8716,1,2,1:2:0:0:
259,45,8799,1,2,0:2:0:0:
250,42,8883,2,0,L|171:55,1,80,2|10,0:2|0:2,0:0:0:0:
3,17,9216,2,0,L|82:30,1,80,0|2,0:2|1:2,0:0:0:0:
170,147,9550,6,0,L|162:194,1,40,2|2,0:2|0:2,0:0:0:0:
178,156,9716,2,0,L|170:203,1,40,10|0,0:2|0:0,0:0:0:0:
72,304,9883,6,0,L|80:351,1,40,0|0,0:2|0:0,0:0:0:0:
64,313,10049,2,0,L|72:360,1,40,2|2,1:2|0:2,0:0:0:0:
36,204,10216,1,2,0:2:0:0:
193,312,10383,2,0,P|231:317|272:299,1,80,10|4,0:2|0:3,0:0:0:0:
466,374,10716,6,0,P|418:341|360:350,1,120,2|0,1:2|0:0,0:0:0:0:
345,260,11050,2,0,L|357:181,1,80,10|0,0:2|0:2,0:0:0:0:
277,37,11383,1,2,1:2:0:0:
273,46,11466,1,2,0:2:0:0:
270,55,11550,2,0,L|282:134,1,80,2|10,0:2|0:2,0:0:0:0:
93,170,12050,6,0,L|140:177,2,40,2|2|2,1:2|0:2|0:2,0:0:0:0:
0,232,12383,1,10,0:2:0:0:
120,89,12550,1,2,0:2:0:0:
184,265,12717,1,2,1:2:0:0:
188,274,12800,1,2,0:2:0:0:
191,283,12883,2,0,L|178:362,1,80,2|10,0:2|0:2,0:0:0:0:
78,302,13216,1,0,0:2:0:0:
287,363,13383,6,0,L|326:356,2,40,2|2|2,1:2|0:2|0:2,0:0:0:0:
466,247,13716,1,10,0:2:0:0:
427,341,13883,1,2,0:2:0:0:
318,216,14050,1,2,1:2:0:0:
314,207,14133,1,2,0:2:0:0:
311,198,14216,2,0,L|324:119,1,80,2|10,0:2|0:2,0:0:0:0:
216,0,14550,2,0,L|229:78,1,80,0|2,0:2|1:2,0:0:0:0:
153,145,14883,6,0,L|113:138,1,40,2|2,0:2|0:2,0:0:0:0:
162,137,15050,2,0,L|115:129,1,40,10|0,0:2|0:0,0:0:0:0:
9,237,15216,6,0,L|48:230,1,40,0|0,0:2|0:0,0:0:0:0:
196,359,15383,2,0,L|183:279,1,80,6|6,1:3|0:3,0:0:0:0:
376,201,15716,1,14,0:3:0:0:
376,201,15883,2,0,L|297:188,1,80,6|4,1:3|1:2,0:0:0:0:
157,48,16216,5,0,0:2:0:0:
149,57,16383,2,0,L|161:135,1,64,10|0,0:2|0:2,0:0:0:0:
258,58,16716,2,0,P|251:-5|241:-19,1,64,2|2,1:2|0:2,0:0:0:0:
348,103,17050,2,0,L|426:117,1,64,10|2,0:2|0:2,0:0:0:0:
512,197,17383,6,0,B|444:197|452:235|372:234,1,128,2|10,1:2|0:2,0:0:0:0:
272,188,17883,1,2,0:2:0:0:
278,195,17966,1,0,0:0:0:0:
284,202,18050,2,0,L|294:274,1,64,2|2,1:2|0:2,0:0:0:0:
366,144,18383,1,8,0:2:0:0:
194,242,18550,6,0,B|163:215|118:215|118:215|89:242|60:245,1,128,2|2,0:2|0:2,0:0:0:0:
31,90,19050,2,0,P|42:133|48:172,1,64,10|0,0:2|0:2,0:0:0:0:
136,320,19383,2,0,P|125:363|119:402,1,64,0|0,1:2|0:2,0:0:0:0:
34,319,19716,1,8,0:2:0:0:
222,369,19883,6,0,P|311:354|347:349,1,96,0|0,0:2|0:0,0:0:0:0:
331,356,20216,1,2,0:2:0:0:
463,298,20383,2,0,L|384:283,1,64,10|2,0:2|0:2,0:0:0:0:
340,163,20716,2,0,P|318:207|315:240,1,64,2|2,1:2|0:2,0:0:0:0:
433,73,21050,1,10,0:2:0:0:
436,64,21133,1,2,0:2:0:0:
432,55,21216,1,2,0:2:0:0:
425,49,21300,1,2,0:2:0:0:
416,47,21383,6,0,B|377:49|343:63|343:63|308:55|307:18,1,128,2|8,1:2|0:2,0:0:0:0:
178,126,21883,1,0,0:2:0:0:
263,197,22050,2,0,P|272:148|283:123,1,64,2|0,1:2|0:2,0:0:0:0:
78,161,22383,2,0,P|69:112|58:87,1,64,10|0,0:2|0:2,0:0:0:0:
192,0,22716,6,0,B|169:66|199:69|176:134,1,128,2|8,1:2|0:2,0:0:0:0:
30,250,23216,1,2,0:2:0:0:
103,304,23383,2,0,P|147:298|180:293,1,64,2|2,1:2|0:2,0:0:0:0:
52,382,23716,1,10,0:2:0:0:
224,224,23883,5,2,0:2:0:0:
231,228,23966,1,0,0:0:0:0:
237,233,24050,2,0,P|252:265|257:296,1,64,0|0,0:0|0:2,0:0:0:0:
412,268,24383,2,0,P|397:300|392:331,1,64,8|0,0:2|0:2,0:0:0:0:
231,235,24716,2,0,P|246:267|251:298,1,64,0|0,1:2|0:2,0:0:0:0:
418,269,25049,2,0,P|403:301|398:332,1,64,8|0,0:2|0:2,0:0:0:0:
340,175,25383,6,0,P|348:129|355:95,1,64,2|0,1:2|0:2,0:0:0:0:
431,15,25716,2,0,B|442:49|442:49|436:82,1,64,10|0,0:2|0:2,0:0:0:0:
261,123,26050,2,0,P|203:110|170:105,1,64,2|0,3:2|3:2,0:0:0:0:
191,114,26300,1,2,0:0:0:0:
185,121,26383,6,0,L|195:181,1,55.9999982910157,10|0,0:2|0:0,0:0:0:0:
116,290,26550,6,0,L|128:210,1,55.9999982910157,0|0,3:2|1:2,0:0:0:0:
50,145,26883,5,0,0:2:0:0:
42,155,27050,2,0,B|31:189|31:189|45:223,1,64,10|2,0:2|0:2,0:0:0:0:
214,276,27383,2,0,P|272:268|339:259,1,96,2|0,1:2|0:0,0:0:0:0:
321,271,27716,2,0,P|315:319|312:344,1,64,10|2,0:2|0:2,0:0:0:0:
431,212,28050,5,2,1:2:0:0:
465,324,28216,2,0,P|412:308|378:304,1,64,2|10,0:2|0:2,0:0:0:0:
317,111,28550,1,2,0:2:0:0:
324,116,28633,1,0,0:0:0:0:
331,120,28716,2,0,P|338:170|343:207,1,64,2|2,1:2|0:2,0:0:0:0:
431,212,29050,1,8,0:2:0:0:
230,147,29216,6,0,B|165:138|167:170|92:156,1,128,2|2,0:2|0:2,0:0:0:0:
4,83,29716,2,0,P|45:73|72:62,1,64,10|0,0:2|0:2,0:0:0:0:
24,245,30050,2,0,P|65:255|92:266,1,64,0|0,1:2|0:2,0:0:0:0:
103,157,30383,1,8,0:2:0:0:
197,255,30550,6,0,P|175:346|168:374,1,96,0|0,0:2|0:0,0:0:0:0:
166,355,30883,1,2,0:2:0:0:
302,233,31050,2,0,P|292:188|286:154,1,64,10|2,0:2|0:2,0:0:0:0:
379,318,31383,2,0,P|380:357|366:388,1,64,2|2,1:2|0:2,0:0:0:0:
493,204,31716,1,10,0:2:0:0:
501,203,31800,1,2,0:2:0:0:
506,206,31883,1,2,0:2:0:0:
512,212,31966,1,2,0:2:0:0:
511,220,32050,6,0,B|485:192|432:195|432:195|405:228|380:230,1,128,2|8,1:2|0:2,0:0:0:0:
272,177,32550,1,0,0:2:0:0:
333,83,32716,2,0,P|349:125|359:158,1,64,2|2,1:2|0:2,0:0:0:0:
430,42,33050,2,0,P|464:21|505:20,1,64,10|2,0:2|0:2,0:0:0:0:
229,67,33383,6,0,L|141:52,1,64,2|2,1:2|0:2,0:0:0:0:
24,116,33716,1,10,0:2:0:0:
125,214,33883,1,2,0:2:0:0:
131,206,34049,2,0,P|120:156|115:126,1,64,2|2,1:2|0:2,0:0:0:0:
247,208,34383,2,0,P|234:276|224:348,1,128,8|0,0:2|1:2,0:0:0:0:
134,293,34883,5,2,0:2:0:0:
316,376,35050,2,0,P|364:371|391:352,1,64,10|2,0:2|0:2,0:0:0:0:
490,287,35383,2,0,P|428:275|410:273,1,64,2|2,1:2|0:2,0:0:0:0:
285,211,35716,2,0,P|316:205|347:198,1,64,10|2,0:2|0:2,0:0:0:0:
414,81,36050,6,0,B|422:50|422:50|408:0,1,64,2|0,1:2|0:2,0:0:0:0:
315,101,36383,1,8,0:2:0:0:
453,177,36550,1,8,0:2:0:0:
255,318,36883,5,8,0:2:0:0:
163,298,37050,1,0,1:2:0:0:
66,280,37216,1,8,0:2:0:0:
63,273,37300,1,8,0:2:0:0:
60,266,37383,1,4,1:2:0:0:
228,155,37550,5,0,0:2:0:0:
236,164,37717,2,0,L|224:242,1,64,10|0,0:2|0:2,0:0:0:0:
345,165,38050,2,0,P|338:102|328:88,1,64,2|2,1:2|0:2,0:0:0:0:
458,6,38383,2,0,P|448:36|451:68,1,64,10|2,0:2|0:2,0:0:0:0:
508,222,38716,6,0,L|444:211,1,64,2|2,1:2|0:2,0:0:0:0:
291,286,39050,2,0,L|354:275,1,64,10|2,0:2|0:2,0:0:0:0:
92,177,39550,5,8,0:2:0:0:
267,62,39883,1,8,0:2:0:0:
271,71,39966,1,0,0:0:0:0:
274,80,40050,5,0,1:2:0:0:
167,7,40216,1,2,0:2:0:0:
192,232,40383,2,0,L|181:295,1,64,10|2,0:2|0:2,0:0:0:0:
81,113,40716,2,0,L|91:176,1,64,2|2,1:2|0:2,0:0:0:0:
283,281,41050,2,0,L|346:270,1,64,10|2,0:2|0:2,0:0:0:0:
500,231,41383,6,0,L|437:220,1,64,2|2,1:2|0:2,0:0:0:0:
348,68,41716,2,0,B|340:37|340:37|348:6,1,64,10|2,0:2|0:2,0:0:0:0:
192,232,42216,5,8,0:2:0:0:
91,176,42550,1,8,0:2:0:0:
82,180,42633,1,8,0:2:0:0:
73,183,42717,5,0,1:2:0:0:
181,46,42883,1,2,0:2:0:0:
189,55,43050,2,0,B|197:85|197:85|189:116,1,64,10|2,0:2|0:2,0:0:0:0:
308,228,43383,2,0,P|336:222|371:217,1,64,2|2,1:2|0:2,0:0:0:0:
512,313,43716,2,0,P|483:307|449:302,1,64,10|2,0:2|0:2,0:0:0:0:
332,132,44050,6,0,P|341:83|352:58,1,64,2|2,1:2|0:2,0:0:0:0:
205,293,44383,2,0,P|201:262|191:231,1,64,10|2,0:2|0:2,0:0:0:0:
407,322,44883,5,8,0:2:0:0:
323,245,45216,1,8,0:2:0:0:
314,249,45299,1,8,0:2:0:0:
305,252,45383,5,0,1:2:0:0:
391,90,45550,1,2,0:2:0:0:
399,99,45716,2,0,P|407:133|398:164,1,64,10|2,0:2|0:2,0:0:0:0:
210,250,46050,5,2,1:2:0:0:
117,233,46217,1,2,0:2:0:0:
24,216,46383,1,10,0:2:0:0:
263,70,46550,5,10,0:2:0:0:
267,79,46633,1,8,0:2:0:0:
270,88,46716,2,0,L|258:167,1,80,10|8,0:2|0:2,0:0:0:0:
357,54,47050,1,8,0:2:0:0:
169,118,47216,2,0,L|90:105,1,80,8|0,0:2|0:0,0:0:0:0:
337,224,47550,6,0,L|406:212,1,60.0000022888184,4|0,1:3|0:0,0:0:0:0:
161,316,47716,6,0,L|91:304,1,60.0000022888184,4|0,1:3|0:0,0:0:0:0:
463,118,48050,5,6,1:2:0:0:
507,210,48217,1,2,0:2:0:0:
325,332,48384,5,10,0:2:0:0:
343,231,48550,1,2,0:2:0:0:
433,280,48716,5,2,1:2:0:0:
253,182,48883,2,0,L|170:195,1,83.9999974365235,2|8,0:2|0:2,0:0:0:0:
367,29,49216,1,2,0:2:0:0:
371,38,49299,1,0,0:0:0:0:
374,47,49383,6,0,L|360:136,1,83.9999974365235,2|0,1:2|0:0,0:0:0:0:
79,22,49716,2,0,L|92:111,1,83.9999974365235,8|2,0:2|3:2,0:0:0:0:
26,278,50050,5,2,1:2:0:0:
119,261,50217,1,0,0:2:0:0:
212,244,50383,1,10,0:2:0:0:
222,252,50550,1,2,0:2:0:0:
378,164,50716,6,0,B|409:83|409:83|358:-5,2,167.999994873047,2|10|2,1:2|0:2|1:2,0:0:0:0:
378,164,51550,1,0,0:2:0:0:
285,93,51716,1,10,0:2:0:0:
471,235,51883,1,2,3:2:0:0:
363,280,52050,6,0,B|265:263|294:324|190:301,1,167.999994873047,2|8,1:2|0:2,0:0:0:0:
113,130,52550,1,2,3:2:0:0:
117,139,52633,1,2,3:2:0:0:
120,148,52717,2,0,L|106:230,1,83.9999974365235,2|0,1:2|0:2,0:0:0:0:
41,96,53050,2,0,L|-27:108,1,60.0000022888184,8|0,0:2|0:0,0:0:0:0:
192,218,53216,2,0,L|260:230,1,60.0000022888184,0|0,1:2|0:0,0:0:0:0:
284,98,53383,6,0,L|267:-10,1,83.9999974365235,6|0,1:2|0:2,0:0:0:0:
404,190,53716,2,0,L|421:82,1,83.9999974365235,10|0,0:2|1:2,0:0:0:0:
150,333,54050,2,0,B|248:350|219:289|323:312,1,167.999994873047,6|10,1:2|0:2,0:0:0:0:
311,309,54550,1,2,1:2:0:0:
192,218,54716,6,0,P|175:172|183:137,1,83.9999974365235,6|0,1:2|0:2,0:0:0:0:
62,0,55050,2,0,L|48:82,1,83.9999974365235,10|0,0:2|1:2,0:0:0:0:
324,170,55383,2,0,B|367:131|423:139|423:139|449:167|490:161,1,167.999994873047,6|10,1:2|0:2,0:0:0:0:
477,163,55883,1,0,1:2:0:0:
264,330,56050,6,0,L|277:247,1,83.9999974365235,6|0,1:2|0:0,0:0:0:0:
369,92,56383,1,8,0:2:0:0:
187,238,56550,1,2,3:2:0:0:
178,242,56633,1,0,3:2:0:0:
169,245,56716,6,0,B|105:234|105:234|63:248|63:248|-7:237,2,167.999994873047,2|8|4,1:2|0:2|1:2,0:0:0:0:
169,245,57550,1,2,0:2:0:0:
210,69,57716,2,0,L|223:151,1,83.9999974365235,10|2,0:2|0:2,0:0:0:0:
408,56,58050,2,0,L|394:138,1,83.9999974365235,2|14,1:2|0:2,0:0:0:0:
305,5,58383,1,12,0:2:0:0:
497,189,58550,1,0,1:2:0:0:
493,198,58633,1,0,1:2:0:0:
490,207,58717,5,6,1:2:0:0:
378,255,58883,1,2,0:2:0:0:
294,137,59050,5,10,0:2:0:0:
178,99,59216,1,2,0:2:0:0:
47,191,59383,5,2,1:2:0:0:
171,311,59550,2,0,B|177:270|177:270|164:221,1,83.9999974365235,2|8,0:2|0:2,0:0:0:0:
297,377,59883,5,2,0:2:0:0:
299,369,59966,1,0,0:0:0:0:
304,362,60050,2,0,P|352:348|421:345,1,83.9999974365235,2|0,1:2|0:0,0:0:0:0:
295,142,60383,2,0,P|343:156|412:159,1,83.9999974365235,8|2,0:2|3:2,0:0:0:0:
510,252,60716,5,2,1:2:0:0:
502,262,60883,1,0,0:2:0:0:
406,254,61050,1,10,0:2:0:0:
307,249,61216,1,2,0:2:0:0:
208,140,61383,6,0,B|173:94|112:109|112:109|81:159|39:155,2,167.999994873047,2|10|2,1:2|0:2|1:2,0:0:0:0:
208,140,62216,1,0,0:2:0:0:
161,233,62383,1,10,0:2:0:0:
266,46,62550,1,2,3:2:0:0:
307,204,62716,6,0,P|396:192|490:182,1,167.999994873047,2|8,1:2|0:2,0:0:0:0:
373,316,63216,1,2,3:2:0:0:
365,319,63300,1,2,3:2:0:0:
357,322,63383,2,0,B|318:333|318:333|270:318,1,83.9999974365235,2|0,1:2|0:2,0:0:0:0:
193,215,63716,6,0,L|206:150,1,60.0000022888184,8|0,0:2|0:0,0:0:0:0:
78,299,63883,2,0,L|65:234,1,60.0000022888184,0|0,1:2|0:0,0:0:0:0:
8,108,64050,6,0,P|52:118|99:130,1,83.9999974365235,6|0,1:2|0:2,0:0:0:0:
234,0,64383,2,0,P|177:7|150:28,1,83.9999974365235,10|0,0:2|1:2,0:0:0:0:
277,201,64716,2,0,B|362:201|349:147|453:154,1,167.999994873047,6|10,1:2|0:2,0:0:0:0:
435,153,65216,1,2,1:2:0:0:
365,374,65383,6,0,B|350:332|350:332|356:282,1,83.9999974365235,6|0,1:2|0:2,0:0:0:0:
454,77,65716,2,0,L|441:179,1,83.9999974365235,10|0,0:2|1:2,0:0:0:0:
221,319,66050,2,0,B|172:311|126:290|126:290|87:313|95:354,1,167.999994873047,6|10,1:2|0:2,0:0:0:0:
93,345,66550,1,0,1:2:0:0:
200,205,66716,6,0,P|211:130|217:96,1,83.9999974365235,6|0,1:2|0:0,0:0:0:0:
311,189,67050,1,8,0:2:0:0:
95,144,67216,1,2,3:2:0:0:
87,140,67300,1,0,0:0:0:0:
81,134,67383,6,0,P|71:49|139:8,2,167.999994873047,2|8|4,1:2|0:2|1:2,0:0:0:0:
81,134,68216,1,2,0:2:0:0:
163,280,68383,2,0,B|173:323|173:323|160:367,1,83.9999974365235,10|2,0:2|0:2,0:0:0:0:
41,242,68716,1,2,1:2:0:0:
283,322,68883,6,0,L|424:303,1,125.999996154785,14|0,0:2|0:0,0:0:0:0:
473,337,69216,6,0,L|391:321,1,54.0000002059937,0|0,1:2|1:2,0:0:0:0:
353,210,69383,6,0,P|363:143|393:115,1,83.9999974365235,0|2,1:2|0:2,0:0:0:0:
465,14,69716,2,0,L|472:117,1,83.9999974365235,10|2,0:2|0:2,0:0:0:0:
340,22,70050,1,2,1:2:0:0:
460,201,70216,1,2,1:2:0:0:
467,204,70300,1,0,0:0:0:0:
474,202,70383,1,10,0:2:0:0:
262,125,70550,6,0,B|234:93|183:103|183:103|165:137|147:144,1,125.999996154785,2|0,1:2|0:0,0:0:0:0:
95,71,70883,6,0,L|82:-3,1,58.0000017700196,8|0,1:2|0:0,0:0:0:0:
211,264,71050,6,0,L|221:206,1,58.0000017700196,8|0,1:2|0:0,0:0:0:0:
2,362,71716,6,0,L|95:346,1,68.0000012969971,0|0,0:0|3:2,0:0:0:0:
77,356,71966,1,0,3:2:0:0:
86,360,72050,6,0,B|165:369|157:313|252:322,1,160,6|10,1:2|0:2,0:0:0:0:
411,372,72550,1,0,0:2:0:0:
337,204,72716,1,2,1:2:0:0:
330,209,72800,1,2,0:2:0:0:
324,215,72883,2,0,L|335:304,1,80,2|10,0:2|0:2,0:0:0:0:
410,76,73383,6,0,L|402:128,2,40,2|2|2,1:2|0:2|0:2,0:0:0:0:
332,7,73716,1,10,0:2:0:0:
507,112,73883,1,2,0:2:0:0:
335,210,74050,1,2,1:2:0:0:
329,202,74133,1,2,0:2:0:0:
322,195,74216,2,0,P|266:177|228:185,1,80,2|10,0:2|0:2,0:0:0:0:
58,290,74550,1,0,0:2:0:0:
170,384,74716,6,0,P|153:278|145:241,1,120,2|0,1:2|0:0,0:0:0:0:
245,179,75050,2,0,P|238:240|237:274,1,80,10|0,0:2|0:2,0:0:0:0:
137,106,75383,1,2,1:2:0:0:
130,103,75466,1,2,0:2:0:0:
122,104,75550,1,2,0:2:0:0:
10,196,75716,2,0,B|53:205|53:205|97:189,1,80,10|0,0:2|0:2,0:0:0:0:
219,10,76050,6,0,L|230:103,1,80,2|2,1:2|0:2,0:0:0:0:
335,237,76383,6,0,L|341:197,1,40,10|0,0:2|0:0,0:0:0:0:
348,231,76550,2,0,L|354:191,1,40,0|0,0:2|0:0,0:0:0:0:
438,58,76716,6,0,L|444:98,1,40,2|2,1:2|0:2,0:0:0:0:
451,64,76883,2,0,L|457:104,1,40,2|2,0:2|0:2,0:0:0:0:
512,240,77050,2,0,P|481:219|436:216,1,80,10|4,0:2|0:3,0:0:0:0:
282,344,77383,5,2,1:2:0:0:
286,352,77466,1,2,0:2:0:0:
291,361,77549,2,0,L|387:348,1,80,2|10,0:2|0:2,0:0:0:0:
196,241,77883,1,0,0:2:0:0:
322,162,78050,2,0,P|309:223|305:263,1,80,2|2,1:2|0:2,0:0:0:0:
93,333,78383,2,0,P|87:293|77:254,1,80,10|0,0:2|0:2,0:0:0:0:
164,110,78716,6,0,L|172:62,2,40,2|2|2,1:2|0:2|0:2,0:0:0:0:
91,0,79050,1,10,0:2:0:0:
264,112,79216,1,2,0:2:0:0:
66,183,79383,1,2,1:2:0:0:
59,179,79466,1,2,0:2:0:0:
52,175,79550,2,0,B|42:134|42:134|61:91,1,80,2|10,0:2|0:2,0:0:0:0:
178,221,79883,1,0,0:2:0:0:
0,381,80050,6,0,P|58:368|131:361,1,120,2|0,1:2|0:0,0:0:0:0:
199,303,80383,2,0,P|144:287|105:271,1,80,10|2,0:2|0:2,0:0:0:0:
283,205,80717,1,2,1:2:0:0:
287,213,80800,1,2,0:2:0:0:
286,222,80883,1,2,0:2:0:0:
210,85,81050,2,0,P|188:131|195:168,1,80,10|0,0:2|0:2,0:0:0:0:
400,278,81383,5,2,1:2:0:0:
316,361,81550,2,0,L|306:304,1,40,2|2,0:2|0:2,0:0:0:0:
302,353,81716,2,0,L|292:296,1,40,10|0,0:2|0:0,0:0:0:0:
477,210,81883,6,0,L|487:153,1,40,0|0,0:2|0:0,0:0:0:0:
488,222,82050,1,6,1:3:0:0:
416,57,82216,2,0,B|376:53|376:53|328:81,1,80,6|14,0:3|0:3,0:0:0:0:
223,184,82550,6,0,L|289:194,1,55.9999982910157,6|0,1:3|0:0,0:0:0:0:
57,371,82883,5,2,1:2:0:0:
46,367,82967,1,2,1:2:0:0:
39,358,83050,2,0,P|26:311|48:268,1,80,2|2,1:2|1:2,0:0:0:0:
108,130,83383,2,0,L|122:229,1,80,14|6,0:3|1:3,0:0:0:0:
6,100,83716,1,14,0:3:0:0:
223,184,83883,6,0,L|278:175,1,55.9999982910157,6|0,1:3|0:0,0:0:0:0:
480,368,84216,5,2,1:2:0:0:
476,374,84299,1,2,1:2:0:0:
470,376,84383,1,2,1:2:0:0:
367,340,84550,1,2,1:2:0:0:
467,141,84716,6,0,L|450:225,1,64,14|0,0:3|0:0,0:0:0:0:
458,278,84883,2,0,L|446:221,1,47.9999985351563,6|0,1:3|0:0,0:0:0:0:
272,85,85050,6,0,L|289:169,1,64,14|0,0:3|0:0,0:0:0:0:
281,222,85217,2,0,L|293:165,1,47.9999985351563,6|0,1:3|0:0,0:0:0:0:
378,12,85383,5,4,1:2:0:0:
