osu file format v14

[General]
AudioFilename: audio.mp3
AudioLeadIn: 993
PreviewTime:47966
Countdown: 0
SampleSet: Soft
StackLeniency: 0.7
Mode: 0
LetterboxInBreaks: 0
WidescreenStoryboard: 1

[Editor]
Bookmarks: 5383,16050,26716,37383,48050,58716,69383,72050,81383,85383
DistanceSpacing: 1.3
BeatDivisor: 4
GridSize: 32
TimelineZoom: 2.6

[Metadata]
Title:Triple Baka
TitleUnicode:驫麤~とりぷるばか~
Artist:LamazeP
ArtistUnicode:ラマーズP
Creator:Sotarks
Version:Eli's Hard
Source:
Tags:初音ミク 重音テト 亞北ネル Hatsune Miku Kasane Teto Akita Neru Niconico Vocaloid Japanese Female Fool Stupid Short Cut Edit Version Electronic kudosu kowari chiga elinor eli [_eli_] soop so0p charlotte surono yasuho ayyri eiri-
BeatmapID:2553198
BeatmapSetID:1224831

[Difficulty]
HPDrainRate:4.8
CircleSize:3.6
OverallDifficulty:7
ApproachRate:8
SliderMultiplier:1.4
SliderTickRate:1

[Events]
//Background and Video events
0,0,"bg.jpg"
//Break Periods
//Storyboard Layer 0 (Background)
//Storyboard Layer 1 (Fail)
//Storyboard Layer 2 (Pass)
//Storyboard Layer 3 (Foreground)
//Storyboard Layer 4 (Overlay)
//Storyboard Sound Samples

[TimingPoints]
-1283,333.333333333333,4,2,22,52,1,0
4050,-100,4,2,22,52,0,0
5383,-100,4,2,22,72,0,0
5633,-100,4,2,22,5,0,0
5716,-100,4,2,22,72,0,0
10966,-100,4,2,22,5,0,0
11050,-100,4,2,22,72,0,0
16050,-111.111111111111,4,2,22,62,0,0
26716,-111.111111111111,4,2,22,62,0,0
37383,-111.111111111111,4,2,22,62,0,0
48050,-90.9090909090909,4,2,22,82,0,1
69383,-90.9090909090909,4,2,22,82,0,0
70800,-90.9090909090909,4,2,22,5,0,0
70883,-90.9090909090909,4,2,22,82,0,0
71883,-90.9090909090909,4,2,22,62,0,0
72050,-100,4,2,22,72,0,0
77633,-100,4,2,22,5,0,0
77716,-100,4,2,22,72,0,0
85383,-100,4,2,22,62,0,0
89383,-100,4,2,22,5,0,0

[Colours]
Combo1 : 241,150,223
Combo2 : 65,250,222
Combo3 : 252,255,113

[HitObjects]
96,60,4050,6,0,L|60:68,2,35,2|0|2,1:2|0:2|0:2,0:2:0:0:
172,112,4383,2,0,L|208:120,2,35,2|0|2,1:2|0:2|0:2,0:2:0:0:
100,168,4716,2,0,P|96:204|92:240,1,70,0|0,3:2|3:2,0:0:0:0:
128,320,5050,2,0,L|164:316,3,35,0|0|0|0,3:2|3:2|3:2|3:2,0:0:0:0:
208,312,5383,6,0,B|256:304|256:344|308:336,1,105,6|0,1:2|0:0,0:2:0:0:
340,304,5716,2,0,L|349:229,1,70,10|0,0:2|0:2,0:2:0:0:
388,152,6050,2,0,L|424:160,2,35,2|2|2,1:2|0:2|0:2,0:0:0:0:
300,128,6383,2,0,L|232:116,1,70,10|0,0:2|0:2,0:2:0:0:
144,136,6716,5,2,1:2:0:0:
144,136,6800,1,2,0:2:0:0:
144,136,6883,1,2,0:2:0:0:
88,208,7050,2,0,L|100:280,1,70,10|2,0:2|0:2,0:0:0:0:
176,328,7383,2,0,L|168:368,2,35,2|2|2,1:2|0:2|0:2,0:0:0:0:
224,252,7716,2,0,L|296:244,1,70,10|0,0:2|0:2,0:2:0:0:
376,284,8050,5,2,1:2:0:0:
376,284,8133,1,2,0:2:0:0:
376,284,8216,1,2,0:2:0:0:
436,216,8383,2,0,L|424:148,1,70,10|0,0:2|0:2,0:2:0:0:
420,56,8716,2,0,L|456:64,2,35,2|2|2,1:2|0:2|0:2,0:0:0:0:
332,36,9050,2,0,P|296:32|264:40,1,70,10|0,0:2|0:2,0:2:0:0:
136,172,9550,5,2,0:2:0:0:
136,172,9716,2,0,L|124:244,1,70,10|0,0:2|0:2,0:2:0:0:
44,288,10050,2,0,L|32:218,1,70,2|2,1:2|0:2,0:0:0:0:
16,128,10383,2,0,P|48:108|80:108,1,70,10|4,0:2|0:3,0:0:0:0:
172,116,10716,6,0,B|232:112|220:156|272:152,1,105,2|0,1:2|0:0,0:0:0:0:
308,172,11050,2,0,L|323:240,1,70,10|0,0:2|0:2,0:2:0:0:
372,316,11383,1,2,1:2:0:0:
372,316,11466,1,2,0:2:0:0:
372,316,11550,1,2,0:2:0:0:
448,264,11716,2,0,L|456:188,1,70,10|0,0:2|0:2,0:2:0:0:
464,104,12050,6,0,L|500:108,2,35,2|2|2,1:2|0:2|0:2,0:0:0:0:
372,96,12383,2,0,L|360:168,1,70,10|2,0:2|0:2,0:0:0:0:
312,244,12716,1,2,1:2:0:0:
312,244,12800,1,2,0:2:0:0:
312,244,12883,1,2,0:2:0:0:
260,168,13050,2,0,L|248:98,1,70,10|0,0:2|0:2,0:2:0:0:
172,48,13383,6,0,L|176:12,2,35,2|2|2,1:2|0:2|0:2,0:0:0:0:
104,108,13716,2,0,L|116:176,1,70,10|2,0:2|0:2,0:0:0:0:
136,268,14050,1,2,1:2:0:0:
136,268,14133,1,2,0:2:0:0:
136,268,14216,1,2,0:2:0:0:
216,312,14383,2,0,L|284:300,1,70,10|0,0:2|0:2,0:2:0:0:
464,340,14883,5,2,0:2:0:0:
496,256,15050,2,0,P|496:212|484:188,1,70,10|0,0:2|0:2,0:2:0:0:
420,124,15383,2,0,P|380:124|356:140,1,70,6|6,1:3|0:3,0:0:0:0:
304,216,15716,2,0,P|264:216|240:200,1,70,14|6,0:3|1:3,0:0:0:0:
108,104,16216,5,0,0:2:0:0:
108,104,16383,2,0,L|100:168,1,62.9999980773926,10|0,0:2|0:2,0:2:0:0:
48,228,16716,2,0,L|64:292,1,62.9999980773926,2|2,1:2|0:2,0:0:0:0:
124,344,17050,2,0,L|188:332,1,62.9999980773926,10|2,0:2|0:2,0:0:0:0:
232,264,17383,6,0,B|296:268|276:312|344:316,1,125.999996154785,2|10,1:2|0:2,0:2:0:0:
424,308,17883,1,2,0:2:0:0:
457,233,18050,2,0,L|447:168,1,62.9999980773926,2|2,1:2|0:2,0:0:0:0:
406,100,18383,1,8,0:2:0:0:
324,89,18550,6,0,P|275:100|245:167,1,125.999996154785,2|2,0:2|0:2,0:2:0:0:
224,243,19050,2,0,L|160:255,1,62.9999980773926,10|0,0:2|0:2,0:2:0:0:
87,220,19383,2,0,L|75:152,1,62.9999980773926,0|0,1:2|0:2,0:2:0:0:
83,76,19716,2,0,L|147:64,1,62.9999980773926,8|0,0:2|0:2,0:2:0:0:
304,44,20216,5,2,0:2:0:0:
304,44,20383,2,0,P|312:76|320:112,1,62.9999980773926,10|2,0:2|0:2,0:0:0:0:
384,152,20716,2,0,P|376:182|369:213,1,62.9999980773926,2|2,1:2|0:2,0:0:0:0:
348,292,21050,2,0,L|312:304,3,31.4999990386963,10|2|2|2,0:2|0:2|0:2|0:2,0:0:0:0:
276,308,21383,6,0,B|212:300|224:344|156:336,1,125.999996154785,2|8,1:2|0:2,0:2:0:0:
100,276,21883,1,0,0:2:0:0:
48,212,22050,2,0,P|53:177|60:143,1,62.9999980773926,2|0,1:2|0:2,0:2:0:0:
131,112,22383,2,0,P|141:142|150:175,1,62.9999980773926,10|0,0:2|0:2,0:2:0:0:
204,232,22716,6,0,P|264:232|300:180,1,125.999996154785,2|8,1:2|0:2,0:2:0:0:
316,100,23216,1,2,0:2:0:0:
260,40,23383,2,0,P|228:44|197:48,1,62.9999980773926,2|2,1:2|0:2,0:0:0:0:
116,60,23716,1,10,0:2:0:0:
116,60,23883,5,2,0:2:0:0:
76,132,24050,2,0,P|84:160|92:196,1,62.9999980773926,0|0,0:0|0:2,0:0:0:0:
140,260,24383,2,0,P|132:288|124:324,1,62.9999980773926,8|0,0:2|0:2,0:2:0:0:
48,348,24716,2,0,P|42:316|32:276,1,62.9999980773926,0|0,1:2|0:2,0:2:0:0:
24,204,25050,2,0,P|64:192|84:184,1,62.9999980773926,8|0,0:2|0:2,0:2:0:0:
160,160,25383,6,0,P|196:160|224:176,1,62.9999980773926,2|0,1:2|0:2,0:2:0:0:
272,236,25716,2,0,P|308:236|336:220,1,62.9999980773926,10|0,0:2|0:2,0:2:0:0:
376,156,26050,2,0,P|376:120|360:96,1,62.9999980773926,2|0,3:2|3:2,0:0:0:0:
300,44,26383,2,0,P|260:44|240:56,1,62.9999980773926,10|0,0:2|3:2,0:0:0:0:
172,204,26883,5,0,0:2:0:0:
172,204,27050,2,0,L|188:268,1,62.9999980773926,10|2,0:2|0:2,0:2:0:0:
260,304,27383,2,0,L|275:242,1,62.9999980773926,2|0,1:2|0:0,0:2:0:0:
320,176,27716,2,0,L|383:163,1,62.9999980773926,10|2,0:2|0:2,0:0:0:0:
462,182,28050,5,2,1:2:0:0:
487,259,28216,2,0,L|475:321,1,62.9999980773926,2|10,0:2|0:2,0:0:0:0:
395,342,28550,1,2,0:2:0:0:
331,291,28716,2,0,L|267:306,1,62.9999980773926,2|2,1:2|0:2,0:0:0:0:
199,348,29050,1,8,0:2:0:0:
128,306,29216,6,0,P|128:254|184:214,1,125.999996154785,2|2,0:2|0:2,0:2:0:0:
253,170,29716,2,0,L|241:102,1,62.9999980773926,10|0,0:2|0:2,0:2:0:0:
168,68,30050,2,0,L|157:130,1,62.9999980773926,0|0,1:2|0:2,0:2:0:0:
84,168,30383,2,0,L|73:105,1,62.9999980773926,8|0,0:2|0:2,0:2:0:0:
220,32,30883,5,2,0:2:0:0:
220,32,31050,2,0,P|256:32|280:44,1,62.9999980773926,10|2,0:2|0:2,0:0:0:0:
328,112,31383,2,0,P|364:112|388:100,1,62.9999980773926,2|2,1:2|0:2,0:0:0:0:
468,80,31716,2,0,P|473:97|476:112,3,31.4999990386963,10|2|2|2,0:2|0:2|0:2|0:2,0:0:0:0:
492,148,32050,6,0,P|484:199|476:272,1,125.999996154785,2|8,1:2|0:2,0:2:0:0:
428,340,32550,1,0,0:2:0:0:
372,280,32716,2,0,L|308:296,1,62.9999980773926,2|2,1:2|0:2,0:0:0:0:
252,352,33050,2,0,L|184:332,1,62.9999980773926,10|2,0:2|0:2,0:0:0:0:
144,268,33383,5,2,1:2:0:0:
144,268,33550,1,2,0:2:0:0:
148,188,33716,2,0,P|184:168|204:168,1,62.9999980773926,10|2,0:2|0:2,0:0:0:0:
280,204,34050,1,2,1:2:0:0:
320,274,34216,2,0,P|385:274|430:237,1,125.999996154785,2|0,0:2|0:2,0:0:0:0:
481,80,34883,5,2,0:2:0:0:
481,80,35050,2,0,L|421:64,1,62.9999980773926,10|2,0:2|0:2,0:0:0:0:
344,31,35383,2,0,L|280:55,1,62.9999980773926,2|2,1:2|0:2,0:0:0:0:
231,117,35716,2,0,L|167:97,1,62.9999980773926,10|2,0:2|0:2,0:0:0:0:
91,74,36050,6,0,P|83:103|77:141,1,62.9999980773926,2|0,1:2|0:2,0:2:0:0:
79,217,36383,1,8,0:2:0:0:
79,217,36550,1,8,0:2:0:0:
180,344,36883,1,8,0:2:0:0:
180,344,37050,1,0,1:2:0:0:
228,276,37216,2,0,L|260:280,2,31.4999990386963,8|8|4,0:2|0:2|1:2,0:0:0:0:
180,208,37550,6,0,L|244:196,1,62.9999980773926,0|10,0:2|0:2,0:0:0:0:
308,144,37883,1,0,0:2:0:0:
308,144,38050,2,0,L|316:80,1,62.9999980773926,2|2,1:2|0:2,0:0:0:0:
252,32,38383,2,0,L|188:40,1,62.9999980773926,10|2,0:2|0:2,0:0:0:0:
108,52,38716,6,0,L|100:120,1,62.9999980773926,2|2,1:2|0:2,0:0:0:0:
28,156,39050,1,10,0:2:0:0:
28,156,39216,2,0,L|40:224,1,62.9999980773926,2|0,0:2|1:2,0:2:0:0:
60,296,39550,1,8,0:2:0:0:
220,324,39883,2,0,L|224:356,2,31.4999990386963,8|0|0,0:2|0:0|1:2,0:0:0:0:
216,244,40216,6,0,L|232:180,1,62.9999980773926,2|10,0:2|0:2,0:0:0:0:
304,140,40550,1,2,0:2:0:0:
304,140,40716,2,0,L|312:204,1,62.9999980773926,2|2,1:2|0:2,0:0:0:0:
360,268,41050,2,0,L|424:256,1,62.9999980773926,10|2,0:2|0:2,0:0:0:0:
464,188,41383,6,0,L|456:124,1,62.9999980773926,2|2,1:2|0:2,0:0:0:0:
436,44,41716,1,10,0:2:0:0:
436,44,41883,2,0,L|372:52,1,62.9999980773926,2|0,0:2|1:2,0:2:0:0:
292,60,42216,1,8,0:2:0:0:
164,164,42550,2,0,L|172:200,2,31.4999990386963,8|8|0,0:2|0:2|1:2,0:0:0:0:
144,84,42883,5,2,0:2:0:0:
144,84,43050,2,0,P|112:84|80:96,1,62.9999980773926,10|2,0:2|0:2,0:0:0:0:
44,164,43383,2,0,L|52:232,1,62.9999980773926,2|2,1:2|0:2,0:0:0:0:
84,300,43716,2,0,L|144:316,1,62.9999980773926,10|2,0:2|0:2,0:0:0:0:
224,344,44050,6,0,L|288:328,1,62.9999980773926,2|2,1:2|0:2,0:0:0:0:
328,260,44383,1,10,0:2:0:0:
328,260,44550,2,0,L|392:272,1,62.9999980773926,2|0,0:2|1:2,0:2:0:0:
472,288,44883,1,8,0:2:0:0:
464,124,45216,2,0,L|496:116,2,31.4999990386963,8|8|0,0:2|0:2|1:2,0:0:0:0:
380,128,45550,5,2,0:2:0:0:
380,128,45716,2,0,L|364:64,1,62.9999980773926,10|2,0:2|0:2,0:0:0:0:
288,36,46050,2,0,L|272:97,1,62.9999980773926,2|2,1:2|0:2,0:0:0:0:
256,176,46383,2,0,P|228:192|196:192,1,62.9999980773926,10|10,0:2|0:2,0:0:0:0:
160,172,46633,1,8,0:2:0:0:
160,172,46716,6,0,P|128:156|100:156,1,62.9999980773926,10|8,0:2|0:2,0:0:0:0:
44,212,47050,1,8,0:2:0:0:
52,292,47216,2,0,P|84:312|108:312,1,62.9999980773926,8|0,0:2|0:0,0:0:0:0:
188,292,47550,1,4,1:3:0:0:
188,292,47716,1,4,1:3:0:0:
384,244,48050,6,0,L|460:228,1,77.0000023498536,6|2,1:2|0:2,0:0:0:0:
504,140,48383,2,0,L|428:124,1,77.0000023498536,10|2,0:2|0:2,0:0:0:0:
332,104,48716,2,0,L|316:184,1,77.0000023498536,2|2,1:2|0:2,0:0:0:0:
300,280,49050,1,8,0:2:0:0:
300,280,49216,1,2,0:2:0:0:
232,352,49383,6,0,B|152:352|180:296|92:296,1,154.000004699707,2|8,1:2|0:2,0:2:0:0:
8,344,49883,1,2,3:2:0:0:
16,244,50050,2,0,L|32:164,1,77.0000023498536,2|0,1:2|0:2,0:2:0:0:
116,112,50383,2,0,L|136:192,1,77.0000023498536,10|2,0:2|0:2,0:0:0:0:
168,280,50716,6,0,P|200:304|240:304,1,77.0000023498536,2|0,1:2|0:2,0:2:0:0:
280,212,51050,2,0,P|312:188|352:188,1,77.0000023498536,10|0,0:2|0:2,0:2:0:0:
400,272,51383,2,0,P|432:296|472:296,1,77.0000023498536,2|0,1:2|0:2,0:0:0:0:
508,204,51716,1,10,0:2:0:0:
508,204,51883,1,2,3:2:0:0:
468,112,52050,6,0,B|380:112|416:168|328:168,1,154.000004699707,2|8,1:2|0:2,0:2:0:0:
240,128,52550,1,2,3:2:0:0:
240,128,52633,1,2,3:2:0:0:
240,128,52717,2,0,L|224:204,1,77.0000023498536,2|0,1:2|0:2,0:2:0:0:
140,256,53050,2,0,L|124:180,1,77.0000023498536,8|0,0:2|1:2,0:0:0:0:
108,80,53383,6,0,P|152:56|180:56,1,77.0000023498536,6|0,1:2|0:2,0:2:0:0:
256,120,53716,2,0,P|300:144|328:144,1,77.0000023498536,10|0,0:2|1:2,0:0:0:0:
396,72,54050,2,0,P|384:128|368:224,1,154.000004699707,6|10,1:2|0:2,0:2:0:0:
336,320,54550,1,2,1:2:0:0:
240,348,54716,6,0,P|204:336|160:324,1,77.0000023498536,6|0,1:2|0:2,0:2:0:0:
96,252,55050,2,0,P|132:240|176:228,1,77.0000023498536,10|0,0:2|1:2,0:0:0:0:
268,204,55383,2,0,P|279:240|288:280,1,77.0000023498536,6|0,1:2|1:2,0:0:0:0:
368,336,55716,2,0,P|376:298|387:261,1,77.0000023498536,10|0,0:2|1:2,0:0:0:0:
428,168,56050,6,0,P|400:108|320:112,1,154.000004699707,6|8,1:2|0:2,0:2:0:0:
232,156,56550,1,2,3:2:0:0:
148,208,56716,2,0,P|161:282|176:364,2,154.000004699707,2|8|4,1:2|0:2|1:2,0:2:0:0:
124,108,57550,5,2,0:2:0:0:
188,32,57716,2,0,P|232:32|260:52,1,77.0000023498536,10|2,0:2|0:2,0:0:0:0:
308,140,58050,1,2,1:2:0:0:
368,220,58216,2,0,P|404:220|440:196,1,77.0000023498536,14|12,0:2|0:2,0:0:0:0:
472,104,58550,1,0,1:2:0:0:
472,104,58633,1,0,1:2:0:0:
472,104,58716,6,0,L|396:76,1,77.0000023498536,6|2,1:2|0:2,0:0:0:0:
308,32,59050,2,0,L|235:58,1,77.0000023498536,10|2,0:2|0:2,0:0:0:0:
188,148,59383,2,0,L|112:128,1,77.0000023498536,2|2,1:2|0:2,0:0:0:0:
28,76,59716,1,8,0:2:0:0:
28,76,59883,1,2,0:2:0:0:
24,176,60050,6,0,P|36:236|52:332,1,154.000004699707,2|8,1:2|0:2,0:2:0:0:
148,356,60550,1,2,3:2:0:0:
188,264,60716,2,0,L|264:276,1,77.0000023498536,2|0,1:2|0:2,0:0:0:0:
328,352,61050,2,0,L|408:332,1,77.0000023498536,10|2,0:2|0:2,0:0:0:0:
468,256,61383,6,0,P|468:216|448:184,1,77.0000023498536,2|0,1:2|0:2,0:2:0:0:
364,128,61716,2,0,P|316:128|292:144,1,77.0000023498536,10|0,0:2|0:2,0:2:0:0:
244,232,62050,2,0,P|244:276|260:308,1,77.0000023498536,2|0,1:2|0:2,0:0:0:0:
344,356,62383,2,0,P|384:356|416:336,1,77.0000023498536,10|2,0:2|3:2,0:0:0:0:
464,252,62716,6,0,L|444:96,1,154.000004699707,2|8,1:2|0:2,0:2:0:0:
356,56,63216,1,2,3:2:0:0:
356,56,63300,1,2,3:2:0:0:
356,56,63383,2,0,L|344:132,1,77.0000023498536,2|0,1:2|0:2,0:2:0:0:
260,188,63716,2,0,L|248:112,1,77.0000023498536,8|0,0:2|1:2,0:0:0:0:
192,28,64050,6,0,P|144:28|120:44,1,77.0000023498536,6|0,1:2|0:2,0:2:0:0:
52,116,64383,2,0,P|52:160|72:192,1,77.0000023498536,10|0,0:2|1:2,0:0:0:0:
152,240,64716,2,0,B|232:224|220:284|304:264,1,154.000004699707,6|10,1:2|0:2,0:2:0:0:
396,236,65216,1,2,1:2:0:0:
436,328,65383,6,0,L|360:352,1,77.0000023498536,6|0,1:2|0:2,0:2:0:0:
264,352,65716,2,0,L|184:328,1,77.0000023498536,10|0,0:2|1:2,0:0:0:0:
92,344,66050,2,0,P|104:304|108:264,1,77.0000023498536,6|0,1:2|1:2,0:0:0:0:
20,216,66383,2,0,P|8:176|8:140,1,77.0000023498536,10|0,0:2|1:2,0:0:0:0:
56,52,66716,6,0,B|136:44|116:104|196:100,1,154.000004699707,6|8,1:2|0:2,0:2:0:0:
292,72,67216,1,2,3:2:0:0:
360,144,67383,2,0,P|344:212|328:296,2,154.000004699707,2|8|4,1:2|0:2|1:2,0:0:0:0:
396,52,68216,5,2,0:2:0:0:
480,108,68383,2,0,P|488:152|492:188,1,77.0000023498536,10|2,0:2|0:2,0:0:0:0:
508,284,68716,1,2,1:2:0:0:
436,352,68883,2,0,P|396:352|368:328,1,77.0000023498536,14|12,0:2|0:2,0:0:0:0:
348,232,69216,2,0,L|352:192,2,38.5000011749268,0|0|0,1:2|1:2|1:2,0:0:0:0:
292,316,69550,5,2,0:2:0:0:
212,256,69716,2,0,P|212:216|232:184,1,77.0000023498536,10|2,0:2|0:2,0:0:0:0:
320,140,70050,2,0,L|400:152,1,77.0000023498536,2|2,1:2|1:2,0:0:0:0:
484,104,70383,1,10,0:2:0:0:
416,28,70550,2,0,B|360:24|372:68|308:64,1,115.50000352478,2|0,1:2|0:0,0:0:0:0:
260,56,70883,5,8,1:2:0:0:
260,56,71050,1,8,1:2:0:0:
36,344,71883,1,0,3:2:0:0:
36,344,71966,1,0,3:2:0:0:
36,344,72050,6,0,L|144:324,1,105,6|0,1:2|0:0,0:2:0:0:
184,320,72383,2,0,L|256:336,1,70,10|0,0:2|0:2,0:2:0:0:
344,332,72717,2,0,L|352:368,2,35,2|2|2,1:2|0:2|0:2,0:0:0:0:
328,244,73050,2,0,L|404:228,1,70,10|0,0:2|0:2,0:2:0:0:
480,192,73383,5,2,1:2:0:0:
480,192,73467,1,2,0:2:0:0:
480,192,73550,1,2,0:2:0:0:
444,108,73717,2,0,L|372:92,1,70,10|2,0:2|0:2,0:0:0:0:
296,44,74050,2,0,L|304:4,2,35,2|2|2,1:2|0:2|0:2,0:0:0:0:
240,116,74383,2,0,L|256:192,1,70,10|0,0:2|0:2,0:2:0:0:
264,276,74717,5,2,1:2:0:0:
264,276,74800,1,2,0:2:0:0:
264,276,74883,1,2,0:2:0:0:
208,348,75050,2,0,L|132:336,1,70,10|0,0:2|0:2,0:2:0:0:
92,260,75383,2,0,L|56:268,2,35,2|2|2,1:2|0:2|0:2,0:0:0:0:
172,212,75717,2,0,L|244:220,1,70,10|0,0:2|0:2,0:2:0:0:
416,168,76217,5,2,0:2:0:0:
416,168,76383,2,0,L|404:96,1,70,10|0,0:2|0:2,0:2:0:0:
336,36,76717,2,0,L|324:106,1,70,2|2,1:2|0:2,0:0:0:0:
272,180,77050,2,0,L|200:160,1,70,10|4,0:2|0:3,0:0:0:0:
124,116,77383,6,0,B|72:116|76:156|24:152,1,105,2|0,1:2|0:0,0:0:0:0:
16,196,77717,2,0,L|31:264,1,70,10|0,0:2|0:2,0:2:0:0:
72,344,78050,1,2,1:2:0:0:
72,344,78133,1,2,0:2:0:0:
72,344,78217,1,2,0:2:0:0:
148,296,78383,2,0,L|220:308,1,70,10|0,0:2|0:2,0:2:0:0:
308,308,78717,6,0,L|312:344,2,35,2|2|2,1:2|0:2|0:2,0:0:0:0:
260,232,79050,2,0,L|272:160,1,70,10|2,0:2|0:2,0:0:0:0:
328,92,79383,1,2,1:2:0:0:
328,92,79467,1,2,0:2:0:0:
328,92,79550,1,2,0:2:0:0:
392,156,79717,2,0,L|404:224,1,70,10|0,0:2|0:2,0:2:0:0:
416,316,80050,6,0,L|384:328,2,35,2|2|2,1:2|0:2|0:2,0:0:0:0:
492,268,80383,2,0,L|500:192,1,70,10|2,0:2|0:2,0:0:0:0:
504,108,80717,1,2,1:2:0:0:
504,108,80800,1,2,0:2:0:0:
504,108,80883,1,2,0:2:0:0:
428,60,81050,2,0,L|360:72,1,70,10|0,0:2|0:2,0:2:0:0:
176,76,81550,5,2,0:2:0:0:
108,136,81717,2,0,P|108:180|120:208,1,70,10|0,0:2|0:2,0:2:0:0:
184,268,82050,2,0,P|224:268|248:252,1,70,6|6,1:3|0:3,0:0:0:0:
308,184,82383,2,0,P|348:184|372:200,1,70,14|6,0:3|1:3,0:0:0:0:
476,348,82883,5,2,1:2:0:0:
476,348,82966,1,2,1:2:0:0:
476,348,83050,2,0,L|404:328,1,70,2|2,1:2|1:2,0:0:0:0:
328,284,83383,2,0,L|256:304,1,70,14|6,0:3|1:3,0:0:0:0:
188,356,83716,2,0,L|120:337,1,70,14|6,0:3|1:3,0:0:0:0:
32,176,84216,5,2,1:2:0:0:
32,176,84300,1,2,1:2:0:0:
32,176,84383,2,0,P|32:136|48:104,1,70,2|2,1:2|1:2,0:0:0:0:
120,56,84716,2,0,P|160:56|192:80,1,70,14|6,0:3|1:3,0:0:0:0:
232,152,85050,2,0,P|272:152|304:128,1,70,14|6,0:3|1:3,0:0:0:0:
364,76,85383,5,4,1:2:0:0:
256,192,85466,12,0,89383,0:0:0:0:
