osu file format v14

[General]
AudioFilename: audio.mp3
AudioLeadIn: 993
PreviewTime:47966
Countdown: 0
SampleSet: Soft
StackLeniency: 0.7
Mode: 0
LetterboxInBreaks: 0
WidescreenStoryboard: 1

[Editor]
DistanceSpacing: 1
BeatDivisor: 4
GridSize: 16
TimelineZoom: 1.6

[Metadata]
Title:Triple Baka
TitleUnicode:驫麤~とりぷるばか~
Artist:LamazeP
ArtistUnicode:ラマーズP
Creator:Sotarks
Version:Chiga's Normal
Source:
Tags:初音ミク 重音テト 亞北ネル Hatsune Miku Kasane Teto Akita Neru Niconico Vocaloid Japanese Female Fool Stupid Short Cut Edit Version Electronic kudosu kowari chiga elinor eli [_eli_] soop so0p charlotte surono yasuho ayyri eiri-
BeatmapID:2550097
BeatmapSetID:1224831

[Difficulty]
HPDrainRate:3
CircleSize:3.1
OverallDifficulty:4
ApproachRate:5
SliderMultiplier:1.02
SliderTickRate:1

[Events]
//Background and Video events
0,0,"bg.jpg"
//Break Periods
//Storyboard Layer 0 (Background)
//Storyboard Layer 1 (Fail)
//Storyboard Layer 2 (Pass)
//Storyboard Layer 3 (Foreground)
//Storyboard Layer 4 (Overlay)
//Storyboard Sound Samples

[TimingPoints]
-1283,333.333333333333,4,2,22,52,1,0
4050,-98.0392156862745,4,2,22,52,0,0
5383,-98.0392156862745,4,2,22,72,0,0
15050,-98.0392156862745,4,2,22,72,0,0
16050,-98.0392156862745,4,2,22,62,0,0
46883,-98.0392156862745,4,2,22,62,0,0
48050,-98.0392156862745,4,2,22,82,0,0
71883,-98.0392156862745,4,2,22,62,0,0
72050,-98.0392156862745,4,2,22,72,0,0
85383,-98.0392156862745,4,2,22,62,0,0

[Colours]
Combo1 : 241,150,223
Combo2 : 65,250,222
Combo3 : 252,255,113

[HitObjects]
86,208,4050,6,0,B|154:226|154:226|156:234|156:234|248:258,1,156.060000952515,2|2,1:2|0:2,0:2:0:0:
279,234,4716,2,0,L|291:170,1,52.0200003175049,0|0,3:2|3:2,0:0:0:0:
325,145,5050,1,0,3:2:0:0:
248,74,5383,6,0,P|186:70|152:106,2,104.04000063501,6|10|2,1:2|0:2|1:2,0:2:0:0:
325,145,6383,1,10,0:2:0:0:
407,81,6716,2,0,B|457:124|457:124|411:215,2,156.060000952515,2|2|10,1:2|0:2|0:2,0:0:0:0:
322,19,8050,6,0,L|197:39,1,104.04000063501,2|10,1:2|0:2,0:0:0:0:
141,104,8716,1,2,1:2:0:0:
45,61,9050,2,0,P|10:104|25:165,1,104.04000063501,10|2,0:2|1:2,0:2:0:0:
48,196,9550,1,2,0:2:0:0:
48,196,9716,2,0,L|119:179,1,52.0200003175049,10|0,0:2|0:2,0:2:0:0:
144,208,10050,1,2,1:2:0:0:
230,265,10383,1,10,0:2:0:0:
308,197,10716,6,0,L|284:81,2,104.04000063501,2|10|2,1:2|0:2|1:2,0:0:0:0:
230,265,11716,1,10,0:2:0:0:
294,347,12050,2,0,P|370:349|414:277,2,156.060000952515,2|2|10,1:2|0:2|0:2,0:0:0:0:
230,265,13383,6,0,P|165:238|132:254,1,104.04000063501,2|10,1:2|0:2,0:0:0:0:
67,326,14050,1,2,1:2:0:0:
5,242,14383,2,0,L|28:121,1,104.04000063501,10|2,0:2|1:2,0:2:0:0:
16,88,14883,1,2,0:2:0:0:
16,88,15050,2,0,P|37:72|77:78,1,52.0200003175049,10|0,0:2|0:0,0:2:0:0:
108,93,15383,1,6,1:3:0:0:
182,20,15716,2,0,L|250:35,1,52.0200003175049,14|6,0:3|1:3,0:0:0:0:
268,129,16216,6,0,L|253:197,2,52.0200003175049,0|10|0,0:2|0:2|0:2,0:0:0:0:
308,95,16716,2,0,P|356:83|411:130,1,104.04000063501,2|10,1:2|0:2,0:0:0:0:
493,156,17383,2,0,B|479:208|479:208|481:215|481:215|467:269,1,104.04000063501,2|10,1:2|0:2,0:2:0:0:
467,308,17883,2,0,L|364:273,1,104.04000063501,2|2,0:2|0:2,0:0:0:0:
280,329,18550,6,0,B|255:278|255:278|279:233,1,104.04000063501,2|2,0:2|0:2,0:2:0:0:
321,208,19050,2,0,P|355:172|352:119,1,104.04000063501,10|0,0:2|1:2,0:2:0:0:
274,52,19716,2,0,L|175:85,1,104.04000063501,8|0,0:2|1:2,0:2:0:0:
127,87,20216,1,2,0:2:0:0:
127,87,20383,2,0,P|106:69|80:64,1,52.0200003175049,10|2,0:2|0:2,0:0:0:0:
32,78,20716,1,2,1:2:0:0:
68,175,21050,2,0,L|57:234,1,52.0200003175049,10|2,0:2|0:2,0:0:0:0:
31,271,21383,6,0,L|146:290,1,104.04000063501,2|8,1:2|0:2,0:2:0:0:
210,358,22050,2,0,L|231:244,1,104.04000063501,2|10,1:2|0:2,0:2:0:0:
188,159,22716,2,0,P|219:124|280:129,1,104.04000063501,2|8,1:2|0:2,0:2:0:0:
351,193,23383,2,0,L|339:263,2,52.0200003175049,2|2|10,1:2|0:2|0:2,0:0:0:0:
391,160,23883,6,0,B|423:121|407:76|407:76|377:51|336:59,1,156.060000952515,2|8,0:2|0:2,0:2:0:0:
300,83,24550,1,2,0:2:0:0:
213,25,24883,1,2,0:2:0:0:
213,25,25050,2,0,P|167:32|142:33,1,52.0200003175049,8|0,0:2|0:2,0:2:0:0:
110,23,25383,5,2,1:2:0:0:
26,84,25716,1,10,0:2:0:0:
33,187,26050,1,2,1:2:0:0:
101,265,26383,2,0,L|169:253,1,52.0200003175049,10|0,0:2|1:2,0:0:0:0:
214,171,26883,6,0,L|204:119,2,52.0200003175049,2|10|2,0:2|0:2|0:2,0:0:0:0:
248,209,27383,2,0,L|358:187,1,104.04000063501,2|10,1:2|0:2,0:2:0:0:
451,217,28050,2,0,P|484:257|476:305,1,104.04000063501,2|10,1:2|0:2,0:0:0:0:
436,335,28550,1,2,0:2:0:0:
436,335,28716,2,0,L|369:320,1,52.0200003175049,2|2,1:2|0:2,0:0:0:0:
284,350,29216,6,0,L|301:229,1,104.04000063501,2|2,0:2|0:2,0:2:0:0:
270,203,29716,2,0,L|166:188,1,104.04000063501,10|0,0:2|1:2,0:2:0:0:
75,138,30383,2,0,P|28:163|19:218,1,104.04000063501,8|0,0:2|1:2,0:2:0:0:
51,255,30883,1,2,0:2:0:0:
51,255,31050,2,0,L|42:320,1,52.0200003175049,10|2,0:2|0:2,0:0:0:0:
23,354,31383,1,2,1:2:0:0:
125,373,31716,2,0,L|176:380,1,52.0200003175049,10|2,0:2|0:2,0:0:0:0:
220,351,32050,6,0,P|200:298|227:247,1,104.04000063501,2|8,1:2|0:2,0:2:0:0:
296,189,32716,2,0,L|284:118,2,52.0200003175049,2|2|10,1:2|0:2|0:2,0:0:0:0:
386,241,33383,2,0,L|377:292,2,52.0200003175049,2|2|10,1:2|0:2|0:2,0:0:0:0:
468,177,34050,1,2,1:2:0:0:
468,177,34216,2,0,P|448:126|400:113,1,104.04000063501,2|0,0:2|0:2,0:0:0:0:
314,60,34883,6,0,B|282:100|282:100|315:167,1,104.04000063501,2|2,0:2|0:2,0:0:0:0:
333,190,35383,2,0,P|287:208|264:219,1,52.0200003175049,2|2,1:2|0:2,0:0:0:0:
244,242,35716,2,0,P|198:224|175:213,1,52.0200003175049,10|2,0:2|0:2,0:0:0:0:
157,187,36050,1,2,1:2:0:0:
65,232,36383,1,8,0:2:0:0:
65,232,36550,6,0,B|51:188|51:188|55:182|55:182|37:112,1,104.04000063501,8|8,0:2|0:2,0:0:0:0:
55,82,37050,2,0,L|115:66,1,52.0200003175049,0|8,1:2|0:2,0:0:0:0:
192,11,37550,6,0,L|220:120,1,104.04000063501,2|0,0:2|0:2,0:0:0:0:
261,139,38050,2,0,L|321:123,1,52.0200003175049,2|2,1:2|0:2,0:0:0:0:
349,90,38383,1,10,0:2:0:0:
434,148,38716,2,0,L|450:208,2,52.0200003175049,2|2|10,1:2|0:2|0:2,0:0:0:0:
468,109,39216,2,0,P|489:63|468:15,2,104.04000063501,2|8|8,0:2|0:2|0:2,0:2:0:0:
364,95,40216,6,0,L|243:71,1,104.04000063501,2|2,0:2|0:2,0:0:0:0:
215,99,40716,2,0,L|207:161,1,52.0200003175049,2|2,1:2|0:2,0:0:0:0:
229,198,41050,1,10,0:2:0:0:
147,262,41383,2,0,L|85:254,2,52.0200003175049,2|2|10,1:2|0:2|0:2,0:0:0:0:
170,308,41883,2,0,P|197:346|270:339,2,104.04000063501,2|8|8,0:2|0:2|0:2,0:2:0:0:
79,255,42883,6,0,P|79:222|148:178,1,104.04000063501,2|2,0:2|0:2,0:0:0:0:
175,153,43383,2,0,P|206:169|218:193,1,52.0200003175049,2|2,1:2|0:2,0:0:0:0:
215,234,43716,1,10,0:2:0:0:
304,287,44050,6,0,L|424:267,1,104.04000063501,2|10,1:2|0:2,0:0:0:0:
455,287,44550,2,0,B|491:328|491:328|478:377,2,104.04000063501,2|8|8,0:2|0:2|0:2,0:2:0:0:
427,186,45550,6,0,L|437:128,2,52.0200003175049,2|10|2,0:2|0:2|0:2,0:0:0:0:
386,218,46050,2,0,L|334:209,1,52.0200003175049,2|2,1:2|0:2,0:0:0:0:
285,224,46383,1,10,0:2:0:0:
202,160,46716,6,0,P|189:89|301:47,1,208.08000127002,10|0,0:2|0:0,0:0:0:0:
328,86,47550,2,0,L|394:74,1,52.0200003175049,4|4,1:3|1:3,0:0:0:0:
481,94,48050,6,0,P|493:124|486:153,1,52.0200003175049,6|2,1:2|0:2,0:0:0:0:
498,194,48383,2,0,P|475:217|446:223,1,52.0200003175049,10|2,0:2|0:2,0:0:0:0:
410,246,48716,2,0,P|381:229|368:203,1,52.0200003175049,2|2,1:2|0:2,0:0:0:0:
382,113,49216,1,2,0:2:0:0:
382,113,49383,2,0,L|278:133,1,104.04000063501,2|8,1:2|0:2,0:2:0:0:
200,64,50050,2,0,P|154:40|102:60,1,104.04000063501,2|10,1:2|0:2,0:2:0:0:
81,100,50550,1,2,0:2:0:0:
81,100,50716,6,0,L|99:209,1,104.04000063501,2|10,1:2|0:2,0:2:0:0:
59,299,51383,2,0,L|161:282,1,104.04000063501,2|10,1:2|0:2,0:0:0:0:
240,350,52050,2,0,P|295:382|349:359,1,104.04000063501,2|8,1:2|0:2,0:2:0:0:
366,334,52550,1,2,3:2:0:0:
366,334,52716,2,0,L|422:343,1,52.0200003175049,2|0,1:2|0:2,0:2:0:0:
468,351,53050,1,8,0:2:0:0:
441,250,53383,6,0,L|325:230,1,104.04000063501,6|10,1:2|0:2,0:2:0:0:
255,169,54050,2,0,P|269:109|325:87,1,104.04000063501,6|10,1:2|0:2,0:2:0:0:
352,117,54550,1,2,1:2:0:0:
352,117,54716,2,0,L|369:7,2,104.04000063501,6|10|6,1:2|0:2|1:2,0:2:0:0:
435,178,55716,1,10,0:2:0:0:
358,248,56050,6,0,L|257:227,1,104.04000063501,6|8,1:2|0:2,0:2:0:0:
228,189,56550,1,2,3:2:0:0:
228,189,56716,2,0,P|176:179|131:220,1,104.04000063501,2|8,1:2|0:2,0:2:0:0:
126,258,57216,1,0,0:2:0:0:
54,333,57550,2,0,L|67:393,2,52.0200003175049,2|10|2,0:2|0:2|0:2,0:0:0:0:
11,302,58050,1,2,1:2:0:0:
11,302,58216,2,0,L|-8:230,1,52.0200003175049,14|12,0:2|0:2,0:0:0:0:
23,150,58716,6,0,P|54:144|81:157,1,52.0200003175049,6|2,1:2|0:2,0:0:0:0:
124,154,59049,2,0,P|141:181|141:210,1,52.0200003175049,10|2,0:2|0:2,0:0:0:0:
157,251,59383,2,0,P|134:275|102:285,1,52.0200003175049,2|2,1:2|0:2,0:0:0:0:
35,345,59883,1,2,0:2:0:0:
35,345,60050,2,0,L|16:230,1,104.04000063501,2|8,1:2|0:2,0:2:0:0:
72,150,60716,2,0,L|187:131,1,104.04000063501,2|10,1:2|0:2,0:0:0:0:
212,97,61216,1,2,0:2:0:0:
212,97,61383,6,0,P|251:67|315:78,1,104.04000063501,2|10,1:2|0:2,0:2:0:0:
333,170,62050,2,0,P|294:200|230:189,1,104.04000063501,2|10,1:2|0:2,0:0:0:0:
144,232,62716,2,0,L|165:357,1,104.04000063501,2|8,1:2|0:2,0:2:0:0:
199,378,63216,1,2,3:2:0:0:
199,378,63383,2,0,P|237:380|263:367,1,52.0200003175049,2|0,1:2|0:2,0:2:0:0:
291,343,63716,1,8,0:2:0:0:
356,261,64050,6,0,L|338:158,1,104.04000063501,6|10,1:2|0:2,0:2:0:0:
268,81,64716,2,0,L|370:63,1,104.04000063501,6|10,1:2|0:2,0:2:0:0:
411,31,65216,1,2,1:2:0:0:
411,31,65383,2,0,P|469:54|479:97,2,104.04000063501,6|10|6,1:2|0:2|1:2,0:2:0:0:
331,98,66383,1,10,0:2:0:0:
246,37,66716,6,0,L|137:56,1,104.04000063501,6|8,1:2|0:2,0:2:0:0:
109,94,67216,1,2,3:2:0:0:
109,94,67383,2,0,L|126:196,1,104.04000063501,2|8,1:2|0:2,0:0:0:0:
113,247,67883,1,0,0:2:0:0:
204,297,68216,2,0,L|263:283,2,52.0200003175049,2|10|2,0:2|0:2|0:2,0:0:0:0:
175,341,68716,1,2,1:2:0:0:
175,341,68883,2,0,P|127:365|64:345,1,104.04000063501,14|0,0:2|1:2,0:0:0:0:
25,266,69550,5,2,0:2:0:0:
25,266,69716,2,0,L|32:204,1,52.0200003175049,10|2,0:2|0:2,0:0:0:0:
20,162,70050,1,2,1:2:0:0:
99,94,70383,1,10,0:2:0:0:
99,94,70550,2,0,P|165:105|181:151,1,104.04000063501,2|8,1:2|1:2,0:0:0:0:
164,183,71050,1,8,1:2:0:0:
250,240,71383,2,0,L|320:225,1,52.0200003175049,2|0,0:0|0:0,0:0:0:0:
351,217,71716,1,2,0:0:0:0:
423,292,72050,6,0,P|422:359|378:391,2,104.04000063501,6|10|2,1:2|0:2|1:2,0:2:0:0:
351,217,73050,1,10,0:2:0:0:
435,156,73383,2,0,B|426:91|426:91|418:82|418:82|405:-3,2,156.060000952515,2|2|10,1:2|0:2|0:2,0:0:0:0:
351,217,74716,6,0,L|238:191,1,104.04000063501,2|10,1:2|0:2,0:0:0:0:
166,130,75383,1,2,1:2:0:0:
87,197,75716,2,0,P|71:246|106:299,1,104.04000063501,10|2,0:2|1:2,0:2:0:0:
139,315,76216,1,2,0:2:0:0:
139,315,76383,2,0,L|195:304,1,52.0200003175049,10|0,0:2|0:2,0:2:0:0:
241,294,76716,1,2,1:2:0:0:
293,204,77050,1,10,0:2:0:0:
210,140,77383,6,0,L|226:23,2,104.04000063501,2|10|2,1:2|0:2|1:2,0:0:0:0:
123,198,78383,1,10,0:2:0:0:
46,127,78716,2,0,B|3:181|3:181|44:269,2,156.060000952515,2|2|10,1:2|0:2|0:2,0:0:0:0:
76,26,80050,6,0,L|191:48,1,104.04000063501,2|10,1:2|0:2,0:0:0:0:
241,127,80716,1,2,1:2:0:0:
315,54,81050,2,0,P|381:50|413:90,1,104.04000063501,10|2,0:2|1:2,0:2:0:0:
430,125,81550,1,2,0:2:0:0:
430,125,81716,2,0,P|428:160|399:184,1,52.0200003175049,10|0,0:2|0:2,0:2:0:0:
369,191,82050,1,6,1:3:0:0:
414,284,82383,2,0,L|400:348,1,52.0200003175049,14|6,0:3|1:3,0:0:0:0:
305,363,82883,5,2,1:2:0:0:
305,363,83050,2,0,L|233:342,1,52.0200003175049,2|2,1:2|1:2,0:0:0:0:
223,307,83383,2,0,L|151:286,2,52.0200003175049,14|6|14,0:3|1:3|0:3,0:0:0:0:
262,272,83883,1,6,1:3:0:0:
218,183,84216,5,2,1:2:0:0:
218,183,84383,2,0,L|234:125,1,52.0200003175049,2|2,1:2|1:2,0:0:0:0:
211,84,84716,2,0,L|227:26,2,52.0200003175049,14|6|14,0:3|1:3|0:3,0:0:0:0:
161,98,85216,1,6,1:3:0:0:
161,98,85383,5,4,1:2:0:0:
256,192,85550,12,0,88050,0:0:0:0:
