osu file format v14

[General]
AudioFilename: audio.mp3
AudioLeadIn: 993
PreviewTime: 47966
Countdown: 0
SampleSet: Normal
StackLeniency: 0.7
Mode: 1
LetterboxInBreaks: 0
WidescreenStoryboard: 0

[Editor]
Bookmarks: 16050,26716,58550,58633
DistanceSpacing: 1.6
BeatDivisor: 4
GridSize: 32
TimelineZoom: 1.8

[Metadata]
Title:Triple Baka
TitleUnicode:驫麤~とりぷるばか~
Artist:LamazeP
ArtistUnicode:ラマーズP
Creator:Sotarks
Version:Charlotte's Oni
Source:
Tags:初音ミク 重音テト 亞北ネル Hatsune Miku Kasane Teto Akita Neru Niconico Vocaloid Japanese Female Fool Stupid Short Cut Edit Version Electronic kudosu kowari chiga elinor eli [_eli_] soop so0p charlotte surono yasuho ayyri eiri-
BeatmapID:2563380
BeatmapSetID:1224831

[Difficulty]
HPDrainRate:6
CircleSize:5
OverallDifficulty:5
ApproachRate:7
SliderMultiplier:1.4
SliderTickRate:1

[Events]
//Background and Video events
0,0,"bg.jpg",0,69
//Break Periods
//Storyboard Layer 0 (Background)
//Storyboard Layer 1 (Fail)
//Storyboard Layer 2 (Pass)
//Storyboard Layer 3 (Foreground)
//Storyboard Layer 4 (Overlay)
//Storyboard Sound Samples

[TimingPoints]
-1283,333.333333333333,4,1,0,75,1,0
50,-100,4,1,0,20,0,0
2716,-100,4,1,0,30,0,0
4050,-100,4,1,0,50,0,0
5383,-100,4,1,0,75,0,0
48050,-100,4,1,0,75,0,1
58383,-100,4,1,0,75,0,0
58716,-100,4,1,0,75,0,1
72050,-100,4,1,0,75,0,0
85383,-100,4,1,0,50,0,0
86050,-100,4,1,0,40,0,0
86716,-100,4,1,0,30,0,0
87383,-100,4,1,0,20,0,0
87716,-100,4,1,0,10,0,0
88050,-100,4,1,0,5,0,0

[Colours]
Combo1 : 241,150,223
Combo2 : 65,250,222
Combo3 : 252,255,113

[HitObjects]
255,192,50,5,8,0:0:0:0:
255,192,133,1,8,0:0:0:0:
255,192,216,1,8,0:0:0:0:
255,192,383,1,8,0:0:0:0:
255,192,550,1,0,0:0:0:0:
255,192,716,1,8,0:0:0:0:
255,192,800,1,8,0:0:0:0:
255,192,883,1,8,0:0:0:0:
255,192,1050,1,8,0:0:0:0:
255,192,1383,1,8,0:0:0:0:
255,192,1466,1,8,0:0:0:0:
255,192,1550,1,8,0:0:0:0:
255,192,1716,1,8,0:0:0:0:
255,192,1883,1,0,0:0:0:0:
255,192,2050,1,8,0:0:0:0:
255,192,2133,1,8,0:0:0:0:
255,192,2216,1,8,0:0:0:0:
255,192,2383,1,8,0:0:0:0:
255,192,2716,1,0,0:0:0:0:
255,192,2800,1,0,0:0:0:0:
255,192,2883,1,8,0:0:0:0:
255,192,3050,1,8,0:0:0:0:
255,192,3216,1,0,0:0:0:0:
255,192,3383,1,0,0:0:0:0:
255,192,3466,1,0,0:0:0:0:
255,192,3550,1,8,0:0:0:0:
255,192,3716,1,8,0:0:0:0:
255,192,3883,1,0,0:0:0:0:
255,192,4050,1,0,0:0:0:0:
255,192,4133,1,0,0:0:0:0:
255,192,4216,1,8,0:0:0:0:
255,192,4300,1,8,0:0:0:0:
255,192,4383,1,0,0:0:0:0:
255,192,4466,1,0,0:0:0:0:
255,192,4550,1,8,0:0:0:0:
255,192,4716,1,0,0:0:0:0:
255,192,4883,1,12,0:0:0:0:
255,192,5050,1,8,0:0:0:0:
255,192,5133,1,8,0:0:0:0:
255,192,5216,1,8,0:0:0:0:
255,192,5383,1,4,0:0:0:0:
255,192,5716,1,8,0:0:0:0:
255,192,5883,1,0,0:0:0:0:
255,192,6050,1,0,0:0:0:0:
255,192,6133,1,0,0:0:0:0:
255,192,6216,1,8,0:0:0:0:
255,192,6383,1,0,0:0:0:0:
255,192,6716,1,8,0:0:0:0:
255,192,6800,1,8,0:0:0:0:
255,192,6883,1,0,0:0:0:0:
255,192,7050,1,8,0:0:0:0:
255,192,7216,1,0,0:0:0:0:
255,192,7383,1,0,0:0:0:0:
255,192,7466,1,0,0:0:0:0:
255,192,7550,1,8,0:0:0:0:
255,192,7716,1,0,0:0:0:0:
255,192,8050,1,8,0:0:0:0:
255,192,8133,1,8,0:0:0:0:
255,192,8216,1,0,0:0:0:0:
255,192,8383,1,8,0:0:0:0:
255,192,8550,1,0,0:0:0:0:
255,192,8716,1,0,0:0:0:0:
255,192,8800,1,0,0:0:0:0:
255,192,8883,1,8,0:0:0:0:
255,192,9050,1,0,0:0:0:0:
255,192,9216,1,8,0:0:0:0:
255,192,9383,1,0,0:0:0:0:
255,192,9466,1,8,0:0:0:0:
255,192,9550,1,0,0:0:0:0:
255,192,9716,1,8,0:0:0:0:
255,192,9883,1,0,0:0:0:0:
255,192,10050,1,8,0:0:0:0:
255,192,10133,1,0,0:0:0:0:
255,192,10216,1,8,0:0:0:0:
255,192,10383,1,4,0:0:0:0:
255,192,10716,1,8,0:0:0:0:
255,192,10800,1,8,0:0:0:0:
255,192,10883,1,0,0:0:0:0:
255,192,11050,1,8,0:0:0:0:
255,192,11216,1,0,0:0:0:0:
255,192,11383,1,0,0:0:0:0:
255,192,11466,1,0,0:0:0:0:
255,192,11550,1,8,0:0:0:0:
255,192,11716,1,0,0:0:0:0:
255,192,12050,1,8,0:0:0:0:
255,192,12133,1,8,0:0:0:0:
255,192,12216,1,0,0:0:0:0:
255,192,12383,1,8,0:0:0:0:
255,192,12550,1,0,0:0:0:0:
255,192,12716,1,0,0:0:0:0:
255,192,12800,1,0,0:0:0:0:
255,192,12883,1,8,0:0:0:0:
255,192,13050,1,0,0:0:0:0:
255,192,13383,1,8,0:0:0:0:
255,192,13466,1,8,0:0:0:0:
255,192,13550,1,0,0:0:0:0:
255,192,13716,1,8,0:0:0:0:
255,192,13883,1,0,0:0:0:0:
255,192,14050,1,0,0:0:0:0:
255,192,14133,1,0,0:0:0:0:
255,192,14216,1,8,0:0:0:0:
255,192,14383,1,0,0:0:0:0:
255,192,14550,1,8,0:0:0:0:
255,192,14716,1,8,0:0:0:0:
255,192,14800,1,0,0:0:0:0:
255,192,14883,1,0,0:0:0:0:
255,192,15050,1,8,0:0:0:0:
255,192,15216,1,0,0:0:0:0:
255,192,15383,1,0,0:0:0:0:
255,192,15466,1,8,0:0:0:0:
255,192,15550,1,8,0:0:0:0:
255,192,15716,1,4,0:0:0:0:
255,192,15883,1,4,0:0:0:0:
255,192,16050,1,12,0:0:0:0:
255,192,16383,1,0,0:0:0:0:
248,229,16716,1,8,0:0:0:0:
248,229,16883,1,8,0:0:0:0:
248,229,17050,1,0,0:0:0:0:
248,229,17216,1,0,0:0:0:0:
248,229,17383,1,8,0:0:0:0:
248,229,17716,1,0,0:0:0:0:
248,229,17883,1,0,0:0:0:0:
248,229,18050,1,8,0:0:0:0:
248,229,18216,1,8,0:0:0:0:
248,229,18383,1,0,0:0:0:0:
248,229,18716,1,0,0:0:0:0:
248,229,18883,1,8,0:0:0:0:
248,229,19050,1,0,0:0:0:0:
248,229,19383,1,0,0:0:0:0:
248,229,19550,1,0,0:0:0:0:
248,229,19716,1,0,0:0:0:0:
248,229,20050,1,0,0:0:0:0:
248,229,20216,1,8,0:0:0:0:
248,229,20383,1,0,0:0:0:0:
248,229,20550,1,0,0:0:0:0:
248,229,20716,1,8,0:0:0:0:
248,229,20883,1,0,0:0:0:0:
248,229,21050,1,8,0:0:0:0:
248,229,21133,1,8,0:0:0:0:
248,229,21216,1,8,0:0:0:0:
248,229,21300,1,8,0:0:0:0:
248,229,21383,1,0,0:0:0:0:
248,229,21716,1,0,0:0:0:0:
248,229,21883,1,0,0:0:0:0:
248,229,22050,1,0,0:0:0:0:
248,229,22383,1,0,0:0:0:0:
248,229,22550,1,0,0:0:0:0:
248,229,22716,1,8,0:0:0:0:
248,229,23050,1,0,0:0:0:0:
248,229,23216,1,8,0:0:0:0:
248,229,23383,1,8,0:0:0:0:
248,229,23550,1,8,0:0:0:0:
248,229,23633,1,8,0:0:0:0:
248,229,23716,1,0,0:0:0:0:
248,229,23883,1,0,0:0:0:0:
248,229,24050,1,8,0:0:0:0:
248,229,24383,1,0,0:0:0:0:
248,229,24550,1,0,0:0:0:0:
248,229,24716,1,0,0:0:0:0:
248,229,25050,1,0,0:0:0:0:
248,229,25216,1,0,0:0:0:0:
248,229,25383,1,8,0:0:0:0:
248,229,25716,1,8,0:0:0:0:
248,229,25883,1,0,0:0:0:0:
248,229,26050,1,8,0:0:0:0:
248,229,26216,1,0,0:0:0:0:
248,229,26383,1,8,0:0:0:0:
248,229,26550,1,0,0:0:0:0:
248,229,26633,1,0,0:0:0:0:
248,229,26716,1,0,0:0:0:0:
446,291,27050,1,8,0:0:0:0:
274,237,27383,1,0,0:0:0:0:
360,264,27550,1,8,0:0:0:0:
274,237,27716,1,0,0:0:0:0:
405,278,27883,1,0,0:0:0:0:
306,247,28050,1,8,0:0:0:0:
306,247,28383,1,8,0:0:0:0:
306,247,28550,1,0,0:0:0:0:
306,247,28716,1,8,0:0:0:0:
306,247,28883,1,8,0:0:0:0:
306,247,29050,1,0,0:0:0:0:
306,247,29383,1,0,0:0:0:0:
306,247,29550,1,8,0:0:0:0:
306,247,29716,1,0,0:0:0:0:
306,247,30050,1,0,0:0:0:0:
306,247,30216,1,0,0:0:0:0:
241,183,30383,1,0,0:0:0:0:
461,174,30716,1,0,0:0:0:0:
353,178,30883,1,8,0:0:0:0:
247,182,31050,1,0,0:0:0:0:
345,182,31216,1,0,0:0:0:0:
242,182,31383,1,8,0:0:0:0:
338,182,31550,1,0,0:0:0:0:
226,182,31716,1,8,0:0:0:0:
280,183,31800,1,0,0:0:0:0:
280,183,31883,1,8,0:0:0:0:
280,183,31966,1,8,0:0:0:0:
280,183,32050,1,0,0:0:0:0:
280,183,32383,1,0,0:0:0:0:
280,183,32716,1,0,0:0:0:0:
280,183,32883,1,0,0:0:0:0:
280,183,33050,1,8,0:0:0:0:
280,183,33216,1,0,0:0:0:0:
280,183,33383,1,8,0:0:0:0:
280,183,33550,1,0,0:0:0:0:
280,183,33716,1,8,0:0:0:0:
280,183,33883,1,8,0:0:0:0:
280,183,34050,1,0,0:0:0:0:
280,183,34216,1,8,0:0:0:0:
280,183,34383,1,0,0:0:0:0:
280,183,34716,1,0,0:0:0:0:
280,183,34883,1,0,0:0:0:0:
280,183,34966,1,0,0:0:0:0:
280,183,35050,1,8,0:0:0:0:
280,183,35216,1,0,0:0:0:0:
280,183,35383,1,8,0:0:0:0:
280,183,35550,1,8,0:0:0:0:
280,183,35633,1,8,0:0:0:0:
280,183,35716,1,0,0:0:0:0:
280,183,35883,1,0,0:0:0:0:
280,183,36050,1,8,0:0:0:0:
257,188,36383,1,12,0:0:0:0:
257,188,36550,1,4,0:0:0:0:
257,188,36883,1,4,0:0:0:0:
257,188,37050,1,12,0:0:0:0:
257,188,37216,1,0,0:0:0:0:
257,188,37300,1,0,0:0:0:0:
257,188,37383,1,8,0:0:0:0:
257,188,37550,1,0,0:0:0:0:
257,188,37716,1,8,0:0:0:0:
257,188,37883,1,8,0:0:0:0:
257,188,38050,1,0,0:0:0:0:
257,188,38383,1,8,0:0:0:0:
257,188,38550,1,0,0:0:0:0:
257,188,38716,1,8,0:0:0:0:
257,188,38883,1,8,0:0:0:0:
257,188,39050,1,0,0:0:0:0:
257,188,39216,1,8,0:0:0:0:
257,188,39550,1,0,0:0:0:0:
257,188,39883,1,0,0:0:0:0:
257,188,40050,1,8,0:0:0:0:
257,188,40216,1,0,0:0:0:0:
257,188,40383,1,8,0:0:0:0:
257,188,40550,1,8,0:0:0:0:
257,188,40716,1,0,0:0:0:0:
257,188,41050,1,8,0:0:0:0:
257,188,41216,1,0,0:0:0:0:
257,188,41383,1,8,0:0:0:0:
257,188,41550,1,0,0:0:0:0:
257,188,41716,1,8,0:0:0:0:
257,188,41883,1,8,0:0:0:0:
257,188,42216,1,0,0:0:0:0:
257,188,42550,1,0,0:0:0:0:
257,188,42716,1,8,0:0:0:0:
257,188,42883,1,0,0:0:0:0:
257,188,43050,1,8,0:0:0:0:
257,188,43216,1,8,0:0:0:0:
257,188,43383,1,0,0:0:0:0:
257,188,43716,1,8,0:0:0:0:
257,188,43883,1,0,0:0:0:0:
257,188,44050,1,8,0:0:0:0:
257,188,44216,1,8,0:0:0:0:
257,188,44383,1,0,0:0:0:0:
257,188,44550,1,8,0:0:0:0:
257,188,44883,1,0,0:0:0:0:
257,188,45216,1,0,0:0:0:0:
257,188,45383,1,8,0:0:0:0:
257,188,45550,1,0,0:0:0:0:
257,188,45716,1,8,0:0:0:0:
257,188,45883,1,8,0:0:0:0:
257,188,46050,1,0,0:0:0:0:
257,188,46216,1,0,0:0:0:0:
257,188,46383,1,8,0:0:0:0:
257,188,46550,1,8,0:0:0:0:
257,188,46633,1,0,0:0:0:0:
257,188,46716,1,0,0:0:0:0:
257,188,46883,1,0,0:0:0:0:
257,188,46966,1,8,0:0:0:0:
257,188,47050,1,0,0:0:0:0:
257,188,47216,1,8,0:0:0:0:
257,188,47550,1,4,0:0:0:0:
257,188,47716,1,4,0:0:0:0:
246,186,48050,1,12,0:0:0:0:
257,188,48216,1,0,0:0:0:0:
246,186,48383,1,12,0:0:0:0:
257,188,48550,1,0,0:0:0:0:
246,186,48716,1,12,0:0:0:0:
257,188,49050,1,8,0:0:0:0:
257,188,49216,1,0,0:0:0:0:
257,188,49300,1,0,0:0:0:0:
246,186,49383,1,8,0:0:0:0:
257,188,49550,1,0,0:0:0:0:
257,188,49716,1,8,0:0:0:0:
257,188,49883,1,8,0:0:0:0:
257,188,50050,1,0,0:0:0:0:
257,188,50216,1,8,0:0:0:0:
257,188,50300,1,8,0:0:0:0:
257,188,50383,1,0,0:0:0:0:
257,188,50550,1,0,0:0:0:0:
207,111,50716,1,8,0:0:0:0:
257,188,51050,1,8,0:0:0:0:
357,224,51216,1,0,0:0:0:0:
330,216,51300,1,0,0:0:0:0:
257,188,51383,1,8,0:0:0:0:
257,188,51550,1,0,0:0:0:0:
257,188,51716,1,8,0:0:0:0:
257,188,51883,1,8,0:0:0:0:
257,188,51966,1,8,0:0:0:0:
257,188,52050,1,0,0:0:0:0:
257,188,52300,1,8,0:0:0:0:
307,209,52383,1,0,0:0:0:0:
257,188,52550,1,8,0:0:0:0:
257,188,52716,1,0,0:0:0:0:
257,188,52966,1,0,0:0:0:0:
257,188,53050,1,8,0:0:0:0:
257,188,53216,1,8,0:0:0:0:
257,188,53383,1,0,0:0:0:0:
247,212,53716,1,8,0:0:0:0:
257,188,53883,1,0,0:0:0:0:
257,188,53966,1,0,0:0:0:0:
258,193,54050,1,8,0:0:0:0:
269,285,54216,1,0,0:0:0:0:
257,190,54383,1,8,0:0:0:0:
269,279,54550,1,8,0:0:0:0:
257,188,54633,1,8,0:0:0:0:
256,181,54716,1,0,0:0:0:0:
262,226,55050,1,8,0:0:0:0:
275,333,55216,1,0,0:0:0:0:
262,227,55300,1,0,0:0:0:0:
269,284,55383,1,8,0:0:0:0:
257,179,55550,1,0,0:0:0:0:
268,277,55716,1,8,0:0:0:0:
257,176,55883,1,8,0:0:0:0:
206,162,55966,1,8,0:0:0:0:
267,267,56050,1,0,0:0:0:0:
267,267,56383,1,8,0:0:0:0:
267,267,56550,1,0,0:0:0:0:
267,267,56633,1,0,0:0:0:0:
267,267,56716,1,8,0:0:0:0:
328,189,56883,1,0,0:0:0:0:
267,267,57050,1,8,0:0:0:0:
267,267,57216,1,8,0:0:0:0:
267,267,57383,1,0,0:0:0:0:
267,267,57550,1,0,0:0:0:0:
294,230,57633,1,0,0:0:0:0:
267,267,57716,1,8,0:0:0:0:
267,267,57883,1,8,0:0:0:0:
267,267,58050,1,0,0:0:0:0:
267,267,58216,1,12,0:0:0:0:
267,267,58383,1,4,0:0:0:0:
267,267,58716,1,12,0:0:0:0:
267,267,58883,1,0,0:0:0:0:
267,267,59050,1,12,0:0:0:0:
267,267,59216,1,0,0:0:0:0:
241,8,59383,1,12,0:0:0:0:
257,188,59716,1,8,0:0:0:0:
257,188,59882,1,0,0:0:0:0:
257,188,59966,1,0,0:0:0:0:
246,186,60049,1,8,0:0:0:0:
257,188,60300,1,0,0:0:0:0:
257,188,60382,1,8,0:0:0:0:
257,188,60549,1,8,0:0:0:0:
257,188,60716,1,0,0:0:0:0:
257,188,60882,1,8,0:0:0:0:
257,188,60966,1,8,0:0:0:0:
257,188,61049,1,0,0:0:0:0:
257,188,61216,1,0,0:0:0:0:
207,111,61382,1,8,0:0:0:0:
257,188,61716,1,8,0:0:0:0:
357,224,61882,1,0,0:0:0:0:
330,216,61966,1,8,0:0:0:0:
257,188,62049,1,8,0:0:0:0:
257,188,62216,1,0,0:0:0:0:
257,188,62382,1,8,0:0:0:0:
257,188,62549,1,8,0:0:0:0:
257,188,62632,1,8,0:0:0:0:
257,188,62716,1,0,0:0:0:0:
257,188,62966,1,8,0:0:0:0:
307,209,63049,1,0,0:0:0:0:
257,188,63216,1,8,0:0:0:0:
257,188,63300,1,0,0:0:0:0:
257,188,63383,1,8,0:0:0:0:
257,188,63632,1,0,0:0:0:0:
257,188,63716,1,8,0:0:0:0:
257,188,63882,1,8,0:0:0:0:
257,188,64049,1,0,0:0:0:0:
247,212,64383,1,8,0:0:0:0:
257,188,64550,1,0,0:0:0:0:
257,188,64633,1,0,0:0:0:0:
258,193,64717,1,8,0:0:0:0:
269,285,64883,1,0,0:0:0:0:
257,190,65050,1,8,0:0:0:0:
269,279,65217,1,8,0:0:0:0:
257,188,65300,1,8,0:0:0:0:
256,181,65383,1,0,0:0:0:0:
262,226,65717,1,8,0:0:0:0:
275,333,65883,1,0,0:0:0:0:
262,227,65967,1,0,0:0:0:0:
269,284,66050,1,8,0:0:0:0:
257,179,66217,1,0,0:0:0:0:
268,277,66383,1,8,0:0:0:0:
257,176,66550,1,8,0:0:0:0:
206,162,66633,1,8,0:0:0:0:
267,267,66717,1,0,0:0:0:0:
267,267,67050,1,8,0:0:0:0:
267,267,67217,1,0,0:0:0:0:
267,267,67300,1,0,0:0:0:0:
267,267,67383,1,8,0:0:0:0:
328,189,67550,1,0,0:0:0:0:
267,267,67717,1,8,0:0:0:0:
267,267,67883,1,8,0:0:0:0:
267,267,68050,1,0,0:0:0:0:
267,267,68217,1,0,0:0:0:0:
294,230,68300,1,0,0:0:0:0:
267,267,68383,1,8,0:0:0:0:
267,267,68550,1,8,0:0:0:0:
267,267,68717,1,0,0:0:0:0:
268,150,68883,1,12,0:0:0:0:
268,260,69050,1,4,0:0:0:0:
263,224,69216,1,0,0:0:0:0:
263,224,69300,1,0,0:0:0:0:
263,224,69383,1,0,0:0:0:0:
470,139,69716,1,8,0:0:0:0:
278,218,69883,1,0,0:0:0:0:
278,218,69966,1,0,0:0:0:0:
278,218,70050,1,8,0:0:0:0:
379,196,70216,1,8,0:0:0:0:
280,217,70383,1,0,0:0:0:0:
278,218,70550,1,8,0:0:0:0:
278,218,70716,1,0,0:0:0:0:
278,218,70883,1,8,0:0:0:0:
310,185,70966,1,8,0:0:0:0:
301,170,71050,1,0,0:0:0:0:
278,218,71216,1,8,0:0:0:0:
323,126,71383,1,0,0:0:0:0:
274,221,71550,1,0,0:0:0:0:
309,115,71716,1,8,0:0:0:0:
255,192,72050,1,4,0:0:0:0:
255,192,72383,1,8,0:0:0:0:
255,192,72550,1,0,0:0:0:0:
255,192,72717,1,0,0:0:0:0:
255,192,72800,1,0,0:0:0:0:
255,192,72883,1,8,0:0:0:0:
255,192,73050,1,0,0:0:0:0:
255,192,73383,1,8,0:0:0:0:
255,192,73467,1,8,0:0:0:0:
255,192,73550,1,0,0:0:0:0:
255,192,73717,1,8,0:0:0:0:
255,192,73883,1,0,0:0:0:0:
255,192,74050,1,0,0:0:0:0:
255,192,74133,1,0,0:0:0:0:
255,192,74217,1,8,0:0:0:0:
255,192,74383,1,0,0:0:0:0:
255,192,74717,1,8,0:0:0:0:
255,192,74800,1,8,0:0:0:0:
255,192,74883,1,0,0:0:0:0:
255,192,75050,1,8,0:0:0:0:
255,192,75217,1,0,0:0:0:0:
255,192,75383,1,0,0:0:0:0:
255,192,75467,1,0,0:0:0:0:
255,192,75550,1,8,0:0:0:0:
255,192,75717,1,0,0:0:0:0:
255,192,75883,1,8,0:0:0:0:
255,192,76050,1,0,0:0:0:0:
255,192,76133,1,8,0:0:0:0:
255,192,76217,1,0,0:0:0:0:
255,192,76383,1,8,0:0:0:0:
255,192,76550,1,0,0:0:0:0:
255,192,76717,1,8,0:0:0:0:
255,192,76800,1,0,0:0:0:0:
255,192,76883,1,8,0:0:0:0:
255,192,77050,1,4,0:0:0:0:
255,192,77383,1,8,0:0:0:0:
255,192,77467,1,8,0:0:0:0:
255,192,77550,1,0,0:0:0:0:
255,192,77717,1,8,0:0:0:0:
255,192,77883,1,0,0:0:0:0:
255,192,78050,1,0,0:0:0:0:
255,192,78133,1,0,0:0:0:0:
255,192,78217,1,8,0:0:0:0:
255,192,78383,1,0,0:0:0:0:
255,192,78717,1,8,0:0:0:0:
255,192,78800,1,8,0:0:0:0:
255,192,78883,1,0,0:0:0:0:
255,192,79050,1,8,0:0:0:0:
255,192,79217,1,0,0:0:0:0:
255,192,79383,1,0,0:0:0:0:
255,192,79467,1,0,0:0:0:0:
255,192,79550,1,8,0:0:0:0:
255,192,79717,1,0,0:0:0:0:
255,192,80050,1,8,0:0:0:0:
255,192,80133,1,8,0:0:0:0:
255,192,80217,1,0,0:0:0:0:
255,192,80383,1,8,0:0:0:0:
255,192,80550,1,0,0:0:0:0:
255,192,80717,1,0,0:0:0:0:
255,192,80800,1,0,0:0:0:0:
255,192,80883,1,8,0:0:0:0:
255,192,81050,1,0,0:0:0:0:
255,192,81217,1,8,0:0:0:0:
255,192,81383,1,8,0:0:0:0:
255,192,81467,1,0,0:0:0:0:
255,192,81550,1,0,0:0:0:0:
255,192,81717,1,8,0:0:0:0:
255,192,81883,1,0,0:0:0:0:
255,192,82050,1,0,0:0:0:0:
255,192,82133,1,8,0:0:0:0:
255,192,82217,1,8,0:0:0:0:
255,192,82383,1,4,0:0:0:0:
255,192,82550,1,4,0:0:0:0:
255,192,82883,1,0,0:0:0:0:
255,192,82966,1,0,0:0:0:0:
255,192,83050,1,0,0:0:0:0:
255,192,83216,1,0,0:0:0:0:
255,192,83383,1,12,0:0:0:0:
255,192,83550,1,0,0:0:0:0:
255,192,83716,1,12,0:0:0:0:
255,192,83883,1,0,0:0:0:0:
255,192,84216,1,0,0:0:0:0:
255,192,84300,1,0,0:0:0:0:
255,192,84383,1,0,0:0:0:0:
255,192,84550,1,0,0:0:0:0:
255,192,84716,1,12,0:0:0:0:
255,192,84883,1,4,0:0:0:0:
255,192,85050,1,12,0:0:0:0:
255,192,85216,1,4,0:0:0:0:
255,192,85383,1,4,0:0:0:0:
256,192,85550,12,0,89050,0:0:0:0:
