osu file format v14

[General]
AudioFilename: audio.mp3
AudioLeadIn: 993
PreviewTime:47966
Countdown: 0
SampleSet: Soft
StackLeniency: 0.7
Mode: 0
LetterboxInBreaks: 0
WidescreenStoryboard: 1

[Editor]
DistanceSpacing: 1.6
BeatDivisor: 4
GridSize: 16
TimelineZoom: 2.4

[Metadata]
Title:Triple Baka
TitleUnicode:驫麤~とりぷるばか~
Artist:LamazeP
ArtistUnicode:ラマーズP
Creator:Sotarks
Version:Baka Baka Baka!
Source:
Tags:初音ミク 重音テト 亞北ネル Hatsune Miku Kasane Teto Akita Neru Niconico Vocaloid Japanese Female Fool Stupid Short Cut Edit Version Electronic kudosu kowari chiga elinor eli [_eli_] soop so0p charlotte surono yasuho ayyri eiri-
BeatmapID:2547378
BeatmapSetID:1224831

[Difficulty]
HPDrainRate:6.2
CircleSize:4
OverallDifficulty:9
ApproachRate:9.2
SliderMultiplier:1.82
SliderTickRate:1

[Events]
//Background and Video events
0,0,"bg.jpg"
//Break Periods
//Storyboard Layer 0 (Background)
//Storyboard Layer 1 (Fail)
//Storyboard Layer 2 (Pass)
//Storyboard Layer 3 (Foreground)
//Storyboard Layer 4 (Overlay)
//Storyboard Sound Samples

[TimingPoints]
-1283,333.333333333333,4,2,22,52,1,0
4050,-98.0392156862745,4,2,22,52,0,0
5383,-98.0392156862745,4,2,22,72,0,0
15050,-108.695652173913,4,2,22,72,0,0
16050,-108.695652173913,4,2,22,62,0,0
46883,-98.0392156862745,4,2,22,62,0,0
48050,-98.0392156862745,4,2,22,82,0,0
71883,-98.0392156862745,4,2,22,62,0,0
72050,-98.0392156862745,4,2,22,72,0,0
85383,-238.095238095238,4,2,22,62,0,0

[Colours]
Combo1 : 241,150,223
Combo2 : 65,250,222
Combo3 : 252,255,113

[HitObjects]
253,378,4050,6,0,L|243:318,1,46.4282,2|0,1:2|0:2,0:2:0:0:
5,322,4216,1,2,0:2:0:0:
5,322,4300,1,2,0:2:0:0:
5,322,4383,2,0,L|15:262,1,46.4282,2|0,1:2|0:2,0:2:0:0:
194,257,4550,2,0,L|184:197,1,46.4282,2|0,0:2|0:2,0:2:0:0:
36,96,4716,1,0,3:2:0:0:
299,168,4883,1,0,3:2:0:0:
184,33,5050,5,0,3:2:0:0:
184,33,5133,1,0,3:2:0:0:
184,33,5216,1,0,3:2:0:0:
184,33,5300,1,0,3:2:0:0:
184,33,5383,6,0,P|178:86|169:147,1,93.0056405665281,6|0,1:2|0:2,0:2:0:0:
391,236,5716,2,0,P|385:191|380:144,1,93.0056405665281,10|0,0:2|0:2,0:2:0:0:
221,286,6050,1,2,1:2:0:0:
221,286,6133,1,2,0:2:0:0:
221,286,6216,1,2,0:2:0:0:
343,44,6383,2,0,P|397:53|450:68,1,93.0056405665281,10|0,0:2|0:2,0:2:0:0:
240,197,6716,5,2,1:2:0:0:
240,197,6800,1,2,0:2:0:0:
240,197,6883,1,2,0:2:0:0:
426,280,7050,1,10,0:2:0:0:
314,55,7216,1,2,0:2:0:0:
199,297,7383,1,2,1:2:0:0:
199,297,7466,1,2,0:2:0:0:
199,297,7550,1,2,0:2:0:0:
419,173,7716,2,0,P|407:113|398:62,1,93.0056405665281,10|0,0:2|0:2,0:2:0:0:
318,290,8050,5,2,1:2:0:0:
318,290,8133,1,2,0:2:0:0:
318,290,8216,1,2,0:2:0:0:
213,59,8383,2,0,P|164:70|116:87,1,93.0056405665281,10|0,0:2|0:2,0:2:0:0:
77,320,8716,1,2,1:2:0:0:
77,320,8800,1,2,0:2:0:0:
77,320,8883,1,2,0:2:0:0:
280,123,9050,2,0,P|332:135|377:151,1,93.0056405665281,10|0,0:2|0:2,0:2:0:0:
219,357,9383,5,2,1:2:0:0:
193,339,9466,1,2,0:2:0:0:
175,312,9550,1,2,0:2:0:0:
167,281,9633,1,2,0:2:0:0:
170,249,9716,2,0,P|220:231|267:221,1,93.0056405665281,10|0,0:2|0:2,0:2:0:0:
481,277,10050,1,2,1:2:0:0:
464,305,10133,1,2,0:2:0:0:
438,324,10216,1,2,0:2:0:0:
408,334,10300,1,2,0:2:0:0:
375,333,10383,1,10,0:2:0:0:
281,57,10550,1,4,0:3:0:0:
400,231,10716,5,2,1:2:0:0:
400,231,10800,1,2,0:2:0:0:
400,231,10883,1,2,0:2:0:0:
191,115,11050,2,0,P|246:92|298:80,1,93.0056405665281,10|0,0:2|0:2,0:2:0:0:
170,329,11383,1,2,1:2:0:0:
170,329,11466,1,2,0:2:0:0:
170,329,11550,1,2,0:2:0:0:
388,207,11716,2,0,P|338:183|281:172,1,93.0056405665281,10|0,0:2|0:2,0:2:0:0:
107,21,12050,5,2,1:2:0:0:
83,43,12133,1,2,0:2:0:0:
67,71,12216,1,2,0:2:0:0:
62,103,12300,1,2,0:2:0:0:
68,135,12383,1,10,0:2:0:0:
263,273,12550,1,2,0:2:0:0:
151,100,12716,1,2,1:2:0:0:
151,100,12800,1,2,0:2:0:0:
151,100,12883,1,2,0:2:0:0:
96,331,13050,2,0,P|146:311|203:296,1,93.0056405665281,10|0,0:2|0:2,0:2:0:0:
281,78,13383,5,2,1:2:0:0:
281,78,13466,1,2,0:2:0:0:
281,78,13550,1,2,0:2:0:0:
122,231,13716,1,10,0:2:0:0:
304,318,13883,1,2,0:2:0:0:
155,96,14050,1,2,1:2:0:0:
155,96,14133,1,2,0:2:0:0:
155,96,14216,1,2,0:2:0:0:
60,345,14383,2,0,P|106:356|149:370,1,93.0056405665281,10|0,0:2|0:2,0:2:0:0:
362,186,14716,5,2,1:2:0:0:
339,164,14800,1,2,0:2:0:0:
310,151,14883,1,2,0:2:0:0:
277,150,14966,1,2,0:2:0:0:
247,161,15050,2,0,P|230:204|228:259,1,83.7199971895753,10|0,0:2|0:2,0:2:0:0:
364,52,15383,1,6,1:3:0:0:
138,210,15550,1,6,0:3:0:0:
383,296,15716,1,14,0:3:0:0:
217,63,15883,1,6,1:3:0:0:
114,323,16050,6,0,P|160:332|207:349,1,83.8874371895751,4|0,1:2|0:2,0:2:0:0:
327,140,16383,2,0,P|285:147|246:160,1,83.8874371895751,10|0,0:2|0:2,0:2:0:0:
390,237,16716,1,2,1:2:0:0:
268,59,16883,1,2,0:2:0:0:
209,308,17050,1,10,0:2:0:0:
399,157,17216,1,2,0:2:0:0:
181,78,17383,6,0,P|161:125|150:171,1,83.8874371895751,2|0,1:2|0:2,0:2:0:0:
263,330,17716,1,10,0:2:0:0:
75,254,17883,1,2,0:2:0:0:
246,160,18050,1,2,1:2:0:0:
118,350,18216,2,0,P|68:336|22:329,1,83.8874371895751,2|8,0:2|0:2,0:2:0:0:
18,102,18550,6,0,P|96:95|155:190,1,167.774874379151,2|2,0:2|0:2,0:2:0:0:
259,328,19050,2,0,P|273:258|282:232,1,83.8874371895751,10|0,0:2|0:2,0:2:0:0:
410,165,19383,2,0,P|421:205|427:246,1,83.8874371895751,0|0,1:2|0:2,0:2:0:0:
242,105,19716,2,0,P|284:79|334:65,1,83.8874371895751,8|0,0:2|0:2,0:2:0:0:
181,274,20050,5,0,1:2:0:0:
127,66,20216,1,2,0:2:0:0:
301,202,20383,1,10,0:2:0:0:
74,175,20550,1,2,0:2:0:0:
253,60,20716,1,2,1:2:0:0:
176,291,20883,1,2,0:2:0:0:
329,111,21050,1,10,0:2:0:0:
357,104,21133,1,2,0:2:0:0:
386,107,21216,1,2,0:2:0:0:
412,120,21300,1,2,0:2:0:0:
432,140,21383,6,0,P|422:192|414:251,1,83.8874371895751,2|0,1:2|0:2,0:2:0:0:
291,343,21716,2,0,P|284:301|275:260,1,83.8874371895751,8|0,0:2|0:2,0:2:0:0:
174,86,22050,2,0,P|226:93|275:104,1,83.8874371895751,2|0,1:2|0:2,0:2:0:0:
399,0,22383,2,0,P|357:5|316:13,1,83.8874371895751,10|0,0:2|0:2,0:2:0:0:
118,182,22716,6,0,P|77:150|104:20,1,167.774874379151,2|8,1:2|0:2,0:2:0:0:
170,260,23216,1,2,0:2:0:0:
240,16,23383,1,2,1:2:0:0:
243,301,23550,1,2,0:2:0:0:
173,57,23716,1,10,0:2:0:0:
100,308,23883,6,0,P|185:295|277:281,1,167.774874379151,2|0,0:2|0:2,0:2:0:0:
431,203,24383,2,0,P|441:253|448:293,1,83.8874371895751,8|0,0:2|0:2,0:2:0:0:
220,249,24716,2,0,P|227:208|236:167,1,83.8874371895751,0|0,1:2|0:2,0:2:0:0:
305,18,25050,2,0,P|244:28|190:38,1,83.8874371895751,8|0,0:2|0:2,0:2:0:0:
59,174,25383,6,0,P|100:180|141:187,1,83.8874371895751,2|0,1:2|0:2,0:2:0:0:
325,103,25716,2,0,P|333:144|340:185,1,83.8874371895751,10|0,0:2|0:2,0:2:0:0:
281,349,26050,1,2,3:2:0:0:
281,349,26133,1,0,3:2:0:0:
281,349,26216,1,0,3:2:0:0:
412,123,26383,1,10,0:2:0:0:
501,335,26550,1,0,3:2:0:0:
501,335,26633,1,0,3:2:0:0:
501,335,26716,6,0,P|444:320|400:314,1,83.8874371895751,0|0,1:2|0:2,0:2:0:0:
259,204,27050,2,0,P|299:192|340:185,1,83.8874371895751,10|2,0:2|0:2,0:2:0:0:
253,371,27383,2,0,P|191:377|124:290,1,167.774874379151,2|10,1:2|0:2,0:2:0:0:
208,112,27883,1,2,0:2:0:0:
28,193,28050,5,2,1:2:0:0:
225,288,28216,1,2,0:2:0:0:
107,98,28383,1,10,0:2:0:0:
39,313,28550,1,2,0:2:0:0:
218,190,28716,1,2,1:2:0:0:
13,114,28883,2,0,P|4:168|-5:230,1,83.8874371895751,2|8,0:2|0:2,0:2:0:0:
274,111,29216,6,0,P|244:47|138:40,1,167.774874379151,2|2,0:2|0:2,0:2:0:0:
196,238,29716,2,0,P|241:224|295:215,1,83.8874371895751,10|0,0:2|0:2,0:2:0:0:
361,57,30050,2,0,P|321:44|280:36,1,83.8874371895751,0|0,1:2|0:2,0:2:0:0:
482,174,30383,2,0,P|470:117|460:81,1,83.8874371895751,8|0,0:2|0:2,0:2:0:0:
302,175,30716,5,0,1:2:0:0:
468,267,30883,1,2,0:2:0:0:
361,57,31050,1,10,0:2:0:0:
302,321,31216,1,2,0:2:0:0:
236,102,31383,1,2,1:2:0:0:
438,241,31550,1,2,0:2:0:0:
211,87,31716,1,10,0:2:0:0:
188,105,31800,1,2,0:2:0:0:
174,131,31883,1,2,0:2:0:0:
170,159,31966,1,2,0:2:0:0:
176,188,32050,6,0,P|228:172|269:166,1,83.8874371895751,2|0,1:2|0:2,0:2:0:0:
366,24,32383,2,0,P|326:10|285:3,1,83.8874371895751,8|0,0:2|0:2,0:2:0:0:
357,213,32716,1,2,1:2:0:0:
465,17,32883,1,2,0:2:0:0:
284,88,33050,1,10,0:2:0:0:
482,213,33216,1,2,0:2:0:0:
366,24,33383,5,2,1:2:0:0:
306,263,33550,1,2,0:2:0:0:
484,127,33716,1,10,0:2:0:0:
257,66,33883,1,2,0:2:0:0:
398,274,34050,1,2,1:2:0:0:
443,25,34216,1,2,0:2:0:0:
214,179,34383,1,8,0:2:0:0:
447,107,34550,2,0,P|386:83|348:80,1,83.8874371895751,0|0,0:2|1:2,0:2:0:0:
181,275,34883,5,2,0:2:0:0:
243,64,35050,1,10,0:2:0:0:
294,303,35216,1,2,0:2:0:0:
232,92,35383,1,2,1:2:0:0:
169,305,35550,1,2,0:2:0:0:
84,133,35716,1,10,0:2:0:0:
290,200,35883,1,2,0:2:0:0:
89,379,36050,6,0,P|82:335|74:292,1,83.8874371895751,2|0,1:2|0:2,0:2:0:0:
238,70,36383,1,8,0:2:0:0:
169,305,36550,1,8,0:2:0:0:
164,0,36883,5,8,0:2:0:0:
289,224,37050,1,0,1:2:0:0:
109,142,37216,1,8,0:2:0:0:
109,142,37300,1,8,0:2:0:0:
109,142,37383,6,0,P|161:117|196:111,1,83.8874371895751,4|0,1:2|0:2,0:2:0:0:
374,31,37716,2,0,P|322:6|287:0,1,83.8874371895751,10|0,0:2|0:2,0:2:0:0:
393,207,38050,1,2,1:2:0:0:
478,13,38216,1,2,0:2:0:0:
289,113,38383,1,10,0:2:0:0:
500,216,38550,1,2,0:2:0:0:
374,31,38716,5,2,1:2:0:0:
316,259,38883,1,2,0:2:0:0:
508,115,39050,1,10,0:2:0:0:
269,42,39216,2,0,P|262:93|253:151,1,83.8874371895751,2|0,0:2|1:2,0:2:0:0:
466,277,39550,2,0,P|459:235|454:194,1,83.8874371895751,8|0,0:2|0:2,0:2:0:0:
217,321,39883,1,8,0:2:0:0:
346,148,40050,5,0,1:2:0:0:
409,361,40216,1,2,0:2:0:0:
208,234,40383,1,10,0:2:0:0:
423,165,40550,1,2,0:2:0:0:
306,373,40716,1,2,1:2:0:0:
244,148,40883,1,2,0:2:0:0:
435,269,41050,1,10,0:2:0:0:
187,350,41216,1,2,0:2:0:0:
335,117,41383,5,2,1:2:0:0:
259,301,41550,1,2,0:2:0:0:
322,94,41716,1,10,0:2:0:0:
403,279,41883,2,0,P|452:262|508:249,1,83.8874371895751,2|0,0:2|1:2,0:2:0:0:
245,383,42216,2,0,P|196:366|140:353,1,83.8874371895751,8|0,0:2|0:2,0:2:0:0:
308,108,42550,1,8,0:2:0:0:
308,108,42633,1,8,0:2:0:0:
308,108,42716,5,0,1:2:0:0:
234,295,42883,1,2,0:2:0:0:
149,84,43050,1,10,0:2:0:0:
223,271,43216,1,2,0:2:0:0:
306,78,43383,1,2,1:2:0:0:
94,179,43550,1,2,0:2:0:0:
278,91,43716,1,10,0:2:0:0:
127,271,43883,1,2,0:2:0:0:
192,41,44050,5,2,1:2:0:0:
313,248,44216,1,2,0:2:0:0:
205,65,44383,1,10,0:2:0:0:
127,271,44550,2,0,P|82:260|36:254,1,83.8874371895751,2|0,0:2|1:2,0:2:0:0:
293,99,44883,2,0,P|338:88|384:82,1,83.8874371895751,8|0,0:2|0:2,0:2:0:0:
255,341,45216,1,8,0:2:0:0:
255,341,45300,1,8,0:2:0:0:
255,341,45383,5,0,1:2:0:0:
163,128,45550,1,2,0:2:0:0:
366,267,45716,1,10,0:2:0:0:
137,241,45883,1,2,0:2:0:0:
293,99,46050,5,2,1:2:0:0:
224,325,46216,1,2,0:2:0:0:
9,277,46383,1,10,0:2:0:0:
78,51,46550,1,10,0:2:0:0:
78,51,46633,1,8,0:2:0:0:
78,51,46716,5,10,0:2:0:0:
202,304,46883,2,0,L|210:254,1,46.6866385947876,8|8,0:2|0:2,0:2:0:0:
259,61,47050,1,8,0:2:0:0:
36,257,47216,1,8,0:2:0:0:
36,257,47550,5,4,1:3:0:0:
225,83,47716,1,4,1:3:0:0:
225,83,48050,5,6,1:2:0:0:
158,323,48216,1,2,0:2:0:0:
234,54,48383,5,10,0:2:0:0:
301,294,48550,1,2,0:2:0:0:
386,78,48716,5,2,1:2:0:0:
319,318,48883,1,2,0:2:0:0:
147,109,49050,2,0,P|139:167|133:218,1,93.0056405665281,8|2,0:2|0:2,0:2:0:0:
428,249,49383,6,0,B|374:221|331:260|352:276|303:320|221:276,1,186.011281133057,2|8,1:2|0:2,0:2:0:0:
54,215,49883,1,2,3:2:0:0:
54,215,49966,1,2,3:2:0:0:
54,215,50050,2,0,P|61:283|67:334,1,93.0056405665281,2|0,1:2|0:2,0:2:0:0:
261,177,50383,1,10,0:2:0:0:
87,71,50550,1,2,0:2:0:0:
259,290,50716,6,0,P|310:278|365:266,1,93.0056405665281,2|0,1:2|0:2,0:2:0:0:
415,62,51050,2,0,P|369:51|324:41,1,93.0056405665281,10|0,0:2|0:2,0:2:0:0:
166,253,51383,1,2,1:2:0:0:
344,137,51550,1,0,0:2:0:0:
155,30,51716,1,10,0:2:0:0:
272,225,51883,1,2,3:2:0:0:
272,225,51966,1,0,3:2:0:0:
272,225,52050,6,0,B|331:201|388:178|388:178|420:199|458:223,1,186.011281133057,2|8,1:2|0:2,0:2:0:0:
176,62,52550,1,2,3:2:0:0:
176,62,52633,1,2,3:2:0:0:
176,62,52716,2,0,P|169:119|163:167,1,93.0056405665281,2|0,1:2|0:2,0:2:0:0:
267,267,53050,1,8,0:2:0:0:
75,200,53216,1,0,1:2:0:0:
269,32,53383,6,0,P|276:89|282:137,1,93.0056405665281,6|0,1:2|0:2,0:2:0:0:
150,318,53716,1,10,0:2:0:0:
200,102,53883,1,0,1:2:0:0:
300,317,54050,2,0,P|352:301|406:288,1,93.0056405665281,6|0,1:2|0:2,0:2:0:0:
466,111,54383,1,10,0:2:0:0:
295,208,54550,1,2,1:2:0:0:
492,351,54716,6,0,P|497:304|503:258,1,93.0056405665281,6|0,1:2|0:2,0:2:0:0:
307,74,55050,1,10,0:2:0:0:
389,291,55216,1,0,1:2:0:0:
314,47,55383,1,6,1:2:0:0:
232,264,55550,1,0,1:2:0:0:
399,81,55716,1,10,0:2:0:0:
164,178,55883,1,0,1:2:0:0:
412,42,56050,6,0,B|438:69|457:87|457:87|436:149|409:238,1,186.011281133057,6|8,1:2|0:2,0:2:0:0:
222,101,56550,1,2,3:2:0:0:
222,101,56633,1,0,3:2:0:0:
222,101,56716,2,0,P|272:88|321:76,1,93.0056405665281,2|0,1:2|0:2,0:2:0:0:
199,286,57050,2,0,P|154:274|109:263,1,93.0056405665281,8|0,0:2|0:2,0:2:0:0:
279,167,57383,5,4,1:2:0:0:
144,89,57550,1,2,0:2:0:0:
278,307,57716,1,10,0:2:0:0:
383,71,57883,1,2,0:2:0:0:
139,230,58050,1,2,1:2:0:0:
448,159,58216,1,14,0:2:0:0:
165,222,58383,1,12,0:2:0:0:
392,351,58550,1,0,1:2:0:0:
392,351,58633,1,0,1:2:0:0:
392,351,58716,5,6,1:2:0:0:
289,100,58883,1,2,0:2:0:0:
195,326,59050,5,10,0:2:0:0:
298,75,59216,1,2,0:2:0:0:
270,383,59383,5,2,1:2:0:0:
167,132,59550,1,2,0:2:0:0:
79,372,59716,2,0,P|125:361|174:351,1,93.0056405665281,8|2,0:2|0:2,0:2:0:0:
432,148,60050,6,0,B|378:120|335:159|356:175|307:219|225:175,1,186.011281133057,2|8,1:2|0:2,0:2:0:0:
101,37,60550,1,2,3:2:0:0:
101,37,60633,1,2,3:2:0:0:
101,37,60716,1,2,1:2:0:0:
285,96,60883,1,0,0:2:0:0:
92,219,61050,1,10,0:2:0:0:
223,16,61216,1,2,0:2:0:0:
302,253,61383,6,0,P|242:267|201:282,1,93.0056405665281,2|0,1:2|0:2,0:2:0:0:
86,78,61716,2,0,P|146:92|187:107,1,93.0056405665281,10|0,0:2|0:2,0:2:0:0:
35,329,62050,2,0,P|47:277|69:226,1,93.0056405665281,2|0,1:2|0:2,0:0:0:0:
203,84,62383,1,10,0:2:0:0:
3,163,62550,1,2,3:2:0:0:
200,309,62716,6,0,B|254:337|297:298|276:282|325:238|407:282,1,186.011281133057,2|8,1:2|0:2,0:2:0:0:
236,176,63216,1,2,3:2:0:0:
236,176,63300,1,2,3:2:0:0:
236,176,63383,2,0,P|173:189|124:208,1,93.0056405665281,2|0,1:2|0:2,0:2:0:0:
352,361,63716,1,8,0:2:0:0:
445,132,63883,1,0,1:2:0:0:
216,277,64050,6,0,P|227:331|235:376,1,93.0056405665281,6|0,1:2|0:2,0:2:0:0:
356,175,64383,1,10,0:2:0:0:
133,122,64550,1,0,1:2:0:0:
313,299,64716,2,0,P|357:284|402:276,1,93.0056405665281,6|0,1:2|0:2,0:2:0:0:
256,84,65050,1,10,0:2:0:0:
133,288,65216,1,2,1:2:0:0:
363,157,65383,6,0,P|354:111|345:65,1,93.0056405665281,6|0,1:2|0:2,0:2:0:0:
212,214,65716,1,10,0:2:0:0:
431,287,65883,1,0,1:2:0:0:
181,227,66050,1,6,1:2:0:0:
398,147,66216,1,0,1:2:0:0:
230,338,66383,1,10,0:2:0:0:
212,102,66550,1,0,1:2:0:0:
356,317,66716,6,0,P|430:301|451:187,1,186.011281133057,6|8,1:2|0:2,0:2:0:0:
304,34,67216,1,2,3:2:0:0:
368,226,67383,1,2,1:2:0:0:
313,59,67550,1,0,0:2:0:0:
241,258,67716,1,8,0:2:0:0:
398,149,67883,1,0,3:2:0:0:
398,149,67966,1,0,3:0:0:0:
398,149,68050,5,4,1:2:0:0:
215,86,68216,1,2,0:2:0:0:
356,317,68383,1,10,0:2:0:0:
451,69,68550,1,2,0:2:0:0:
217,244,68716,1,2,1:2:0:0:
491,171,68883,1,14,0:2:0:0:
245,237,69050,1,12,0:2:0:0:
363,28,69216,5,0,1:2:0:0:
363,28,69300,1,0,1:2:0:0:
363,28,69383,2,0,P|375:82|386:140,1,93.0056405665281,0|2,1:2|0:2,0:2:0:0:
283,308,69716,1,10,0:2:0:0:
155,106,69883,1,2,0:2:0:0:
381,157,70050,1,2,1:2:0:0:
114,275,70216,1,2,1:2:0:0:
355,168,70383,1,10,0:2:0:0:
106,32,70550,1,2,1:2:0:0:
106,32,70883,5,8,1:2:0:0:
300,337,71050,1,8,1:2:0:0:
300,337,71883,5,0,3:2:0:0:
300,337,71966,1,0,3:2:0:0:
300,337,72050,2,0,P|306:284|315:223,1,93.0056405665281,6|0,1:2|0:2,0:2:0:0:
93,134,72383,2,0,P|99:179|104:226,1,93.0056405665281,10|0,0:2|0:2,0:2:0:0:
263,84,72716,1,2,1:2:0:0:
263,84,72800,1,2,0:2:0:0:
263,84,72883,1,2,0:2:0:0:
141,326,73050,2,0,P|87:317|38:312,1,93.0056405665281,10|0,0:2|0:2,0:2:0:0:
244,173,73383,5,2,1:2:0:0:
244,173,73466,1,2,0:2:0:0:
244,173,73550,1,2,0:2:0:0:
58,90,73716,1,10,0:2:0:0:
170,315,73883,1,2,0:2:0:0:
285,73,74050,1,2,1:2:0:0:
285,73,74133,1,2,0:2:0:0:
285,73,74216,1,2,0:2:0:0:
65,197,74383,2,0,P|77:257|86:308,1,93.0056405665281,10|0,0:2|0:2,0:2:0:0:
166,80,74716,5,2,1:2:0:0:
166,80,74800,1,2,0:2:0:0:
166,80,74883,1,2,0:2:0:0:
271,311,75050,2,0,P|321:293|368:283,1,93.0056405665281,10|0,0:2|0:2,0:2:0:0:
407,50,75383,1,2,1:2:0:0:
407,50,75466,1,2,0:2:0:0:
407,50,75550,1,2,0:2:0:0:
204,247,75716,2,0,P|154:229|107:219,1,93.0056405665281,10|0,0:2|0:2,0:2:0:0:
265,13,76050,5,2,1:2:0:0:
291,31,76133,1,2,0:2:0:0:
309,58,76216,1,2,0:2:0:0:
317,89,76300,1,2,0:2:0:0:
314,121,76383,2,0,P|264:139|217:149,1,93.0056405665281,10|0,0:2|0:2,0:2:0:0:
3,93,76716,1,2,1:2:0:0:
20,65,76800,1,2,0:2:0:0:
46,46,76883,1,2,0:2:0:0:
76,36,76966,1,2,0:2:0:0:
109,37,77050,1,10,0:2:0:0:
203,313,77216,1,4,0:3:0:0:
84,139,77383,5,2,1:2:0:0:
84,139,77466,1,2,0:2:0:0:
84,139,77550,1,2,0:2:0:0:
293,255,77716,2,0,P|231:270|186:290,1,93.0056405665281,10|0,0:2|0:2,0:2:0:0:
314,41,78050,1,2,1:2:0:0:
314,41,78133,1,2,0:2:0:0:
314,41,78216,1,2,0:2:0:0:
96,163,78383,2,0,P|158:178|203:198,1,93.0056405665281,10|0,0:2|0:2,0:2:0:0:
377,349,78716,5,2,1:2:0:0:
401,327,78800,1,2,0:2:0:0:
417,299,78883,1,2,0:2:0:0:
422,267,78966,1,2,0:2:0:0:
416,235,79050,1,10,0:2:0:0:
221,97,79216,1,2,0:2:0:0:
333,270,79383,1,2,1:2:0:0:
333,270,79466,1,2,0:2:0:0:
333,270,79550,1,2,0:2:0:0:
388,39,79716,2,0,P|326:54|281:74,1,93.0056405665281,10|0,0:2|0:2,0:2:0:0:
203,292,80050,5,2,1:2:0:0:
203,292,80133,1,2,0:2:0:0:
203,292,80216,1,2,0:2:0:0:
362,139,80383,1,10,0:2:0:0:
180,52,80550,1,2,0:2:0:0:
329,274,80716,1,2,1:2:0:0:
329,274,80800,1,2,0:2:0:0:
329,274,80883,1,2,0:2:0:0:
424,25,81050,2,0,P|380:8|335:0,1,93.0056405665281,10|0,0:2|0:2,0:2:0:0:
122,184,81383,5,2,1:2:0:0:
145,206,81466,1,2,0:2:0:0:
174,219,81550,1,2,0:2:0:0:
207,220,81633,1,2,0:2:0:0:
237,209,81716,2,0,P|254:166|254:105,1,93.0056405665281,10|0,0:2|0:2,0:2:0:0:
120,318,82050,1,6,1:3:0:0:
230,97,82216,1,6,0:3:0:0:
352,245,82383,1,14,0:3:0:0:
242,24,82550,1,6,1:3:0:0:
249,8,82883,5,2,1:2:0:0:
249,8,82966,1,2,1:2:0:0:
249,8,83050,1,2,1:2:0:0:
205,292,83216,1,2,1:2:0:0:
125,53,83383,5,14,0:3:0:0:
377,99,83550,1,6,1:3:0:0:
323,351,83716,1,14,0:3:0:0:
71,305,83883,1,6,1:3:0:0:
50,326,84216,5,2,1:2:0:0:
50,326,84300,1,2,1:2:0:0:
50,326,84383,1,2,1:2:0:0:
363,231,84550,1,2,1:2:0:0:
104,83,84716,5,14,0:3:0:0:
175,360,84883,1,6,1:3:0:0:
459,296,85050,1,14,0:3:0:0:
386,17,85216,1,6,1:3:0:0:
284,293,85383,6,0,B|253:178|391:195|403:101|384:29|333:13|283:42|273:52|273:52|258:45|186:28|153:71|175:203|232:135|262:214,1,611.596421337889,4|0,1:2|0:0,0:0:0:0:
