osu file format v14

[General]
AudioFilename: audio.mp3
AudioLeadIn: 993
PreviewTime: 47966
Countdown: 0
SampleSet: Normal
StackLeniency: 0.7
Mode: 1
LetterboxInBreaks: 0
WidescreenStoryboard: 0

[Editor]
Bookmarks: 50,5383,10716,16050,21383,26716,32050,37383,42716,48050,58383,58716,72050,77383,82550,85383,89050
DistanceSpacing: 1.6
BeatDivisor: 4
GridSize: 32
TimelineZoom: 2.4

[Metadata]
Title:Triple Baka
TitleUnicode:驫麤~とりぷるばか~
Artist:LamazeP
ArtistUnicode:ラマーズP
Creator:Sotarks
Version:Ayyri's Oni
Source:
Tags:初音ミク 重音テト 亞北ネル Hatsune Miku Kasane Teto Akita Neru Niconico Vocaloid Japanese Female Fool Stupid Short Cut Edit Version Electronic kudosu kowari chiga elinor eli [_eli_] soop so0p charlotte surono yasuho ayyri eiri-
BeatmapID:2554513
BeatmapSetID:1224831

[Difficulty]
HPDrainRate:6
CircleSize:2
OverallDifficulty:5
ApproachRate:10
SliderMultiplier:1.4
SliderTickRate:1

[Events]
//Background and Video events
0,0,"bg.jpg",0,69
//Break Periods
//Storyboard Layer 0 (Background)
//Storyboard Layer 1 (Fail)
//Storyboard Layer 2 (Pass)
//Storyboard Layer 3 (Foreground)
//Storyboard Layer 4 (Overlay)
//Storyboard Sound Samples

[TimingPoints]
-1283,333.333333333333,4,1,0,75,1,0
50,-100,4,1,0,20,0,0
2716,-100,4,1,0,30,0,0
4050,-100,4,1,0,50,0,0
5383,-100,4,1,0,75,0,0
48050,-100,4,1,0,75,0,1
58383,-100,4,1,0,75,0,0
58716,-100,4,1,0,75,0,1
72050,-100,4,1,0,75,0,0
85383,-100,4,1,0,50,0,0
86050,-100,4,1,0,40,0,0
86716,-100,4,1,0,30,0,0
87383,-100,4,1,0,20,0,0
88050,-100,4,1,0,10,0,0
88716,-100,4,1,0,7,0,0
89050,-100,4,1,0,5,0,0

[Colours]
Combo1 : 241,150,223
Combo2 : 65,250,222
Combo3 : 252,255,113

[HitObjects]
256,192,50,5,8,0:0:0:0:
256,192,133,1,8,0:0:0:0:
256,192,216,1,8,0:0:0:0:
256,192,383,1,0,0:0:0:0:
256,192,550,1,0,0:0:0:0:
256,192,716,1,0,0:0:0:0:
256,192,800,1,0,0:0:0:0:
256,192,883,1,0,0:0:0:0:
256,192,1050,1,0,0:0:0:0:
256,192,1383,1,8,0:0:0:0:
256,192,1466,1,8,0:0:0:0:
256,192,1550,1,8,0:0:0:0:
256,192,1716,1,0,0:0:0:0:
256,192,1883,1,0,0:0:0:0:
256,192,2050,1,0,0:0:0:0:
256,192,2133,1,0,0:0:0:0:
256,192,2216,1,0,0:0:0:0:
256,192,2383,1,0,0:0:0:0:
256,192,2716,1,8,0:0:0:0:
256,192,2800,1,8,0:0:0:0:
256,192,2883,1,8,0:0:0:0:
256,192,3050,1,8,0:0:0:0:
256,192,3216,1,0,0:0:0:0:
256,192,3383,1,0,0:0:0:0:
256,192,3466,1,0,0:0:0:0:
256,192,3550,1,0,0:0:0:0:
256,192,3716,1,8,0:0:0:0:
256,192,4050,1,8,0:0:0:0:
256,192,4133,1,8,0:0:0:0:
256,192,4216,1,0,0:0:0:0:
256,192,4300,1,0,0:0:0:0:
256,192,4383,1,8,0:0:0:0:
256,192,4466,1,8,0:0:0:0:
256,192,4550,1,0,0:0:0:0:
256,192,4716,1,12,0:0:0:0:
256,192,4883,1,4,0:0:0:0:
256,192,5050,1,8,0:0:0:0:
256,192,5133,1,8,0:0:0:0:
256,192,5216,1,8,0:0:0:0:
256,192,5300,1,8,0:0:0:0:
256,192,5383,1,4,0:0:0:0:
256,192,5550,1,0,0:0:0:0:
256,192,5716,1,8,0:0:0:0:
256,192,5883,1,0,0:0:0:0:
256,192,6050,1,0,0:0:0:0:
256,192,6133,1,0,0:0:0:0:
256,192,6216,1,8,0:0:0:0:
256,192,6383,1,8,0:0:0:0:
256,192,6716,1,8,0:0:0:0:
256,192,6800,1,8,0:0:0:0:
256,192,6883,1,8,0:0:0:0:
256,192,7050,1,8,0:0:0:0:
256,192,7216,1,0,0:0:0:0:
256,192,7383,1,8,0:0:0:0:
256,192,7466,1,8,0:0:0:0:
256,192,7550,1,0,0:0:0:0:
256,192,7716,1,8,0:0:0:0:
256,192,7883,1,0,0:0:0:0:
256,192,8050,1,8,0:0:0:0:
256,192,8133,1,8,0:0:0:0:
256,192,8216,1,8,0:0:0:0:
256,192,8383,1,8,0:0:0:0:
256,192,8550,1,0,0:0:0:0:
256,192,8716,1,0,0:0:0:0:
256,192,8800,1,0,0:0:0:0:
256,192,8883,1,8,0:0:0:0:
256,192,9050,1,8,0:0:0:0:
256,192,9383,1,8,0:0:0:0:
256,192,9466,1,8,0:0:0:0:
256,192,9550,1,8,0:0:0:0:
256,192,9716,1,8,0:0:0:0:
256,192,9883,1,0,0:0:0:0:
256,192,10050,1,8,0:0:0:0:
256,192,10133,1,8,0:0:0:0:
256,192,10216,1,0,0:0:0:0:
256,192,10383,1,12,0:0:0:0:
256,192,10550,1,4,0:0:0:0:
256,192,10716,1,12,0:0:0:0:
256,192,10883,1,0,0:0:0:0:
256,192,11050,1,8,0:0:0:0:
256,192,11216,1,0,0:0:0:0:
256,192,11383,1,0,0:0:0:0:
256,192,11466,1,0,0:0:0:0:
256,192,11550,1,8,0:0:0:0:
256,192,11716,1,8,0:0:0:0:
256,192,12050,1,8,0:0:0:0:
256,192,12133,1,8,0:0:0:0:
256,192,12216,1,8,0:0:0:0:
256,192,12383,1,8,0:0:0:0:
256,192,12550,1,0,0:0:0:0:
256,192,12716,1,8,0:0:0:0:
256,192,12800,1,8,0:0:0:0:
256,192,12883,1,0,0:0:0:0:
256,192,13050,1,8,0:0:0:0:
256,192,13216,1,0,0:0:0:0:
256,192,13383,1,8,0:0:0:0:
256,192,13466,1,8,0:0:0:0:
256,192,13550,1,8,0:0:0:0:
256,192,13716,1,8,0:0:0:0:
256,192,13883,1,0,0:0:0:0:
256,192,14050,1,0,0:0:0:0:
256,192,14133,1,0,0:0:0:0:
256,192,14216,1,8,0:0:0:0:
256,192,14383,1,8,0:0:0:0:
256,192,14716,1,8,0:0:0:0:
256,192,14800,1,8,0:0:0:0:
256,192,14883,1,8,0:0:0:0:
256,192,15050,1,8,0:0:0:0:
256,192,15216,1,0,0:0:0:0:
256,192,15383,1,12,0:0:0:0:
256,192,15716,1,4,0:0:0:0:
256,192,15883,1,4,0:0:0:0:
256,192,16050,1,12,0:0:0:0:
256,192,16216,1,0,0:0:0:0:
256,192,16383,1,8,0:0:0:0:
256,192,16550,1,8,0:0:0:0:
256,192,16716,1,0,0:0:0:0:
256,192,16883,1,0,0:0:0:0:
256,192,17050,1,8,0:0:0:0:
256,192,17216,1,0,0:0:0:0:
256,192,17383,1,0,0:0:0:0:
256,192,17466,1,0,0:0:0:0:
256,192,17550,1,0,0:0:0:0:
256,192,17716,1,8,0:0:0:0:
256,192,17883,1,0,0:0:0:0:
256,192,18050,1,8,0:0:0:0:
256,192,18133,1,0,0:0:0:0:
256,192,18216,1,8,0:0:0:0:
256,192,18383,1,8,0:0:0:0:
256,192,18550,1,0,0:0:0:0:
256,192,18883,1,0,0:0:0:0:
256,192,19050,1,8,0:0:0:0:
256,192,19216,1,0,0:0:0:0:
256,192,19300,1,0,0:0:0:0:
256,192,19383,1,0,0:0:0:0:
256,192,19550,1,0,0:0:0:0:
256,192,19716,1,8,0:0:0:0:
256,192,19883,1,0,0:0:0:0:
256,192,19966,1,0,0:0:0:0:
256,192,20050,1,0,0:0:0:0:
256,192,20216,1,0,0:0:0:0:
256,192,20383,1,8,0:0:0:0:
256,192,20550,1,0,0:0:0:0:
256,192,20716,1,8,0:0:0:0:
256,192,20883,1,0,0:0:0:0:
256,192,21050,1,8,0:0:0:0:
256,192,21133,1,8,0:0:0:0:
256,192,21216,1,0,0:0:0:0:
256,192,21300,1,0,0:0:0:0:
256,192,21383,1,0,0:0:0:0:
256,192,21550,1,0,0:0:0:0:
256,192,21716,1,8,0:0:0:0:
256,192,22050,1,0,0:0:0:0:
256,192,22133,1,0,0:0:0:0:
256,192,22216,1,0,0:0:0:0:
256,192,22383,1,8,0:0:0:0:
256,192,22550,1,0,0:0:0:0:
256,192,22716,1,0,0:0:0:0:
256,192,22800,1,0,0:0:0:0:
256,192,22883,1,0,0:0:0:0:
256,192,23050,1,8,0:0:0:0:
256,192,23216,1,0,0:0:0:0:
256,192,23383,1,8,0:0:0:0:
256,192,23466,1,0,0:0:0:0:
256,192,23550,1,8,0:0:0:0:
256,192,23716,1,0,0:0:0:0:
256,192,23883,1,8,0:0:0:0:
256,192,23966,1,8,0:0:0:0:
256,192,24050,1,0,0:0:0:0:
256,192,24216,1,0,0:0:0:0:
256,192,24383,1,8,0:0:0:0:
256,192,24550,1,0,0:0:0:0:
256,192,24633,1,0,0:0:0:0:
256,192,24716,1,0,0:0:0:0:
256,192,24883,1,0,0:0:0:0:
256,192,25050,1,8,0:0:0:0:
256,192,25383,1,0,0:0:0:0:
256,192,25550,1,0,0:0:0:0:
256,192,25633,1,0,0:0:0:0:
256,192,25716,1,8,0:0:0:0:
256,192,25883,1,0,0:0:0:0:
256,192,26050,1,0,0:0:0:0:
256,192,26133,1,0,0:0:0:0:
256,192,26216,1,0,0:0:0:0:
256,192,26383,1,8,0:0:0:0:
256,192,26466,1,8,0:0:0:0:
256,192,26550,1,0,0:0:0:0:
256,192,26716,1,0,0:0:0:0:
256,192,26883,1,8,0:0:0:0:
256,192,26966,1,0,0:0:0:0:
256,192,27050,1,8,0:0:0:0:
256,192,27216,1,0,0:0:0:0:
256,192,27383,1,8,0:0:0:0:
256,192,27466,1,8,0:0:0:0:
256,192,27550,1,8,0:0:0:0:
256,192,27716,1,8,0:0:0:0:
256,192,27883,1,0,0:0:0:0:
256,192,28050,1,8,0:0:0:0:
256,192,28133,1,0,0:0:0:0:
256,192,28216,1,8,0:0:0:0:
256,192,28383,1,8,0:0:0:0:
256,192,28550,1,0,0:0:0:0:
256,192,28716,1,8,0:0:0:0:
256,192,28883,1,8,0:0:0:0:
256,192,29216,1,8,0:0:0:0:
256,192,29383,1,0,0:0:0:0:
256,192,29550,1,8,0:0:0:0:
256,192,29716,1,8,0:0:0:0:
256,192,29883,1,0,0:0:0:0:
256,192,29966,1,0,0:0:0:0:
256,192,30050,1,0,0:0:0:0:
256,192,30216,1,0,0:0:0:0:
256,192,30383,1,8,0:0:0:0:
256,192,30716,1,0,0:0:0:0:
256,192,30883,1,8,0:0:0:0:
256,192,30966,1,0,0:0:0:0:
256,192,31050,1,8,0:0:0:0:
256,192,31216,1,0,0:0:0:0:
256,192,31383,1,8,0:0:0:0:
256,192,31550,1,0,0:0:0:0:
256,192,31716,1,8,0:0:0:0:
256,192,31800,1,8,0:0:0:0:
256,192,31883,1,0,0:0:0:0:
256,192,31966,1,0,0:0:0:0:
256,192,32050,1,0,0:0:0:0:
256,192,32216,1,0,0:0:0:0:
256,192,32383,1,8,0:0:0:0:
256,192,32716,1,0,0:0:0:0:
256,192,32883,1,0,0:0:0:0:
256,192,33050,1,8,0:0:0:0:
256,192,33216,1,0,0:0:0:0:
256,192,33300,1,0,0:0:0:0:
256,192,33383,1,0,0:0:0:0:
256,192,33550,1,0,0:0:0:0:
256,192,33716,1,8,0:0:0:0:
256,192,33883,1,0,0:0:0:0:
256,192,34050,1,8,0:0:0:0:
256,192,34216,1,8,0:0:0:0:
256,192,34300,1,8,0:0:0:0:
256,192,34383,1,8,0:0:0:0:
256,192,34550,1,0,0:0:0:0:
256,192,34716,1,0,0:0:0:0:
256,192,34883,1,8,0:0:0:0:
256,192,35216,1,8,0:0:0:0:
256,192,35383,1,0,0:0:0:0:
256,192,35550,1,0,0:0:0:0:
256,192,35716,1,8,0:0:0:0:
256,192,35800,1,0,0:0:0:0:
256,192,35883,1,8,0:0:0:0:
256,192,36050,1,0,0:0:0:0:
256,192,36383,1,12,0:0:0:0:
256,192,36550,1,12,0:0:0:0:
256,192,36883,1,4,0:0:0:0:
256,192,37050,1,12,0:0:0:0:
256,192,37216,1,8,0:0:0:0:
256,192,37300,1,8,0:0:0:0:
256,192,37383,1,4,0:0:0:0:
256,192,37550,1,0,0:0:0:0:
256,192,37716,1,8,0:0:0:0:
256,192,37800,1,0,0:0:0:0:
256,192,37883,1,8,0:0:0:0:
256,192,38050,1,8,0:0:0:0:
256,192,38216,1,0,0:0:0:0:
256,192,38383,1,8,0:0:0:0:
256,192,38550,1,0,0:0:0:0:
256,192,38716,1,0,0:0:0:0:
256,192,38883,1,0,0:0:0:0:
256,192,39050,1,8,0:0:0:0:
256,192,39216,1,8,0:0:0:0:
256,192,39383,1,0,0:0:0:0:
256,192,39550,1,12,0:0:0:0:
256,192,39883,1,12,0:0:0:0:
256,192,40050,1,4,0:0:0:0:
256,192,40216,1,0,0:0:0:0:
256,192,40300,1,0,0:0:0:0:
256,192,40383,1,8,0:0:0:0:
256,192,40550,1,0,0:0:0:0:
256,192,40716,1,8,0:0:0:0:
256,192,40883,1,0,0:0:0:0:
256,192,41050,1,8,0:0:0:0:
256,192,41133,1,8,0:0:0:0:
256,192,41216,1,0,0:0:0:0:
256,192,41383,1,0,0:0:0:0:
256,192,41550,1,0,0:0:0:0:
256,192,41716,1,8,0:0:0:0:
256,192,41883,1,8,0:0:0:0:
256,192,42050,1,0,0:0:0:0:
256,192,42216,1,12,0:0:0:0:
256,192,42550,1,12,0:0:0:0:
256,192,42716,1,4,0:0:0:0:
256,192,42883,1,0,0:0:0:0:
256,192,42966,1,0,0:0:0:0:
256,192,43050,1,8,0:0:0:0:
256,192,43216,1,0,0:0:0:0:
256,192,43383,1,8,0:0:0:0:
256,192,43466,1,0,0:0:0:0:
256,192,43550,1,8,0:0:0:0:
256,192,43716,1,8,0:0:0:0:
256,192,43883,1,0,0:0:0:0:
256,192,44050,1,0,0:0:0:0:
256,192,44216,1,0,0:0:0:0:
256,192,44383,1,8,0:0:0:0:
256,192,44550,1,8,0:0:0:0:
256,192,44716,1,0,0:0:0:0:
256,192,44883,1,12,0:0:0:0:
256,192,45216,1,12,0:0:0:0:
256,192,45383,1,4,0:0:0:0:
256,192,45550,1,8,0:0:0:0:
256,192,45633,1,0,0:0:0:0:
256,192,45716,1,8,0:0:0:0:
256,192,45883,1,0,0:0:0:0:
256,192,46050,1,0,0:0:0:0:
256,192,46216,1,8,0:0:0:0:
256,192,46383,1,0,0:0:0:0:
256,192,46550,1,8,0:0:0:0:
256,192,46633,1,8,0:0:0:0:
256,192,46716,1,8,0:0:0:0:
256,192,46883,1,0,0:0:0:0:
256,192,46966,1,0,0:0:0:0:
256,192,47050,1,8,0:0:0:0:
256,192,47216,1,8,0:0:0:0:
256,192,47550,1,4,0:0:0:0:
256,192,47716,1,12,0:0:0:0:
256,192,48050,1,12,0:0:0:0:
256,192,48216,1,4,0:0:0:0:
256,192,48383,1,12,0:0:0:0:
256,192,48550,1,4,0:0:0:0:
256,192,48716,1,12,0:0:0:0:
256,192,48883,1,4,0:0:0:0:
256,192,49216,1,0,0:0:0:0:
256,192,49383,1,8,0:0:0:0:
256,192,49466,1,8,0:0:0:0:
256,192,49550,1,0,0:0:0:0:
256,192,49633,1,0,0:0:0:0:
256,192,49716,1,8,0:0:0:0:
256,192,49883,1,0,0:0:0:0:
256,192,50050,1,8,0:0:0:0:
256,192,50216,1,0,0:0:0:0:
256,192,50383,1,8,0:0:0:0:
256,192,50550,1,8,0:0:0:0:
256,192,50633,1,8,0:0:0:0:
256,192,50716,1,0,0:0:0:0:
256,192,50883,1,0,0:0:0:0:
256,192,51050,1,8,0:0:0:0:
256,192,51216,1,0,0:0:0:0:
256,192,51383,1,0,0:0:0:0:
256,192,51466,1,0,0:0:0:0:
256,192,51550,1,0,0:0:0:0:
256,192,51633,1,0,0:0:0:0:
256,192,51716,1,8,0:0:0:0:
256,192,51883,1,0,0:0:0:0:
256,192,52050,1,0,0:0:0:0:
256,192,52133,1,0,0:0:0:0:
256,192,52216,1,0,0:0:0:0:
256,192,52383,1,8,0:0:0:0:
256,192,52550,1,0,0:0:0:0:
256,192,52633,1,8,0:0:0:0:
256,192,52716,1,0,0:0:0:0:
256,192,52883,1,0,0:0:0:0:
256,192,53050,1,8,0:0:0:0:
256,192,53216,1,0,0:0:0:0:
256,192,53383,1,12,0:0:0:0:
256,192,53716,1,0,0:0:0:0:
256,192,53883,1,0,0:0:0:0:
256,192,54050,1,12,0:0:0:0:
256,192,54383,1,8,0:0:0:0:
256,192,54550,1,0,0:0:0:0:
256,192,54716,1,12,0:0:0:0:
256,192,55050,1,0,0:0:0:0:
256,192,55216,1,0,0:0:0:0:
256,192,55383,1,12,0:0:0:0:
256,192,55633,1,0,0:0:0:0:
256,192,55716,1,8,0:0:0:0:
256,192,55883,1,0,0:0:0:0:
256,192,56050,1,12,0:0:0:0:
256,192,56383,1,8,0:0:0:0:
256,192,56550,1,0,0:0:0:0:
256,192,56633,1,0,0:0:0:0:
256,192,56716,1,8,0:0:0:0:
256,192,56883,1,8,0:0:0:0:
256,192,57050,1,0,0:0:0:0:
256,192,57216,1,8,0:0:0:0:
256,192,57300,1,8,0:0:0:0:
256,192,57383,1,0,0:0:0:0:
256,192,57550,1,0,0:0:0:0:
256,192,57716,1,8,0:0:0:0:
256,192,57883,1,0,0:0:0:0:
256,192,57966,1,0,0:0:0:0:
256,192,58050,1,0,0:0:0:0:
256,192,58216,1,8,0:0:0:0:
256,192,58383,1,8,0:0:0:0:
256,192,58550,1,0,0:0:0:0:
256,192,58633,1,0,0:0:0:0:
256,192,58716,1,12,0:0:0:0:
256,192,58883,1,4,0:0:0:0:
256,192,59050,1,12,0:0:0:0:
256,192,59216,1,4,0:0:0:0:
256,192,59383,1,12,0:0:0:0:
256,192,59550,1,4,0:0:0:0:
256,192,59883,1,0,0:0:0:0:
256,192,60050,1,8,0:0:0:0:
256,192,60133,1,8,0:0:0:0:
256,192,60216,1,0,0:0:0:0:
256,192,60300,1,0,0:0:0:0:
256,192,60383,1,8,0:0:0:0:
256,192,60550,1,0,0:0:0:0:
256,192,60716,1,8,0:0:0:0:
256,192,60883,1,0,0:0:0:0:
256,192,61050,1,8,0:0:0:0:
256,192,61216,1,8,0:0:0:0:
256,192,61300,1,8,0:0:0:0:
256,192,61383,1,0,0:0:0:0:
256,192,61550,1,0,0:0:0:0:
256,192,61716,1,8,0:0:0:0:
256,192,61883,1,0,0:0:0:0:
256,192,62050,1,0,0:0:0:0:
256,192,62133,1,0,0:0:0:0:
256,192,62216,1,0,0:0:0:0:
256,192,62383,1,8,0:0:0:0:
256,192,62550,1,0,0:0:0:0:
256,192,62716,1,0,0:0:0:0:
256,192,62800,1,0,0:0:0:0:
256,192,62883,1,0,0:0:0:0:
256,192,62966,1,0,0:0:0:0:
256,192,63050,1,8,0:0:0:0:
256,192,63216,1,0,0:0:0:0:
256,192,63300,1,8,0:0:0:0:
256,192,63383,1,0,0:0:0:0:
256,192,63550,1,0,0:0:0:0:
256,192,63716,1,8,0:0:0:0:
256,192,63883,1,0,0:0:0:0:
256,192,64050,1,12,0:0:0:0:
256,192,64383,1,0,0:0:0:0:
256,192,64550,1,0,0:0:0:0:
256,192,64716,1,12,0:0:0:0:
256,192,65050,1,8,0:0:0:0:
256,192,65216,1,0,0:0:0:0:
256,192,65383,1,12,0:0:0:0:
256,192,65716,1,0,0:0:0:0:
256,192,65883,1,0,0:0:0:0:
256,192,66050,1,12,0:0:0:0:
256,192,66300,1,0,0:0:0:0:
256,192,66383,1,8,0:0:0:0:
256,192,66550,1,0,0:0:0:0:
256,192,66716,1,12,0:0:0:0:
256,192,67050,1,8,0:0:0:0:
256,192,67216,1,0,0:0:0:0:
256,192,67300,1,0,0:0:0:0:
256,192,67383,1,8,0:0:0:0:
256,192,67550,1,8,0:0:0:0:
256,192,67716,1,0,0:0:0:0:
256,192,67883,1,8,0:0:0:0:
256,192,67966,1,8,0:0:0:0:
256,192,68050,1,0,0:0:0:0:
256,192,68216,1,0,0:0:0:0:
256,192,68383,1,8,0:0:0:0:
256,192,68550,1,0,0:0:0:0:
256,192,68633,1,0,0:0:0:0:
256,192,68716,1,0,0:0:0:0:
256,192,68883,1,8,0:0:0:0:
256,192,69050,1,8,0:0:0:0:
256,192,69216,1,0,0:0:0:0:
256,192,69300,1,0,0:0:0:0:
256,192,69383,1,0,0:0:0:0:
256,192,69550,1,0,0:0:0:0:
256,192,69716,1,8,0:0:0:0:
256,192,69883,1,0,0:0:0:0:
256,192,70050,1,8,0:0:0:0:
256,192,70133,1,0,0:0:0:0:
256,192,70216,1,8,0:0:0:0:
256,192,70383,1,12,0:0:0:0:
256,192,70550,1,4,0:0:0:0:
256,192,70883,1,12,0:0:0:0:
256,192,71050,1,12,0:0:0:0:
256,192,71716,1,0,0:0:0:0:
256,192,71883,1,0,0:0:0:0:
256,192,71966,1,0,0:0:0:0:
256,192,72050,1,12,0:0:0:0:
256,192,72216,1,0,0:0:0:0:
256,192,72383,1,8,0:0:0:0:
256,192,72550,1,0,0:0:0:0:
256,192,72716,1,0,0:0:0:0:
256,192,72800,1,0,0:0:0:0:
256,192,72883,1,8,0:0:0:0:
256,192,73050,1,8,0:0:0:0:
256,192,73383,1,8,0:0:0:0:
256,192,73466,1,8,0:0:0:0:
256,192,73550,1,8,0:0:0:0:
256,192,73716,1,8,0:0:0:0:
256,192,73883,1,0,0:0:0:0:
256,192,74050,1,8,0:0:0:0:
256,192,74133,1,8,0:0:0:0:
256,192,74216,1,0,0:0:0:0:
256,192,74383,1,8,0:0:0:0:
256,192,74550,1,0,0:0:0:0:
256,192,74716,1,8,0:0:0:0:
256,192,74800,1,8,0:0:0:0:
256,192,74883,1,8,0:0:0:0:
256,192,75050,1,8,0:0:0:0:
256,192,75216,1,0,0:0:0:0:
256,192,75383,1,0,0:0:0:0:
256,192,75466,1,0,0:0:0:0:
256,192,75550,1,8,0:0:0:0:
256,192,75716,1,8,0:0:0:0:
256,192,76050,1,8,0:0:0:0:
256,192,76133,1,8,0:0:0:0:
256,192,76216,1,8,0:0:0:0:
256,192,76383,1,8,0:0:0:0:
256,192,76550,1,0,0:0:0:0:
256,192,76716,1,8,0:0:0:0:
256,192,76800,1,8,0:0:0:0:
256,192,76883,1,0,0:0:0:0:
256,192,77050,1,12,0:0:0:0:
256,192,77216,1,4,0:0:0:0:
256,192,77383,1,12,0:0:0:0:
256,192,77550,1,0,0:0:0:0:
256,192,77716,1,8,0:0:0:0:
256,192,77883,1,0,0:0:0:0:
256,192,78050,1,0,0:0:0:0:
256,192,78133,1,0,0:0:0:0:
256,192,78216,1,8,0:0:0:0:
256,192,78383,1,8,0:0:0:0:
256,192,78716,1,8,0:0:0:0:
256,192,78800,1,8,0:0:0:0:
256,192,78883,1,8,0:0:0:0:
256,192,79050,1,8,0:0:0:0:
256,192,79216,1,0,0:0:0:0:
256,192,79383,1,8,0:0:0:0:
256,192,79466,1,8,0:0:0:0:
256,192,79550,1,0,0:0:0:0:
256,192,79716,1,8,0:0:0:0:
256,192,79883,1,0,0:0:0:0:
256,192,80050,1,8,0:0:0:0:
256,192,80133,1,8,0:0:0:0:
256,192,80216,1,8,0:0:0:0:
256,192,80383,1,8,0:0:0:0:
256,192,80550,1,0,0:0:0:0:
256,192,80716,1,0,0:0:0:0:
256,192,80800,1,0,0:0:0:0:
256,192,80883,1,8,0:0:0:0:
256,192,81050,1,8,0:0:0:0:
256,192,81383,1,8,0:0:0:0:
256,192,81466,1,8,0:0:0:0:
256,192,81550,1,8,0:0:0:0:
256,192,81716,1,8,0:0:0:0:
256,192,81883,1,0,0:0:0:0:
256,192,82050,1,12,0:0:0:0:
256,192,82216,1,4,0:0:0:0:
256,192,82383,1,12,0:0:0:0:
256,192,82550,1,4,0:0:0:0:
256,192,82883,1,0,0:0:0:0:
256,192,82966,1,0,0:0:0:0:
256,192,83050,1,0,0:0:0:0:
256,192,83216,1,0,0:0:0:0:
256,192,83383,1,12,0:0:0:0:
256,192,83550,1,4,0:0:0:0:
256,192,83716,1,12,0:0:0:0:
256,192,83883,1,4,0:0:0:0:
256,192,84216,1,0,0:0:0:0:
256,192,84300,1,0,0:0:0:0:
256,192,84383,1,0,0:0:0:0:
256,192,84550,1,0,0:0:0:0:
256,192,84716,1,12,0:0:0:0:
256,192,84883,1,4,0:0:0:0:
256,192,85050,1,12,0:0:0:0:
256,192,85216,1,4,0:0:0:0:
256,192,85383,1,12,0:0:0:0:
256,192,85550,8,0,89050,0:0:0:0:
