osu file format v14

[General]
AudioFilename: [SDVX] Second Heaven Lamaze-REMIX [EXH].mp3
AudioLeadIn: 0
PreviewTime: 100267
Countdown: 0
SampleSet: Normal
StackLeniency: 0.7
Mode: 3
LetterboxInBreaks: 0
SpecialStyle: 0
WidescreenStoryboard: 0

[Editor]
Bookmarks: 4479,7700
DistanceSpacing: 1.2
BeatDivisor: 2
GridSize: 4
TimelineZoom: 1.2

[Metadata]
Title:Second Heaven Lamaze-REMIX
TitleUnicode:Second Heaven Lamaze-REMIX
Artist:Lamaze-P
ArtistUnicode:ラマーズP
Creator:Kaze Xion
Version:EXH
Source:Sound Voltex
Tags:SDVX
BeatmapID:1077235
BeatmapSetID:506414

[Difficulty]
HPDrainRate:8
CircleSize:4
OverallDifficulty:8
ApproachRate:5
SliderMultiplier:1.4
SliderTickRate:1

[Events]
//Background and Video events
0,0,"bg.jpg",0,0
//Break Periods
//Storyboard Layer 0 (Background)
//Storyboard Layer 1 (Fail)
//Storyboard Layer 2 (Pass)
//Storyboard Layer 3 (Foreground)
//Storyboard Sound Samples

[TimingPoints]
2063,402.684563758389,4,1,0,0,1,0
45552,-100,4,1,0,0,0,1
58438,-100,4,1,0,0,0,0
100318,-100,4,1,0,0,0,1
113203,-100,4,1,0,0,0,0

[HitObjects]
448,192,653,5,0,0:0:0:0:
64,192,653,1,0,0:0:0:0:
64,192,854,1,0,0:0:0:0:
448,192,854,1,0,0:0:0:0:
64,192,2063,1,0,0:0:0:0:
448,192,2063,1,0,0:0:0:0:
320,192,2264,1,0,0:0:0:0:
192,192,2465,1,0,0:0:0:0:
64,192,2465,1,0,0:0:0:0:
320,192,2667,1,0,0:0:0:0:
192,192,2868,1,0,0:0:0:0:
448,192,2868,1,0,0:0:0:0:
64,192,3069,1,0,0:0:0:0:
192,192,3271,1,0,0:0:0:0:
320,192,3271,1,0,0:0:0:0:
448,192,3472,1,0,0:0:0:0:
320,192,3673,1,0,0:0:0:0:
64,192,3673,1,0,0:0:0:0:
192,192,3875,1,0,0:0:0:0:
320,192,4076,1,0,0:0:0:0:
448,192,4076,1,0,0:0:0:0:
192,192,4277,1,0,0:0:0:0:
64,192,4479,1,0,0:0:0:0:
320,192,4479,1,0,0:0:0:0:
320,192,4680,1,0,0:0:0:0:
448,192,4680,1,0,0:0:0:0:
64,192,4680,1,0,0:0:0:0:
320,192,4881,1,0,0:0:0:0:
448,192,4881,1,0,0:0:0:0:
64,192,4881,1,0,0:0:0:0:
192,192,5083,1,0,0:0:0:0:
64,192,5083,1,0,0:0:0:0:
448,192,5083,1,0,0:0:0:0:
192,192,5284,1,0,0:0:0:0:
64,192,5284,1,0,0:0:0:0:
448,192,5284,1,0,0:0:0:0:
320,192,5485,1,0,0:0:0:0:
192,192,5687,1,0,0:0:0:0:
448,192,5687,1,0,0:0:0:0:
320,192,5888,1,0,0:0:0:0:
64,192,6089,1,0,0:0:0:0:
192,192,6089,1,0,0:0:0:0:
448,192,6291,1,0,0:0:0:0:
320,192,6492,1,0,0:0:0:0:
192,192,6492,1,0,0:0:0:0:
64,192,6693,1,0,0:0:0:0:
192,192,6895,1,0,0:0:0:0:
448,192,6895,1,0,0:0:0:0:
320,192,7096,1,0,0:0:0:0:
192,192,7297,1,0,0:0:0:0:
64,192,7297,1,0,0:0:0:0:
320,192,7499,1,0,0:0:0:0:
192,192,7700,1,0,0:0:0:0:
64,192,7700,1,0,0:0:0:0:
448,192,7700,1,0,0:0:0:0:
64,192,7901,1,0,0:0:0:0:
192,192,7901,1,0,0:0:0:0:
448,192,7901,1,0,0:0:0:0:
448,192,8103,1,0,0:0:0:0:
320,192,8103,1,0,0:0:0:0:
64,192,8103,1,0,0:0:0:0:
448,192,8304,1,0,0:0:0:0:
320,192,8304,1,0,0:0:0:0:
64,192,8304,1,0,0:0:0:0:
192,192,8505,1,0,0:0:0:0:
64,192,8505,1,0,0:0:0:0:
448,192,8505,1,0,0:0:0:0:
320,192,8707,1,0,0:0:0:0:
448,192,8707,1,0,0:0:0:0:
192,192,8908,1,0,0:0:0:0:
320,192,9009,1,0,0:0:0:0:
64,192,9109,1,0,0:0:0:0:
192,192,9210,1,0,0:0:0:0:
448,192,9311,128,0,10116:0:0:0:0:
320,192,9311,1,0,0:0:0:0:
192,192,9411,1,0,0:0:0:0:
64,192,9512,1,0,0:0:0:0:
320,192,9613,1,0,0:0:0:0:
192,192,9714,1,0,0:0:0:0:
64,192,9814,1,0,0:0:0:0:
320,192,9915,1,0,0:0:0:0:
192,192,10016,1,0,0:0:0:0:
64,192,10116,1,0,0:0:0:0:
320,192,10116,1,0,0:0:0:0:
192,192,10318,1,0,0:0:0:0:
448,192,10318,1,0,0:0:0:0:
64,192,10519,1,0,0:0:0:0:
192,192,10620,1,0,0:0:0:0:
320,192,10720,1,0,0:0:0:0:
448,192,10821,1,0,0:0:0:0:
64,192,10922,128,0,11727:0:0:0:0:
192,192,10922,1,0,0:0:0:0:
320,192,11022,1,0,0:0:0:0:
448,192,11123,1,0,0:0:0:0:
192,192,11324,1,0,0:0:0:0:
320,192,11526,1,0,0:0:0:0:
448,192,11727,1,0,0:0:0:0:
192,192,11727,1,0,0:0:0:0:
320,192,11928,1,0,0:0:0:0:
192,192,12130,1,0,0:0:0:0:
64,192,12130,1,0,0:0:0:0:
448,192,12130,1,0,0:0:0:0:
320,192,12331,1,0,0:0:0:0:
448,192,12331,1,0,0:0:0:0:
64,192,12331,1,0,0:0:0:0:
192,192,12532,1,0,0:0:0:0:
64,192,12532,1,0,0:0:0:0:
448,192,12532,1,0,0:0:0:0:
320,192,12633,1,0,0:0:0:0:
192,192,12734,1,0,0:0:0:0:
320,192,12935,1,0,0:0:0:0:
448,192,12935,1,0,0:0:0:0:
64,192,12935,1,0,0:0:0:0:
192,192,13136,1,0,0:0:0:0:
64,192,13136,1,0,0:0:0:0:
448,192,13136,1,0,0:0:0:0:
320,192,13338,1,0,0:0:0:0:
448,192,13338,1,0,0:0:0:0:
64,192,13338,1,0,0:0:0:0:
448,192,13539,1,0,0:0:0:0:
192,192,13539,1,0,0:0:0:0:
64,192,13740,1,0,0:0:0:0:
192,192,13841,1,0,0:0:0:0:
448,192,13942,1,0,0:0:0:0:
320,192,13942,1,0,0:0:0:0:
64,192,14042,1,0,0:0:0:0:
192,192,14143,1,0,0:0:0:0:
320,192,14244,1,0,0:0:0:0:
448,192,14344,128,0,14546:0:0:0:0:
192,192,14344,1,0,0:0:0:0:
320,192,14445,1,0,0:0:0:0:
64,192,14546,1,0,0:0:0:0:
192,192,14646,1,0,0:0:0:0:
64,192,14747,128,0,14948:0:0:0:0:
320,192,14747,1,0,0:0:0:0:
448,192,14848,1,0,0:0:0:0:
192,192,14948,1,0,0:0:0:0:
320,192,14948,1,0,0:0:0:0:
448,192,16760,128,0,17767:0:0:0:0:
64,192,18170,1,0,0:0:0:0:
192,192,18371,1,0,0:0:0:0:
320,192,18573,1,0,0:0:0:0:
448,192,18774,1,0,0:0:0:0:
64,192,18975,1,0,0:0:0:0:
192,192,19177,1,0,0:0:0:0:
320,192,19378,1,0,0:0:0:0:
448,192,19579,1,0,0:0:0:0:
64,192,19781,1,0,0:0:0:0:
192,192,19982,1,0,0:0:0:0:
320,192,20183,1,0,0:0:0:0:
448,192,20385,1,0,0:0:0:0:
320,192,20586,1,0,0:0:0:0:
64,192,20586,1,0,0:0:0:0:
448,192,20687,1,0,0:0:0:0:
192,192,20687,1,0,0:0:0:0:
320,192,20787,1,0,0:0:0:0:
64,192,20787,1,0,0:0:0:0:
448,192,20888,1,0,0:0:0:0:
192,192,20888,1,0,0:0:0:0:
320,192,20989,1,0,0:0:0:0:
64,192,20989,1,0,0:0:0:0:
192,192,21190,1,0,0:0:0:0:
448,192,21391,1,0,0:0:0:0:
320,192,21593,1,0,0:0:0:0:
192,192,21794,1,0,0:0:0:0:
64,192,21995,1,0,0:0:0:0:
448,192,22197,1,0,0:0:0:0:
320,192,22398,1,0,0:0:0:0:
192,192,22599,1,0,0:0:0:0:
64,192,22801,1,0,0:0:0:0:
448,192,23002,1,0,0:0:0:0:
320,192,23203,1,0,0:0:0:0:
192,192,23405,1,0,0:0:0:0:
64,192,23606,1,0,0:0:0:0:
192,192,23807,1,0,0:0:0:0:
448,192,24009,1,0,0:0:0:0:
192,192,24009,1,0,0:0:0:0:
448,192,24210,1,0,0:0:0:0:
192,192,24210,1,0,0:0:0:0:
64,192,24311,1,0,0:0:0:0:
320,192,24311,1,0,0:0:0:0:
192,192,24411,1,0,0:0:0:0:
448,192,24411,1,0,0:0:0:0:
64,192,24512,1,0,0:0:0:0:
320,192,24512,1,0,0:0:0:0:
448,192,24613,1,0,0:0:0:0:
192,192,24613,1,0,0:0:0:0:
320,192,24814,1,0,0:0:0:0:
192,192,25016,1,0,0:0:0:0:
64,192,25217,1,0,0:0:0:0:
64,192,25418,1,0,0:0:0:0:
192,192,25418,1,0,0:0:0:0:
448,192,25418,1,0,0:0:0:0:
320,192,25620,1,0,0:0:0:0:
64,192,25821,1,0,0:0:0:0:
192,192,25821,1,0,0:0:0:0:
64,192,26022,1,0,0:0:0:0:
448,192,26224,1,0,0:0:0:0:
320,192,26425,1,0,0:0:0:0:
192,192,26626,1,0,0:0:0:0:
448,192,26626,1,0,0:0:0:0:
64,192,26828,1,0,0:0:0:0:
320,192,27029,1,0,0:0:0:0:
448,192,27029,1,0,0:0:0:0:
192,192,27029,1,0,0:0:0:0:
448,192,27230,1,0,0:0:0:0:
192,192,27230,1,0,0:0:0:0:
192,192,27432,1,0,0:0:0:0:
64,192,27432,1,0,0:0:0:0:
320,192,27432,1,0,0:0:0:0:
64,192,27633,1,0,0:0:0:0:
320,192,27633,1,0,0:0:0:0:
192,192,27633,1,0,0:0:0:0:
448,192,27834,1,0,0:0:0:0:
320,192,27834,1,0,0:0:0:0:
64,192,28036,1,0,0:0:0:0:
192,192,28237,1,0,0:0:0:0:
320,192,28438,1,0,0:0:0:0:
320,192,28640,1,0,0:0:0:0:
448,192,28640,1,0,0:0:0:0:
64,192,28640,1,0,0:0:0:0:
192,192,28841,1,0,0:0:0:0:
320,192,29042,1,0,0:0:0:0:
448,192,29042,1,0,0:0:0:0:
448,192,29244,1,0,0:0:0:0:
192,192,29445,1,0,0:0:0:0:
64,192,29646,1,0,0:0:0:0:
320,192,29646,1,0,0:0:0:0:
192,192,29848,1,0,0:0:0:0:
448,192,29848,1,0,0:0:0:0:
320,192,29848,1,0,0:0:0:0:
320,192,30049,1,0,0:0:0:0:
64,192,30049,1,0,0:0:0:0:
192,192,30250,1,0,0:0:0:0:
448,192,30250,1,0,0:0:0:0:
192,192,30452,1,0,0:0:0:0:
448,192,30452,1,0,0:0:0:0:
64,192,30653,1,0,0:0:0:0:
320,192,30653,1,0,0:0:0:0:
192,192,30854,1,0,0:0:0:0:
448,192,31056,128,0,31861:0:0:0:0:
320,192,31056,1,0,0:0:0:0:
64,192,31257,1,0,0:0:0:0:
192,192,31458,1,0,0:0:0:0:
320,192,31660,1,0,0:0:0:0:
64,192,31861,128,0,32667:0:0:0:0:
192,192,32062,1,0,0:0:0:0:
320,192,32264,1,0,0:0:0:0:
448,192,32465,1,0,0:0:0:0:
320,192,32667,128,0,33472:0:0:0:0:
64,192,32868,1,0,0:0:0:0:
192,192,33069,1,0,0:0:0:0:
448,192,33271,1,0,0:0:0:0:
192,192,33472,128,0,34277:0:0:0:0:
64,192,33472,1,0,0:0:0:0:
320,192,33673,1,0,0:0:0:0:
448,192,33875,1,0,0:0:0:0:
320,192,34076,1,0,0:0:0:0:
448,192,34277,128,0,35083:0:0:0:0:
320,192,34479,1,0,0:0:0:0:
192,192,34680,1,0,0:0:0:0:
64,192,34881,1,0,0:0:0:0:
64,192,35083,128,0,35888:0:0:0:0:
192,192,35284,1,0,0:0:0:0:
320,192,35485,1,0,0:0:0:0:
448,192,35687,1,0,0:0:0:0:
192,192,35888,128,0,36693:0:0:0:0:
320,192,35888,1,0,0:0:0:0:
64,192,36089,1,0,0:0:0:0:
320,192,36291,1,0,0:0:0:0:
448,192,36492,1,0,0:0:0:0:
448,192,36693,128,0,37499:0:0:0:0:
192,192,37096,128,0,37499:0:0:0:0:
320,192,37499,1,0,0:0:0:0:
64,192,37499,1,0,0:0:0:0:
64,192,37700,1,0,0:0:0:0:
192,192,37901,1,0,0:0:0:0:
320,192,38103,1,0,0:0:0:0:
448,192,38304,1,0,0:0:0:0:
64,192,38505,1,0,0:0:0:0:
192,192,38707,1,0,0:0:0:0:
320,192,38908,1,0,0:0:0:0:
448,192,39109,1,0,0:0:0:0:
64,192,39109,1,0,0:0:0:0:
192,192,39109,1,0,0:0:0:0:
320,192,39109,1,0,0:0:0:0:
320,192,39311,1,0,0:0:0:0:
192,192,39512,1,0,0:0:0:0:
64,192,39714,1,0,0:0:0:0:
192,192,39915,1,0,0:0:0:0:
320,192,40116,1,0,0:0:0:0:
448,192,40318,1,0,0:0:0:0:
320,192,40519,1,0,0:0:0:0:
448,192,40720,1,0,0:0:0:0:
64,192,40720,1,0,0:0:0:0:
320,192,40720,1,0,0:0:0:0:
192,192,40720,1,0,0:0:0:0:
192,192,40922,1,0,0:0:0:0:
320,192,41123,1,0,0:0:0:0:
448,192,41324,1,0,0:0:0:0:
64,192,41526,1,0,0:0:0:0:
192,192,41526,1,0,0:0:0:0:
448,192,41526,1,0,0:0:0:0:
320,192,41526,1,0,0:0:0:0:
320,192,41727,1,0,0:0:0:0:
192,192,41928,1,0,0:0:0:0:
64,192,42130,1,0,0:0:0:0:
64,192,42331,1,0,0:0:0:0:
320,192,42331,1,0,0:0:0:0:
448,192,42331,1,0,0:0:0:0:
192,192,42331,1,0,0:0:0:0:
192,192,42532,1,0,0:0:0:0:
192,192,42734,1,0,0:0:0:0:
64,192,42734,1,0,0:0:0:0:
448,192,42734,1,0,0:0:0:0:
320,192,42734,1,0,0:0:0:0:
320,192,42935,1,0,0:0:0:0:
320,192,43136,1,0,0:0:0:0:
448,192,43136,1,0,0:0:0:0:
64,192,43136,1,0,0:0:0:0:
192,192,43136,1,0,0:0:0:0:
64,192,43539,1,0,0:0:0:0:
320,192,43539,1,0,0:0:0:0:
448,192,43539,1,0,0:0:0:0:
192,192,43539,1,0,0:0:0:0:
64,192,43942,128,0,44143:0:0:0:0:
192,192,44143,1,0,0:0:0:0:
448,192,44193,1,0,0:0:0:0:
192,192,44244,1,0,0:0:0:0:
448,192,44294,1,0,0:0:0:0:
192,192,44344,1,0,0:0:0:0:
192,192,44697,1,0,0:0:0:0:
448,192,44697,1,0,0:0:0:0:
64,192,44948,1,0,0:0:0:0:
320,192,44948,1,0,0:0:0:0:
448,192,45150,1,0,0:0:0:0:
192,192,45150,1,0,0:0:0:0:
320,192,45250,1,0,0:0:0:0:
64,192,45250,1,0,0:0:0:0:
192,192,45351,1,0,0:0:0:0:
448,192,45351,1,0,0:0:0:0:
320,192,45452,1,0,0:0:0:0:
64,192,45452,1,0,0:0:0:0:
192,192,45552,1,0,0:0:0:0:
448,192,45552,1,0,0:0:0:0:
192,192,45754,1,0,0:0:0:0:
320,192,45854,1,0,0:0:0:0:
448,192,45955,1,0,0:0:0:0:
64,192,45955,1,0,0:0:0:0:
192,192,46056,1,0,0:0:0:0:
320,192,46156,1,0,0:0:0:0:
192,192,46257,1,0,0:0:0:0:
64,192,46358,1,0,0:0:0:0:
448,192,46358,1,0,0:0:0:0:
320,192,46559,1,0,0:0:0:0:
192,192,46760,1,0,0:0:0:0:
64,192,46760,1,0,0:0:0:0:
320,192,46962,1,0,0:0:0:0:
192,192,47062,1,0,0:0:0:0:
64,192,47163,1,0,0:0:0:0:
448,192,47163,1,0,0:0:0:0:
320,192,47365,1,0,0:0:0:0:
192,192,47465,1,0,0:0:0:0:
64,192,47566,1,0,0:0:0:0:
448,192,47566,1,0,0:0:0:0:
320,192,47667,1,0,0:0:0:0:
192,192,47767,1,0,0:0:0:0:
64,192,47868,1,0,0:0:0:0:
320,192,47969,1,0,0:0:0:0:
192,192,47969,1,0,0:0:0:0:
64,192,48170,1,0,0:0:0:0:
320,192,48371,1,0,0:0:0:0:
448,192,48371,1,0,0:0:0:0:
192,192,48371,1,0,0:0:0:0:
320,192,48573,1,0,0:0:0:0:
448,192,48573,1,0,0:0:0:0:
192,192,48573,1,0,0:0:0:0:
192,192,48774,1,0,0:0:0:0:
64,192,48774,1,0,0:0:0:0:
448,192,48774,1,0,0:0:0:0:
320,192,48975,1,0,0:0:0:0:
192,192,49076,1,0,0:0:0:0:
64,192,49177,1,0,0:0:0:0:
448,192,49177,1,0,0:0:0:0:
320,192,49277,1,0,0:0:0:0:
192,192,49378,1,0,0:0:0:0:
64,192,49479,1,0,0:0:0:0:
192,192,49579,1,0,0:0:0:0:
320,192,49579,1,0,0:0:0:0:
448,192,49781,1,0,0:0:0:0:
192,192,49982,1,0,0:0:0:0:
64,192,49982,1,0,0:0:0:0:
320,192,50183,1,0,0:0:0:0:
192,192,50284,1,0,0:0:0:0:
320,192,50385,1,0,0:0:0:0:
448,192,50385,1,0,0:0:0:0:
192,192,50586,1,0,0:0:0:0:
448,192,50787,1,0,0:0:0:0:
320,192,50787,1,0,0:0:0:0:
192,192,50989,1,0,0:0:0:0:
448,192,51190,1,0,0:0:0:0:
320,192,51190,1,0,0:0:0:0:
64,192,51190,1,0,0:0:0:0:
320,192,51391,1,0,0:0:0:0:
448,192,51391,1,0,0:0:0:0:
192,192,51391,1,0,0:0:0:0:
320,192,51593,1,0,0:0:0:0:
448,192,51593,1,0,0:0:0:0:
64,192,51593,1,0,0:0:0:0:
320,192,51794,1,0,0:0:0:0:
448,192,51794,1,0,0:0:0:0:
192,192,51794,1,0,0:0:0:0:
448,192,51995,1,0,0:0:0:0:
64,192,51995,1,0,0:0:0:0:
320,192,51995,1,0,0:0:0:0:
192,192,52197,1,0,0:0:0:0:
320,192,52297,1,0,0:0:0:0:
448,192,52398,1,0,0:0:0:0:
64,192,52398,1,0,0:0:0:0:
192,192,52499,1,0,0:0:0:0:
320,192,52599,1,0,0:0:0:0:
448,192,52700,1,0,0:0:0:0:
64,192,52801,1,0,0:0:0:0:
192,192,52801,1,0,0:0:0:0:
320,192,53002,1,0,0:0:0:0:
320,192,53203,1,0,0:0:0:0:
448,192,53203,1,0,0:0:0:0:
64,192,53405,1,0,0:0:0:0:
192,192,53505,1,0,0:0:0:0:
320,192,53606,1,0,0:0:0:0:
64,192,53606,1,0,0:0:0:0:
448,192,53707,1,0,0:0:0:0:
192,192,53707,1,0,0:0:0:0:
320,192,53807,1,0,0:0:0:0:
64,192,53807,1,0,0:0:0:0:
192,192,53908,1,0,0:0:0:0:
448,192,53908,1,0,0:0:0:0:
320,192,54009,1,0,0:0:0:0:
64,192,54009,1,0,0:0:0:0:
192,192,54109,1,0,0:0:0:0:
320,192,54210,1,0,0:0:0:0:
448,192,54311,1,0,0:0:0:0:
192,192,54411,1,0,0:0:0:0:
64,192,54411,1,0,0:0:0:0:
320,192,54613,1,0,0:0:0:0:
64,192,54814,1,0,0:0:0:0:
192,192,54814,1,0,0:0:0:0:
448,192,54814,1,0,0:0:0:0:
192,192,55016,1,0,0:0:0:0:
64,192,55016,1,0,0:0:0:0:
448,192,55016,1,0,0:0:0:0:
448,192,55217,1,0,0:0:0:0:
320,192,55217,1,0,0:0:0:0:
64,192,55217,1,0,0:0:0:0:
192,192,55418,1,0,0:0:0:0:
320,192,55519,1,0,0:0:0:0:
448,192,55620,1,0,0:0:0:0:
64,192,55620,1,0,0:0:0:0:
192,192,55720,1,0,0:0:0:0:
320,192,55821,1,0,0:0:0:0:
448,192,55922,1,0,0:0:0:0:
192,192,56022,1,0,0:0:0:0:
64,192,56022,1,0,0:0:0:0:
320,192,56224,1,0,0:0:0:0:
64,192,56425,1,0,0:0:0:0:
192,192,56425,1,0,0:0:0:0:
448,192,56626,1,0,0:0:0:0:
320,192,56727,1,0,0:0:0:0:
192,192,56828,1,0,0:0:0:0:
64,192,56828,1,0,0:0:0:0:
320,192,57029,1,0,0:0:0:0:
192,192,57230,1,0,0:0:0:0:
64,192,57230,1,0,0:0:0:0:
320,192,57432,1,0,0:0:0:0:
192,192,57633,1,0,0:0:0:0:
64,192,57633,1,0,0:0:0:0:
448,192,57633,1,0,0:0:0:0:
192,192,57834,1,0,0:0:0:0:
448,192,57834,1,0,0:0:0:0:
320,192,58036,1,0,0:0:0:0:
448,192,58036,1,0,0:0:0:0:
192,192,58036,1,0,0:0:0:0:
192,192,58237,1,0,0:0:0:0:
64,192,58237,1,0,0:0:0:0:
320,192,58237,1,0,0:0:0:0:
320,192,58438,1,0,0:0:0:0:
448,192,58438,1,0,0:0:0:0:
64,192,58438,1,0,0:0:0:0:
192,192,58640,1,0,0:0:0:0:
320,192,58841,1,0,0:0:0:0:
448,192,58841,128,0,60452:0:0:0:0:
64,192,58841,1,0,0:0:0:0:
192,192,59042,1,0,0:0:0:0:
192,192,59244,1,0,0:0:0:0:
320,192,59244,1,0,0:0:0:0:
64,192,59445,1,0,0:0:0:0:
320,192,59646,1,0,0:0:0:0:
192,192,59646,1,0,0:0:0:0:
64,192,59848,1,0,0:0:0:0:
320,192,60049,1,0,0:0:0:0:
192,192,60049,1,0,0:0:0:0:
64,192,60250,1,0,0:0:0:0:
192,192,60452,128,0,60854:0:0:0:0:
320,192,60452,1,0,0:0:0:0:
64,192,60653,1,0,0:0:0:0:
320,192,60854,1,0,0:0:0:0:
448,192,60854,1,0,0:0:0:0:
64,192,60854,128,0,61660:0:0:0:0:
320,192,61056,1,0,0:0:0:0:
448,192,61257,1,0,0:0:0:0:
192,192,61257,1,0,0:0:0:0:
448,192,61458,1,0,0:0:0:0:
192,192,61458,1,0,0:0:0:0:
192,192,61660,128,0,63271:0:0:0:0:
320,192,61660,1,0,0:0:0:0:
448,192,61660,1,0,0:0:0:0:
448,192,61861,1,0,0:0:0:0:
64,192,62062,1,0,0:0:0:0:
320,192,62062,1,0,0:0:0:0:
448,192,62264,1,0,0:0:0:0:
64,192,62465,1,0,0:0:0:0:
320,192,62465,1,0,0:0:0:0:
448,192,62667,1,0,0:0:0:0:
64,192,62868,1,0,0:0:0:0:
320,192,62868,1,0,0:0:0:0:
448,192,63069,1,0,0:0:0:0:
448,192,63271,128,0,63673:0:0:0:0:
320,192,63271,1,0,0:0:0:0:
64,192,63271,1,0,0:0:0:0:
320,192,63472,1,0,0:0:0:0:
320,192,63673,128,0,64479:0:0:0:0:
64,192,63673,1,0,0:0:0:0:
192,192,63673,1,0,0:0:0:0:
192,192,63875,1,0,0:0:0:0:
448,192,64076,1,0,0:0:0:0:
64,192,64076,1,0,0:0:0:0:
192,192,64277,1,0,0:0:0:0:
448,192,64479,1,0,0:0:0:0:
192,192,64479,1,0,0:0:0:0:
320,192,64579,1,0,0:0:0:0:
64,192,64579,1,0,0:0:0:0:
448,192,64680,1,0,0:0:0:0:
192,192,64680,1,0,0:0:0:0:
64,192,64781,1,0,0:0:0:0:
320,192,64781,1,0,0:0:0:0:
192,192,64881,1,0,0:0:0:0:
448,192,64881,1,0,0:0:0:0:
320,192,65083,1,0,0:0:0:0:
448,192,65284,1,0,0:0:0:0:
64,192,65284,1,0,0:0:0:0:
192,192,65485,1,0,0:0:0:0:
320,192,65687,1,0,0:0:0:0:
448,192,65687,1,0,0:0:0:0:
64,192,65687,1,0,0:0:0:0:
320,192,65888,1,0,0:0:0:0:
448,192,65888,1,0,0:0:0:0:
192,192,65888,1,0,0:0:0:0:
192,192,66089,1,0,0:0:0:0:
448,192,66089,1,0,0:0:0:0:
64,192,66190,1,0,0:0:0:0:
320,192,66190,1,0,0:0:0:0:
192,192,66291,1,0,0:0:0:0:
448,192,66291,1,0,0:0:0:0:
64,192,66391,1,0,0:0:0:0:
320,192,66391,1,0,0:0:0:0:
192,192,66492,1,0,0:0:0:0:
448,192,66492,1,0,0:0:0:0:
320,192,66693,1,0,0:0:0:0:
192,192,66895,1,0,0:0:0:0:
64,192,66895,1,0,0:0:0:0:
320,192,67096,1,0,0:0:0:0:
192,192,67297,1,0,0:0:0:0:
448,192,67297,1,0,0:0:0:0:
320,192,67398,1,0,0:0:0:0:
64,192,67398,1,0,0:0:0:0:
192,192,67499,1,0,0:0:0:0:
448,192,67499,1,0,0:0:0:0:
320,192,67599,1,0,0:0:0:0:
192,192,67700,1,0,0:0:0:0:
64,192,67700,1,0,0:0:0:0:
448,192,67700,1,0,0:0:0:0:
192,192,67901,1,0,0:0:0:0:
64,192,67901,1,0,0:0:0:0:
448,192,67901,1,0,0:0:0:0:
448,192,68103,1,0,0:0:0:0:
320,192,68103,1,0,0:0:0:0:
64,192,68103,1,0,0:0:0:0:
64,192,68304,1,0,0:0:0:0:
192,192,68505,1,0,0:0:0:0:
448,192,68505,1,0,0:0:0:0:
320,192,68707,1,0,0:0:0:0:
192,192,68908,1,0,0:0:0:0:
64,192,68908,1,0,0:0:0:0:
448,192,69109,1,0,0:0:0:0:
64,192,69311,1,0,0:0:0:0:
320,192,69311,1,0,0:0:0:0:
192,192,69512,1,0,0:0:0:0:
320,192,69714,1,0,0:0:0:0:
448,192,69714,1,0,0:0:0:0:
64,192,69714,1,0,0:0:0:0:
64,192,69915,1,0,0:0:0:0:
320,192,69915,1,0,0:0:0:0:
320,192,70116,1,0,0:0:0:0:
448,192,70116,1,0,0:0:0:0:
192,192,70116,1,0,0:0:0:0:
64,192,70318,1,0,0:0:0:0:
320,192,70318,1,0,0:0:0:0:
320,192,70519,1,0,0:0:0:0:
448,192,70519,1,0,0:0:0:0:
64,192,70519,1,0,0:0:0:0:
192,192,70720,1,0,0:0:0:0:
320,192,70720,1,0,0:0:0:0:
448,192,70720,1,0,0:0:0:0:
448,192,70922,1,0,0:0:0:0:
192,192,70922,1,0,0:0:0:0:
64,192,70922,1,0,0:0:0:0:
64,192,71123,1,0,0:0:0:0:
320,192,71123,1,0,0:0:0:0:
448,192,71324,1,0,0:0:0:0:
192,192,71324,1,0,0:0:0:0:
192,192,71526,1,0,0:0:0:0:
448,192,71727,128,0,72130:0:0:0:0:
320,192,71727,1,0,0:0:0:0:
64,192,71727,1,0,0:0:0:0:
192,192,71928,1,0,0:0:0:0:
64,192,72130,128,0,72935:0:0:0:0:
320,192,72130,1,0,0:0:0:0:
192,192,72230,1,0,0:0:0:0:
320,192,72331,1,0,0:0:0:0:
192,192,72532,1,0,0:0:0:0:
448,192,72532,1,0,0:0:0:0:
320,192,72734,1,0,0:0:0:0:
192,192,72935,1,0,0:0:0:0:
448,192,72935,1,0,0:0:0:0:
64,192,73136,128,0,73338:0:0:0:0:
192,192,73136,1,0,0:0:0:0:
192,192,73338,128,0,73539:0:0:0:0:
320,192,73338,1,0,0:0:0:0:
448,192,73338,1,0,0:0:0:0:
320,192,73539,128,0,73740:0:0:0:0:
64,192,73539,1,0,0:0:0:0:
192,192,73740,1,0,0:0:0:0:
64,192,73740,1,0,0:0:0:0:
448,192,73740,1,0,0:0:0:0:
192,192,73942,1,0,0:0:0:0:
64,192,73942,1,0,0:0:0:0:
448,192,73942,1,0,0:0:0:0:
192,192,74143,1,0,0:0:0:0:
64,192,74143,1,0,0:0:0:0:
448,192,74143,1,0,0:0:0:0:
192,192,74344,1,0,0:0:0:0:
64,192,74344,1,0,0:0:0:0:
448,192,74344,1,0,0:0:0:0:
192,192,74546,1,0,0:0:0:0:
448,192,74546,128,0,76156:0:0:0:0:
64,192,74546,1,0,0:0:0:0:
320,192,74747,1,0,0:0:0:0:
192,192,74848,1,0,0:0:0:0:
64,192,74948,1,0,0:0:0:0:
320,192,74948,1,0,0:0:0:0:
320,192,75150,1,0,0:0:0:0:
192,192,75250,1,0,0:0:0:0:
64,192,75351,1,0,0:0:0:0:
320,192,75351,1,0,0:0:0:0:
192,192,75452,1,0,0:0:0:0:
64,192,75552,1,0,0:0:0:0:
320,192,75754,1,0,0:0:0:0:
192,192,75754,1,0,0:0:0:0:
64,192,75955,1,0,0:0:0:0:
192,192,76156,1,0,0:0:0:0:
64,192,76156,128,0,76962:0:0:0:0:
320,192,76257,1,0,0:0:0:0:
448,192,76358,1,0,0:0:0:0:
192,192,76559,1,0,0:0:0:0:
448,192,76559,1,0,0:0:0:0:
320,192,76760,1,0,0:0:0:0:
192,192,76962,1,0,0:0:0:0:
448,192,76962,1,0,0:0:0:0:
320,192,77062,1,0,0:0:0:0:
448,192,77163,1,0,0:0:0:0:
320,192,77365,1,0,0:0:0:0:
64,192,77365,1,0,0:0:0:0:
192,192,77566,1,0,0:0:0:0:
320,192,77767,1,0,0:0:0:0:
64,192,77767,1,0,0:0:0:0:
448,192,77767,1,0,0:0:0:0:
64,192,77969,1,0,0:0:0:0:
320,192,77969,1,0,0:0:0:0:
448,192,77969,1,0,0:0:0:0:
192,192,78170,1,0,0:0:0:0:
320,192,78271,1,0,0:0:0:0:
192,192,78371,1,0,0:0:0:0:
320,192,78472,1,0,0:0:0:0:
64,192,78573,128,0,78975:0:0:0:0:
448,192,78573,1,0,0:0:0:0:
320,192,78673,1,0,0:0:0:0:
448,192,78774,1,0,0:0:0:0:
320,192,78875,1,0,0:0:0:0:
192,192,78975,1,0,0:0:0:0:
320,192,79076,1,0,0:0:0:0:
192,192,79177,1,0,0:0:0:0:
320,192,79277,1,0,0:0:0:0:
448,192,79378,1,0,0:0:0:0:
192,192,79378,1,0,0:0:0:0:
64,192,79579,1,0,0:0:0:0:
320,192,79579,1,0,0:0:0:0:
64,192,79781,1,0,0:0:0:0:
192,192,79831,1,0,0:0:0:0:
320,192,79881,1,0,0:0:0:0:
448,192,79932,1,0,0:0:0:0:
64,192,79982,1,0,0:0:0:0:
192,192,80032,1,0,0:0:0:0:
320,192,80083,1,0,0:0:0:0:
448,192,80133,1,0,0:0:0:0:
192,192,80284,1,0,0:0:0:0:
448,192,80385,128,0,80989:0:0:0:0:
64,192,80385,1,0,0:0:0:0:
320,192,80586,128,0,80787:0:0:0:0:
192,192,80586,1,0,0:0:0:0:
192,192,80787,128,0,80989:0:0:0:0:
64,192,80787,1,0,0:0:0:0:
320,192,80989,1,0,0:0:0:0:
64,192,80989,1,0,0:0:0:0:
192,192,81190,1,0,0:0:0:0:
448,192,81391,128,0,81794:0:0:0:0:
64,192,81391,1,0,0:0:0:0:
192,192,81492,1,0,0:0:0:0:
320,192,81593,1,0,0:0:0:0:
64,192,81693,1,0,0:0:0:0:
192,192,81794,128,0,82197:0:0:0:0:
320,192,81794,1,0,0:0:0:0:
448,192,81995,1,0,0:0:0:0:
64,192,82197,1,0,0:0:0:0:
320,192,82197,128,0,82599:0:0:0:0:
192,192,82297,1,0,0:0:0:0:
64,192,82398,1,0,0:0:0:0:
192,192,82499,1,0,0:0:0:0:
64,192,82599,1,0,0:0:0:0:
448,192,82599,128,0,83002:0:0:0:0:
320,192,82801,1,0,0:0:0:0:
64,192,82801,1,0,0:0:0:0:
64,192,83002,128,0,83405:0:0:0:0:
320,192,83002,1,0,0:0:0:0:
192,192,83103,1,0,0:0:0:0:
320,192,83203,1,0,0:0:0:0:
448,192,83304,1,0,0:0:0:0:
192,192,83405,128,0,84210:0:0:0:0:
320,192,83405,1,0,0:0:0:0:
64,192,83505,1,0,0:0:0:0:
448,192,83606,1,0,0:0:0:0:
320,192,83707,1,0,0:0:0:0:
64,192,83807,1,0,0:0:0:0:
448,192,83908,1,0,0:0:0:0:
320,192,84009,1,0,0:0:0:0:
64,192,84109,1,0,0:0:0:0:
320,192,84210,1,0,0:0:0:0:
448,192,84210,1,0,0:0:0:0:
448,192,84411,1,0,0:0:0:0:
320,192,84512,1,0,0:0:0:0:
192,192,84613,1,0,0:0:0:0:
320,192,84714,1,0,0:0:0:0:
192,192,84814,1,0,0:0:0:0:
64,192,84915,1,0,0:0:0:0:
192,192,85016,1,0,0:0:0:0:
448,192,85016,1,0,0:0:0:0:
320,192,85016,1,0,0:0:0:0:
320,192,85217,1,0,0:0:0:0:
64,192,85217,1,0,0:0:0:0:
320,192,85418,1,0,0:0:0:0:
448,192,85418,1,0,0:0:0:0:
64,192,85620,1,0,0:0:0:0:
192,192,85720,1,0,0:0:0:0:
320,192,85821,1,0,0:0:0:0:
192,192,86022,1,0,0:0:0:0:
320,192,86123,1,0,0:0:0:0:
448,192,86224,1,0,0:0:0:0:
64,192,86224,1,0,0:0:0:0:
192,192,86324,1,0,0:0:0:0:
320,192,86425,1,0,0:0:0:0:
448,192,86526,1,0,0:0:0:0:
64,192,86626,1,0,0:0:0:0:
320,192,86626,1,0,0:0:0:0:
192,192,86727,1,0,0:0:0:0:
64,192,86828,1,0,0:0:0:0:
320,192,86828,1,0,0:0:0:0:
192,192,86928,1,0,0:0:0:0:
448,192,87029,1,0,0:0:0:0:
64,192,87029,1,0,0:0:0:0:
192,192,87130,1,0,0:0:0:0:
320,192,87230,1,0,0:0:0:0:
64,192,87230,1,0,0:0:0:0:
192,192,87331,1,0,0:0:0:0:
320,192,87432,1,0,0:0:0:0:
448,192,87432,1,0,0:0:0:0:
64,192,87633,1,0,0:0:0:0:
192,192,87734,1,0,0:0:0:0:
320,192,87834,1,0,0:0:0:0:
64,192,87935,1,0,0:0:0:0:
192,192,88036,1,0,0:0:0:0:
320,192,88136,1,0,0:0:0:0:
192,192,88237,1,0,0:0:0:0:
64,192,88237,1,0,0:0:0:0:
320,192,88438,1,0,0:0:0:0:
448,192,88438,1,0,0:0:0:0:
320,192,88640,1,0,0:0:0:0:
448,192,88640,1,0,0:0:0:0:
192,192,88740,1,0,0:0:0:0:
64,192,88740,1,0,0:0:0:0:
320,192,88841,1,0,0:0:0:0:
448,192,88841,1,0,0:0:0:0:
192,192,88942,1,0,0:0:0:0:
64,192,88942,1,0,0:0:0:0:
448,192,89042,1,0,0:0:0:0:
320,192,89244,1,0,0:0:0:0:
192,192,89445,1,0,0:0:0:0:
64,192,89445,1,0,0:0:0:0:
320,192,89646,1,0,0:0:0:0:
192,192,89848,1,0,0:0:0:0:
64,192,89848,1,0,0:0:0:0:
448,192,89848,1,0,0:0:0:0:
192,192,90049,1,0,0:0:0:0:
64,192,90049,1,0,0:0:0:0:
448,192,90049,1,0,0:0:0:0:
192,192,90250,1,0,0:0:0:0:
64,192,90250,1,0,0:0:0:0:
448,192,90250,1,0,0:0:0:0:
192,192,90452,1,0,0:0:0:0:
64,192,90452,1,0,0:0:0:0:
448,192,90452,1,0,0:0:0:0:
64,192,90653,1,0,0:0:0:0:
64,192,90854,1,0,0:0:0:0:
192,192,90955,1,0,0:0:0:0:
320,192,91056,1,0,0:0:0:0:
448,192,91156,1,0,0:0:0:0:
320,192,91257,1,0,0:0:0:0:
192,192,91358,1,0,0:0:0:0:
64,192,91458,1,0,0:0:0:0:
64,192,91660,1,0,0:0:0:0:
320,192,91660,1,0,0:0:0:0:
192,192,91861,1,0,0:0:0:0:
448,192,91861,1,0,0:0:0:0:
64,192,92062,1,0,0:0:0:0:
448,192,92062,1,0,0:0:0:0:
320,192,92163,1,0,0:0:0:0:
192,192,92264,1,0,0:0:0:0:
448,192,92465,1,0,0:0:0:0:
192,192,92465,1,0,0:0:0:0:
320,192,92566,1,0,0:0:0:0:
192,192,92667,1,0,0:0:0:0:
64,192,92767,1,0,0:0:0:0:
192,192,92868,1,0,0:0:0:0:
320,192,92969,1,0,0:0:0:0:
448,192,93069,1,0,0:0:0:0:
192,192,93069,1,0,0:0:0:0:
320,192,93170,1,0,0:0:0:0:
64,192,93170,1,0,0:0:0:0:
192,192,93271,1,0,0:0:0:0:
448,192,93271,1,0,0:0:0:0:
192,192,93472,1,0,0:0:0:0:
448,192,93472,1,0,0:0:0:0:
320,192,93673,1,0,0:0:0:0:
64,192,93673,1,0,0:0:0:0:
192,192,93774,1,0,0:0:0:0:
320,192,93875,1,0,0:0:0:0:
320,192,94076,1,0,0:0:0:0:
192,192,94177,1,0,0:0:0:0:
64,192,94277,1,0,0:0:0:0:
64,192,94479,1,0,0:0:0:0:
192,192,94579,1,0,0:0:0:0:
320,192,94680,1,0,0:0:0:0:
320,192,94881,1,0,0:0:0:0:
320,192,95083,1,0,0:0:0:0:
320,192,95284,1,0,0:0:0:0:
448,192,95385,1,0,0:0:0:0:
320,192,95485,1,0,0:0:0:0:
320,192,95687,1,0,0:0:0:0:
320,192,95888,1,0,0:0:0:0:
64,192,95888,128,0,96291:0:0:0:0:
448,192,96089,1,0,0:0:0:0:
192,192,96291,128,0,97096:0:0:0:0:
448,192,96291,1,0,0:0:0:0:
320,192,96391,1,0,0:0:0:0:
64,192,96492,1,0,0:0:0:0:
448,192,96593,1,0,0:0:0:0:
320,192,96693,1,0,0:0:0:0:
64,192,96794,1,0,0:0:0:0:
448,192,96895,1,0,0:0:0:0:
320,192,96995,1,0,0:0:0:0:
448,192,97096,1,0,0:0:0:0:
64,192,97096,1,0,0:0:0:0:
320,192,97197,1,0,0:0:0:0:
192,192,97297,1,0,0:0:0:0:
320,192,97398,1,0,0:0:0:0:
192,192,97499,1,0,0:0:0:0:
320,192,97599,1,0,0:0:0:0:
192,192,97700,1,0,0:0:0:0:
320,192,97801,1,0,0:0:0:0:
192,192,97901,1,0,0:0:0:0:
320,192,98002,1,0,0:0:0:0:
64,192,98103,1,0,0:0:0:0:
320,192,98203,1,0,0:0:0:0:
64,192,98304,1,0,0:0:0:0:
320,192,98405,1,0,0:0:0:0:
64,192,98505,1,0,0:0:0:0:
320,192,98606,1,0,0:0:0:0:
64,192,98707,1,0,0:0:0:0:
192,192,98757,1,0,0:0:0:0:
320,192,98807,1,0,0:0:0:0:
448,192,98858,1,0,0:0:0:0:
64,192,98908,1,0,0:0:0:0:
192,192,98958,1,0,0:0:0:0:
320,192,99009,1,0,0:0:0:0:
448,192,99059,1,0,0:0:0:0:
64,192,99109,1,0,0:0:0:0:
192,192,99160,1,0,0:0:0:0:
320,192,99210,1,0,0:0:0:0:
448,192,99260,1,0,0:0:0:0:
64,192,99311,1,0,0:0:0:0:
192,192,99361,1,0,0:0:0:0:
320,192,99411,1,0,0:0:0:0:
448,192,99462,1,0,0:0:0:0:
64,192,99512,1,0,0:0:0:0:
320,192,99512,1,0,0:0:0:0:
192,192,99714,1,0,0:0:0:0:
448,192,99714,1,0,0:0:0:0:
320,192,99915,1,0,0:0:0:0:
448,192,99915,1,0,0:0:0:0:
448,192,100116,1,0,0:0:0:0:
320,192,100318,1,0,0:0:0:0:
64,192,100318,1,0,0:0:0:0:
192,192,100519,1,0,0:0:0:0:
320,192,100620,1,0,0:0:0:0:
448,192,100720,1,0,0:0:0:0:
64,192,100720,1,0,0:0:0:0:
192,192,100821,1,0,0:0:0:0:
320,192,100922,1,0,0:0:0:0:
448,192,101022,1,0,0:0:0:0:
320,192,101123,1,0,0:0:0:0:
64,192,101123,1,0,0:0:0:0:
192,192,101324,1,0,0:0:0:0:
320,192,101526,1,0,0:0:0:0:
448,192,101526,1,0,0:0:0:0:
64,192,101727,1,0,0:0:0:0:
192,192,101828,1,0,0:0:0:0:
320,192,101928,1,0,0:0:0:0:
448,192,101928,1,0,0:0:0:0:
320,192,102130,1,0,0:0:0:0:
192,192,102230,1,0,0:0:0:0:
64,192,102331,1,0,0:0:0:0:
448,192,102331,1,0,0:0:0:0:
320,192,102432,1,0,0:0:0:0:
192,192,102532,1,0,0:0:0:0:
64,192,102633,1,0,0:0:0:0:
192,192,102734,1,0,0:0:0:0:
320,192,102734,1,0,0:0:0:0:
448,192,102734,128,0,103539:0:0:0:0:
64,192,102935,1,0,0:0:0:0:
192,192,103136,1,0,0:0:0:0:
320,192,103136,1,0,0:0:0:0:
320,192,103338,1,0,0:0:0:0:
64,192,103338,1,0,0:0:0:0:
192,192,103539,1,0,0:0:0:0:
64,192,103539,1,0,0:0:0:0:
192,192,103740,1,0,0:0:0:0:
320,192,103841,1,0,0:0:0:0:
448,192,103942,1,0,0:0:0:0:
64,192,103942,1,0,0:0:0:0:
192,192,104042,1,0,0:0:0:0:
320,192,104143,1,0,0:0:0:0:
192,192,104244,1,0,0:0:0:0:
448,192,104344,1,0,0:0:0:0:
64,192,104344,1,0,0:0:0:0:
320,192,104546,1,0,0:0:0:0:
192,192,104747,1,0,0:0:0:0:
64,192,104747,1,0,0:0:0:0:
448,192,104948,1,0,0:0:0:0:
320,192,105049,1,0,0:0:0:0:
192,192,105150,1,0,0:0:0:0:
64,192,105150,1,0,0:0:0:0:
320,192,105351,1,0,0:0:0:0:
448,192,105351,1,0,0:0:0:0:
192,192,105351,1,0,0:0:0:0:
192,192,105552,1,0,0:0:0:0:
64,192,105552,1,0,0:0:0:0:
448,192,105552,1,0,0:0:0:0:
320,192,105754,1,0,0:0:0:0:
448,192,105754,1,0,0:0:0:0:
64,192,105754,1,0,0:0:0:0:
64,192,105955,1,0,0:0:0:0:
192,192,105955,1,0,0:0:0:0:
448,192,105955,1,0,0:0:0:0:
448,192,106156,1,0,0:0:0:0:
64,192,106156,1,0,0:0:0:0:
192,192,106156,1,0,0:0:0:0:
64,192,106358,1,0,0:0:0:0:
192,192,106559,1,0,0:0:0:0:
320,192,106760,1,0,0:0:0:0:
448,192,106760,1,0,0:0:0:0:
64,192,106962,1,0,0:0:0:0:
192,192,106962,1,0,0:0:0:0:
320,192,107062,1,0,0:0:0:0:
192,192,107163,1,0,0:0:0:0:
64,192,107264,1,0,0:0:0:0:
448,192,107365,1,0,0:0:0:0:
320,192,107415,1,0,0:0:0:0:
192,192,107465,1,0,0:0:0:0:
64,192,107516,1,0,0:0:0:0:
320,192,107566,1,0,0:0:0:0:
448,192,107566,1,0,0:0:0:0:
192,192,107667,1,0,0:0:0:0:
320,192,107767,1,0,0:0:0:0:
448,192,107767,1,0,0:0:0:0:
64,192,107868,1,0,0:0:0:0:
320,192,107969,1,0,0:0:0:0:
192,192,107969,1,0,0:0:0:0:
192,192,108170,1,0,0:0:0:0:
64,192,108170,1,0,0:0:0:0:
448,192,108271,1,0,0:0:0:0:
64,192,108371,1,0,0:0:0:0:
320,192,108371,1,0,0:0:0:0:
448,192,108573,1,0,0:0:0:0:
192,192,108573,1,0,0:0:0:0:
320,192,108774,1,0,0:0:0:0:
192,192,108824,1,0,0:0:0:0:
64,192,108875,1,0,0:0:0:0:
448,192,108925,1,0,0:0:0:0:
320,192,108975,1,0,0:0:0:0:
192,192,109026,1,0,0:0:0:0:
64,192,109076,1,0,0:0:0:0:
320,192,109177,1,0,0:0:0:0:
448,192,109177,1,0,0:0:0:0:
64,192,109378,1,0,0:0:0:0:
192,192,109378,1,0,0:0:0:0:
320,192,109579,1,0,0:0:0:0:
448,192,109579,1,0,0:0:0:0:
192,192,109781,1,0,0:0:0:0:
64,192,109781,1,0,0:0:0:0:
320,192,109982,1,0,0:0:0:0:
448,192,109982,1,0,0:0:0:0:
448,192,110183,1,0,0:0:0:0:
192,192,110183,1,0,0:0:0:0:
320,192,110284,1,0,0:0:0:0:
192,192,110385,1,0,0:0:0:0:
448,192,110385,1,0,0:0:0:0:
64,192,110485,1,0,0:0:0:0:
320,192,110485,1,0,0:0:0:0:
192,192,110586,1,0,0:0:0:0:
448,192,110586,1,0,0:0:0:0:
64,192,110687,1,0,0:0:0:0:
320,192,110687,1,0,0:0:0:0:
192,192,110787,1,0,0:0:0:0:
448,192,110787,1,0,0:0:0:0:
320,192,110989,1,0,0:0:0:0:
64,192,110989,1,0,0:0:0:0:
64,192,111190,1,0,0:0:0:0:
320,192,111190,1,0,0:0:0:0:
192,192,111291,1,0,0:0:0:0:
448,192,111291,1,0,0:0:0:0:
320,192,111391,1,0,0:0:0:0:
64,192,111391,1,0,0:0:0:0:
192,192,111492,1,0,0:0:0:0:
320,192,111593,1,0,0:0:0:0:
448,192,111593,1,0,0:0:0:0:
192,192,111794,1,0,0:0:0:0:
64,192,111794,1,0,0:0:0:0:
448,192,111794,1,0,0:0:0:0:
64,192,111995,1,0,0:0:0:0:
320,192,111995,1,0,0:0:0:0:
448,192,111995,1,0,0:0:0:0:
320,192,112197,1,0,0:0:0:0:
448,192,112197,1,0,0:0:0:0:
192,192,112197,1,0,0:0:0:0:
64,192,112398,1,0,0:0:0:0:
320,192,112398,1,0,0:0:0:0:
192,192,112499,1,0,0:0:0:0:
448,192,112499,1,0,0:0:0:0:
320,192,112599,1,0,0:0:0:0:
64,192,112599,1,0,0:0:0:0:
448,192,112700,1,0,0:0:0:0:
192,192,112700,1,0,0:0:0:0:
320,192,112801,1,0,0:0:0:0:
448,192,112901,1,0,0:0:0:0:
192,192,112901,1,0,0:0:0:0:
320,192,113002,1,0,0:0:0:0:
64,192,113002,1,0,0:0:0:0:
192,192,113103,1,0,0:0:0:0:
448,192,113103,1,0,0:0:0:0:
320,192,113203,1,0,0:0:0:0:
64,192,113203,1,0,0:0:0:0:
