osu file format v14

[General]
AudioFilename: laidback-luke-amp-tujamo-sax-original-mix.mp3
AudioLeadIn: 0
PreviewTime: -1
Countdown: 1
SampleSet: None
StackLeniency: 0.7
Mode: 3
LetterboxInBreaks: 0
SpecialStyle: 0
WidescreenStoryboard: 0

[Editor]
DistanceSpacing: 0.8
BeatDivisor: 4
GridSize: 8
TimelineZoom: 1

[Metadata]
Title:Sax (Original Mix)
TitleUnicode:Sax (Original Mix)
Artist:Laidback Luke & Tujamo
ArtistUnicode:Laidback Luke & Tujamo
Creator:Striker206
Version:Normal
Source:
Tags:Sax Bass
BeatmapID:867526
BeatmapSetID:398983

[Difficulty]
HPDrainRate:5
CircleSize:4
OverallDifficulty:5
ApproachRate:5
SliderMultiplier:1.4
SliderTickRate:1

[Events]
//Background and Video events
//Break Periods
2,120228,126328
//Storyboard Layer 0 (Background)
//Storyboard Layer 1 (Fail)
//Storyboard Layer 2 (Pass)
//Storyboard Layer 3 (Foreground)
//Storyboard Sound Samples

[TimingPoints]
25.3844715178057,468.763256687001,4,1,0,100,1,0

[HitObjects]
460,192,7525,5,0,0:0:0:0:
320,192,7994,1,0,0:0:0:0:
192,192,8463,1,0,0:0:0:0:
64,192,8931,1,0,0:0:0:0:
192,192,9400,1,0,0:0:0:0:
320,192,9869,1,0,0:0:0:0:
448,192,10338,1,0,0:0:0:0:
320,192,10806,1,0,0:0:0:0:
192,192,11275,1,0,0:0:0:0:
320,192,11744,1,0,0:0:0:0:
64,192,12213,1,0,0:0:0:0:
448,192,12681,1,0,0:0:0:0:
320,192,13150,1,0,0:0:0:0:
320,192,13619,1,0,0:0:0:0:
64,192,14088,1,0,0:0:0:0:
64,192,14557,1,0,0:0:0:0:
192,192,15025,1,0,0:0:0:0:
320,192,15260,1,0,0:0:0:0:
64,192,15494,1,0,0:0:0:0:
448,192,15728,1,0,0:0:0:0:
320,192,15963,1,0,0:0:0:0:
192,192,16197,1,0,0:0:0:0:
448,192,16432,1,0,0:0:0:0:
64,192,16666,1,0,0:0:0:0:
192,192,16900,1,0,0:0:0:0:
192,192,17135,1,0,0:0:0:0:
320,192,17369,1,0,0:0:0:0:
320,192,17604,1,0,0:0:0:0:
64,192,17838,1,0,0:0:0:0:
448,192,18189,1,0,0:0:0:0:
192,192,18541,1,0,0:0:0:0:
320,192,18775,128,0,21591:0:0:0:0:
192,192,18775,128,0,21591:0:0:0:0:
64,192,19244,1,0,0:0:0:0:
448,192,19244,1,0,0:0:0:0:
448,192,19713,1,0,0:0:0:0:
64,192,19713,1,0,0:0:0:0:
64,192,20182,1,0,0:0:0:0:
448,192,20182,1,0,0:0:0:0:
64,192,20650,1,0,0:0:0:0:
448,192,20650,1,0,0:0:0:0:
64,192,21119,1,0,0:0:0:0:
448,192,21119,1,0,0:0:0:0:
192,192,22057,1,0,0:0:0:0:
320,192,22057,1,0,0:0:0:0:
64,192,22291,1,0,0:0:0:0:
448,192,22291,1,0,0:0:0:0:
320,192,22643,128,0,24403:0:0:0:0:
192,192,22994,128,0,24871:0:0:0:0:
448,192,23463,128,0,25340:0:0:0:0:
64,192,23932,128,0,25809:0:0:0:0:
192,192,26276,128,0,26745:0:0:0:0:
320,192,27213,128,0,27682:0:0:0:0:
64,192,28151,128,0,28620:0:0:0:0:
448,192,29088,128,0,29557:0:0:0:0:
320,192,30026,1,0,0:0:0:0:
320,192,30494,1,0,0:0:0:0:
320,192,30963,1,0,0:0:0:0:
64,192,31198,1,0,0:0:0:0:
64,192,31432,1,0,0:0:0:0:
320,192,31666,1,0,0:0:0:0:
320,192,31901,1,0,0:0:0:0:
320,192,32370,1,0,0:0:0:0:
320,192,32838,1,0,0:0:0:0:
64,192,33073,1,0,0:0:0:0:
64,192,33307,1,0,0:0:0:0:
320,192,33541,1,0,0:0:0:0:
320,192,33776,1,0,0:0:0:0:
320,192,34245,1,0,0:0:0:0:
320,192,34713,1,0,0:0:0:0:
64,192,34948,1,0,0:0:0:0:
64,192,35182,1,0,0:0:0:0:
320,192,35417,1,0,0:0:0:0:
320,192,35651,128,0,37528:0:0:0:0:
192,192,36588,128,0,37527:0:0:0:0:
192,192,37995,1,0,0:0:0:0:
320,192,37995,1,0,0:0:0:0:
192,192,38463,1,0,0:0:0:0:
320,192,38463,1,0,0:0:0:0:
192,192,38698,1,0,0:0:0:0:
320,192,38815,1,0,0:0:0:0:
192,192,39049,1,0,0:0:0:0:
320,192,39167,1,0,0:0:0:0:
192,192,39401,1,0,0:0:0:0:
320,192,39401,1,0,0:0:0:0:
192,192,39870,1,0,0:0:0:0:
320,192,39870,1,0,0:0:0:0:
192,192,40339,1,0,0:0:0:0:
320,192,40339,1,0,0:0:0:0:
192,192,40573,1,0,0:0:0:0:
320,192,40690,1,0,0:0:0:0:
192,192,40924,1,0,0:0:0:0:
320,192,41042,1,0,0:0:0:0:
192,192,41276,1,0,0:0:0:0:
320,192,41276,1,0,0:0:0:0:
192,192,41745,1,0,0:0:0:0:
320,192,41745,1,0,0:0:0:0:
192,192,42214,1,0,0:0:0:0:
320,192,42214,1,0,0:0:0:0:
192,192,42448,1,0,0:0:0:0:
320,192,42565,1,0,0:0:0:0:
192,192,42800,1,0,0:0:0:0:
320,192,42917,1,0,0:0:0:0:
192,192,43151,1,0,0:0:0:0:
320,192,43151,1,0,0:0:0:0:
192,192,43620,1,0,0:0:0:0:
320,192,43620,1,0,0:0:0:0:
64,192,44089,128,0,45027:0:0:0:0:
448,192,44089,128,0,45027:0:0:0:0:
64,192,45261,1,0,0:0:0:0:
448,192,45495,1,0,0:0:0:0:
64,192,45729,1,0,0:0:0:0:
448,192,45964,1,0,0:0:0:0:
64,192,46198,1,0,0:0:0:0:
192,192,46315,1,0,0:0:0:0:
320,192,46550,1,0,0:0:0:0:
448,192,46667,1,0,0:0:0:0:
64,192,46901,128,0,49717:0:0:0:0:
448,192,46901,128,0,49717:0:0:0:0:
192,192,47136,1,0,0:0:0:0:
320,192,47370,1,0,0:0:0:0:
192,192,47604,1,0,0:0:0:0:
320,192,47839,1,0,0:0:0:0:
192,192,48073,1,0,0:0:0:0:
320,192,48190,1,0,0:0:0:0:
320,192,48425,1,0,0:0:0:0:
192,192,48542,1,0,0:0:0:0:
320,192,48776,1,0,0:0:0:0:
320,192,49245,1,0,0:0:0:0:
192,192,49245,1,0,0:0:0:0:
320,192,49948,1,0,0:0:0:0:
192,192,50065,1,0,0:0:0:0:
320,192,50300,1,0,0:0:0:0:
192,192,50417,1,0,0:0:0:0:
64,192,50651,128,0,54405:0:0:0:0:
320,192,51120,128,0,51589:0:0:0:0:
320,192,51823,1,0,0:0:0:0:
448,192,51940,1,0,0:0:0:0:
320,192,52175,1,0,0:0:0:0:
448,192,52292,1,0,0:0:0:0:
320,192,52526,1,0,0:0:0:0:
448,192,52526,1,0,0:0:0:0:
320,192,52995,1,0,0:0:0:0:
448,192,52995,1,0,0:0:0:0:
320,192,53464,1,0,0:0:0:0:
448,192,53464,1,0,0:0:0:0:
448,192,53698,1,0,0:0:0:0:
320,192,53815,1,0,0:0:0:0:
448,192,54050,1,0,0:0:0:0:
320,192,54167,1,0,0:0:0:0:
320,192,54401,128,0,54871:0:0:0:0:
192,192,55339,128,0,55808:0:0:0:0:
64,192,56276,128,0,58154:0:0:0:0:
448,192,56745,128,0,58153:0:0:0:0:
192,192,57214,128,0,58153:0:0:0:0:
320,192,58620,128,0,59089:0:0:0:0:
192,192,58620,128,0,59089:0:0:0:0:
192,192,59323,1,0,0:0:0:0:
320,192,59323,1,0,0:0:0:0:
64,192,59441,1,0,0:0:0:0:
448,192,59441,1,0,0:0:0:0:
192,192,59675,1,0,0:0:0:0:
320,192,59675,1,0,0:0:0:0:
64,192,59792,1,0,0:0:0:0:
448,192,59792,1,0,0:0:0:0:
192,192,60027,1,0,0:0:0:0:
320,192,60261,1,0,0:0:0:0:
192,192,60495,1,0,0:0:0:0:
320,192,60730,1,0,0:0:0:0:
192,192,60964,1,0,0:0:0:0:
320,192,61198,1,0,0:0:0:0:
192,192,61433,1,0,0:0:0:0:
320,192,61667,1,0,0:0:0:0:
192,192,61902,1,0,0:0:0:0:
320,192,62136,1,0,0:0:0:0:
64,192,62370,1,0,0:0:0:0:
448,192,62605,1,0,0:0:0:0:
64,192,62839,1,0,0:0:0:0:
448,192,63074,1,0,0:0:0:0:
64,192,63308,1,0,0:0:0:0:
448,192,63542,1,0,0:0:0:0:
64,192,63777,1,0,0:0:0:0:
192,192,64011,1,0,0:0:0:0:
320,192,64245,1,0,0:0:0:0:
448,192,64480,1,0,0:0:0:0:
192,192,64714,1,0,0:0:0:0:
320,192,64949,1,0,0:0:0:0:
192,192,65183,1,0,0:0:0:0:
320,192,65417,1,0,0:0:0:0:
192,192,65652,1,0,0:0:0:0:
448,192,65886,1,0,0:0:0:0:
320,192,66121,1,0,0:0:0:0:
192,192,66355,1,0,0:0:0:0:
64,192,66589,1,0,0:0:0:0:
448,192,66824,1,0,0:0:0:0:
64,192,67058,1,0,0:0:0:0:
448,192,67292,1,0,0:0:0:0:
320,192,67527,128,0,74096:0:0:0:0:
64,192,69402,128,0,74094:0:0:0:0:
448,192,71277,128,0,74092:0:0:0:0:
192,192,74558,1,0,0:0:0:0:
320,192,74558,1,0,0:0:0:0:
192,192,75027,1,0,0:0:0:0:
320,192,75027,1,0,0:0:0:0:
64,192,75496,1,0,0:0:0:0:
448,192,75496,1,0,0:0:0:0:
192,192,75965,1,0,0:0:0:0:
320,192,75965,1,0,0:0:0:0:
448,192,76199,1,0,0:0:0:0:
320,192,76316,1,0,0:0:0:0:
192,192,76550,1,0,0:0:0:0:
64,192,76668,1,0,0:0:0:0:
192,192,76902,1,0,0:0:0:0:
320,192,76902,1,0,0:0:0:0:
192,192,77136,1,0,0:0:0:0:
320,192,77136,1,0,0:0:0:0:
64,192,77371,1,0,0:0:0:0:
448,192,77371,1,0,0:0:0:0:
320,192,77840,1,0,0:0:0:0:
192,192,77840,1,0,0:0:0:0:
192,192,78074,1,0,0:0:0:0:
320,192,78191,1,0,0:0:0:0:
448,192,78543,1,0,0:0:0:0:
64,192,78543,1,0,0:0:0:0:
320,192,78777,1,0,0:0:0:0:
64,192,78777,1,0,0:0:0:0:
448,192,79246,1,0,0:0:0:0:
192,192,79246,1,0,0:0:0:0:
192,192,79715,1,0,0:0:0:0:
320,192,79715,1,0,0:0:0:0:
448,192,79949,1,0,0:0:0:0:
64,192,80066,1,0,0:0:0:0:
192,192,80301,1,0,0:0:0:0:
320,192,80418,1,0,0:0:0:0:
192,192,80652,1,0,0:0:0:0:
320,192,80652,1,0,0:0:0:0:
64,192,80887,1,0,0:0:0:0:
448,192,80887,1,0,0:0:0:0:
192,192,81121,1,0,0:0:0:0:
320,192,81238,1,0,0:0:0:0:
192,192,81590,1,0,0:0:0:0:
320,192,81590,1,0,0:0:0:0:
320,192,81824,1,0,0:0:0:0:
64,192,82058,1,0,0:0:0:0:
448,192,82293,1,0,0:0:0:0:
64,192,82527,1,0,0:0:0:0:
448,192,82527,1,0,0:0:0:0:
192,192,82996,1,0,0:0:0:0:
320,192,82996,1,0,0:0:0:0:
64,192,83465,1,0,0:0:0:0:
448,192,83465,1,0,0:0:0:0:
64,192,83699,1,0,0:0:0:0:
320,192,83699,1,0,0:0:0:0:
448,192,84051,1,0,0:0:0:0:
192,192,84168,1,0,0:0:0:0:
192,192,84402,1,0,0:0:0:0:
448,192,84402,1,0,0:0:0:0:
64,192,84637,1,0,0:0:0:0:
320,192,84637,1,0,0:0:0:0:
192,192,84871,1,0,0:0:0:0:
448,192,84871,1,0,0:0:0:0:
64,192,85340,1,0,0:0:0:0:
448,192,85340,1,0,0:0:0:0:
320,192,85340,1,0,0:0:0:0:
64,192,85691,1,0,0:0:0:0:
192,192,85691,1,0,0:0:0:0:
320,192,85926,1,0,0:0:0:0:
448,192,86043,1,0,0:0:0:0:
192,192,86277,1,0,0:0:0:0:
64,192,86277,1,0,0:0:0:0:
320,192,86746,1,0,0:0:0:0:
448,192,86746,1,0,0:0:0:0:
64,192,87215,1,0,0:0:0:0:
320,192,87215,1,0,0:0:0:0:
192,192,87566,1,0,0:0:0:0:
320,192,87801,1,0,0:0:0:0:
448,192,87918,1,0,0:0:0:0:
192,192,88152,128,0,89091:0:0:0:0:
64,192,88152,128,0,88622:0:0:0:0:
320,192,89324,1,0,0:0:0:0:
192,192,89324,1,0,0:0:0:0:
64,192,89441,1,0,0:0:0:0:
320,192,89676,1,0,0:0:0:0:
64,192,89676,1,0,0:0:0:0:
448,192,89793,1,0,0:0:0:0:
192,192,90027,1,0,0:0:0:0:
320,192,90027,1,0,0:0:0:0:
64,192,90262,1,0,0:0:0:0:
448,192,90496,1,0,0:0:0:0:
192,192,90731,1,0,0:0:0:0:
320,192,90965,1,0,0:0:0:0:
64,192,90965,1,0,0:0:0:0:
192,192,91317,1,0,0:0:0:0:
192,192,91551,1,0,0:0:0:0:
448,192,91668,1,0,0:0:0:0:
192,192,91902,1,0,0:0:0:0:
320,192,91902,1,0,0:0:0:0:
64,192,92137,1,0,0:0:0:0:
448,192,92137,1,0,0:0:0:0:
192,192,92371,1,0,0:0:0:0:
320,192,92371,1,0,0:0:0:0:
64,192,92840,1,0,0:0:0:0:
320,192,92840,1,0,0:0:0:0:
192,192,93192,1,0,0:0:0:0:
448,192,93192,1,0,0:0:0:0:
320,192,93426,1,0,0:0:0:0:
192,192,93543,1,0,0:0:0:0:
64,192,93778,1,0,0:0:0:0:
320,192,93778,1,0,0:0:0:0:
192,192,94012,1,0,0:0:0:0:
192,192,94246,1,0,0:0:0:0:
448,192,94246,1,0,0:0:0:0:
320,192,94481,1,0,0:0:0:0:
64,192,94715,1,0,0:0:0:0:
320,192,94715,1,0,0:0:0:0:
64,192,94949,1,0,0:0:0:0:
448,192,94949,1,0,0:0:0:0:
192,192,95067,1,0,0:0:0:0:
320,192,95067,1,0,0:0:0:0:
192,192,95301,1,0,0:0:0:0:
320,192,95418,1,0,0:0:0:0:
192,192,95653,128,0,95887:0:0:0:0:
448,192,95653,128,0,95887:0:0:0:0:
64,192,96121,128,0,96238:0:0:0:0:
320,192,96121,128,0,96238:0:0:0:0:
192,192,96590,128,0,96825:0:0:0:0:
64,192,97059,128,0,97294:0:0:0:0:
448,192,97059,128,0,97294:0:0:0:0:
192,192,97528,1,0,0:0:0:0:
320,192,97528,1,0,0:0:0:0:
192,192,97996,1,0,0:0:0:0:
320,192,97996,1,0,0:0:0:0:
192,192,98465,1,0,0:0:0:0:
320,192,98465,1,0,0:0:0:0:
64,192,98817,1,0,0:0:0:0:
448,192,98817,1,0,0:0:0:0:
192,192,99051,1,0,0:0:0:0:
320,192,99168,1,0,0:0:0:0:
64,192,99403,1,0,0:0:0:0:
192,192,99637,1,0,0:0:0:0:
320,192,99871,1,0,0:0:0:0:
448,192,99871,1,0,0:0:0:0:
192,192,100340,1,0,0:0:0:0:
320,192,100340,1,0,0:0:0:0:
64,192,100692,1,0,0:0:0:0:
448,192,100692,1,0,0:0:0:0:
192,192,100926,1,0,0:0:0:0:
320,192,101043,1,0,0:0:0:0:
64,192,101278,1,0,0:0:0:0:
448,192,101278,1,0,0:0:0:0:
64,192,101747,1,0,0:0:0:0:
320,192,101747,1,0,0:0:0:0:
192,192,102215,1,0,0:0:0:0:
448,192,102215,1,0,0:0:0:0:
320,192,102567,1,0,0:0:0:0:
64,192,102801,1,0,0:0:0:0:
192,192,102801,1,0,0:0:0:0:
320,192,102918,1,0,0:0:0:0:
320,192,103153,1,0,0:0:0:0:
192,192,103270,1,0,0:0:0:0:
320,192,103504,1,0,0:0:0:0:
192,192,103622,1,0,0:0:0:0:
320,192,103739,1,0,0:0:0:0:
192,192,103856,1,0,0:0:0:0:
320,192,103973,1,0,0:0:0:0:
192,192,104090,1,0,0:0:0:0:
320,192,104208,1,0,0:0:0:0:
192,192,104325,1,0,0:0:0:0:
320,192,104442,1,0,0:0:0:0:
192,192,104559,1,0,0:0:0:0:
320,192,104676,1,0,0:0:0:0:
192,192,104793,1,0,0:0:0:0:
320,192,104911,1,0,0:0:0:0:
192,192,105028,1,0,0:0:0:0:
320,192,105028,1,0,0:0:0:0:
64,192,105497,1,0,0:0:0:0:
448,192,105497,1,0,0:0:0:0:
192,192,105965,1,0,0:0:0:0:
320,192,105965,1,0,0:0:0:0:
64,192,106317,1,0,0:0:0:0:
320,192,106317,1,0,0:0:0:0:
320,192,106551,1,0,0:0:0:0:
448,192,106669,1,0,0:0:0:0:
192,192,106903,1,0,0:0:0:0:
64,192,106903,1,0,0:0:0:0:
192,192,107137,1,0,0:0:0:0:
320,192,107137,1,0,0:0:0:0:
320,192,107372,1,0,0:0:0:0:
448,192,107372,1,0,0:0:0:0:
64,192,107840,1,0,0:0:0:0:
448,192,107840,1,0,0:0:0:0:
192,192,108192,1,0,0:0:0:0:
320,192,108192,1,0,0:0:0:0:
320,192,108426,1,0,0:0:0:0:
64,192,108544,1,0,0:0:0:0:
192,192,108778,1,0,0:0:0:0:
320,192,108778,1,0,0:0:0:0:
64,192,109247,1,0,0:0:0:0:
192,192,109247,1,0,0:0:0:0:
320,192,109715,1,0,0:0:0:0:
448,192,109715,1,0,0:0:0:0:
64,192,110067,1,0,0:0:0:0:
320,192,110067,1,0,0:0:0:0:
320,192,110301,1,0,0:0:0:0:
192,192,110419,1,0,0:0:0:0:
448,192,110653,1,0,0:0:0:0:
320,192,110653,1,0,0:0:0:0:
320,192,110887,1,0,0:0:0:0:
192,192,110887,1,0,0:0:0:0:
192,192,111122,1,0,0:0:0:0:
64,192,111122,1,0,0:0:0:0:
320,192,111239,1,0,0:0:0:0:
192,192,111591,1,0,0:0:0:0:
320,192,111591,1,0,0:0:0:0:
192,192,111825,1,0,0:0:0:0:
448,192,111825,1,0,0:0:0:0:
64,192,112059,1,0,0:0:0:0:
320,192,112059,1,0,0:0:0:0:
192,192,112294,1,0,0:0:0:0:
320,192,112294,1,0,0:0:0:0:
64,192,112528,128,0,112997:0:0:0:0:
320,192,112762,128,0,112996:0:0:0:0:
192,192,113466,1,0,0:0:0:0:
320,192,113466,1,0,0:0:0:0:
64,192,113817,1,0,0:0:0:0:
320,192,114052,128,0,114169:0:0:0:0:
192,192,114403,128,0,115342:0:0:0:0:
320,192,114638,128,0,115342:0:0:0:0:
448,192,114872,128,0,115342:0:0:0:0:
192,192,115692,128,0,116278:0:0:0:0:
448,192,115927,1,0,0:0:0:0:
320,192,116044,1,0,0:0:0:0:
64,192,116747,1,0,0:0:0:0:
448,192,116747,1,0,0:0:0:0:
192,192,117216,1,0,0:0:0:0:
320,192,117216,1,0,0:0:0:0:
64,192,117567,1,0,0:0:0:0:
192,192,117567,1,0,0:0:0:0:
448,192,117802,128,0,117920:0:0:0:0:
320,192,117802,128,0,117920:0:0:0:0:
192,192,118153,128,0,119561:0:0:0:0:
320,192,118153,128,0,119561:0:0:0:0:
192,192,120028,1,0,0:0:0:0:
320,192,120028,1,0,0:0:0:0:
64,192,127528,5,0,0:0:0:0:
64,192,127997,1,0,0:0:0:0:
448,192,128466,1,0,0:0:0:0:
448,192,128700,1,0,0:0:0:0:
320,192,128818,1,0,0:0:0:0:
192,192,129052,1,0,0:0:0:0:
64,192,129169,1,0,0:0:0:0:
192,192,129404,1,0,0:0:0:0:
320,192,129404,1,0,0:0:0:0:
192,192,129872,1,0,0:0:0:0:
320,192,129872,1,0,0:0:0:0:
192,192,130341,1,0,0:0:0:0:
320,192,130341,1,0,0:0:0:0:
64,192,130575,1,0,0:0:0:0:
448,192,130693,1,0,0:0:0:0:
64,192,130927,1,0,0:0:0:0:
448,192,131044,1,0,0:0:0:0:
192,192,131279,128,0,133156:0:0:0:0:
320,192,131279,128,0,133156:0:0:0:0:
64,192,131747,1,0,0:0:0:0:
448,192,131747,1,0,0:0:0:0:
64,192,132216,1,0,0:0:0:0:
448,192,132216,1,0,0:0:0:0:
64,192,132451,1,0,0:0:0:0:
448,192,132568,1,0,0:0:0:0:
64,192,132802,1,0,0:0:0:0:
448,192,132919,1,0,0:0:0:0:
64,192,133622,128,0,135030:0:0:0:0:
448,192,133622,128,0,135030:0:0:0:0:
192,192,134091,1,0,0:0:0:0:
320,192,134091,1,0,0:0:0:0:
320,192,134326,1,0,0:0:0:0:
192,192,134443,1,0,0:0:0:0:
320,192,134677,1,0,0:0:0:0:
192,192,134794,1,0,0:0:0:0:
192,192,135497,1,0,0:0:0:0:
320,192,135497,1,0,0:0:0:0:
64,192,135966,1,0,0:0:0:0:
192,192,135966,1,0,0:0:0:0:
448,192,136201,1,0,0:0:0:0:
320,192,136201,1,0,0:0:0:0:
192,192,136318,1,0,0:0:0:0:
64,192,136552,1,0,0:0:0:0:
192,192,136552,1,0,0:0:0:0:
320,192,136669,1,0,0:0:0:0:
192,192,136904,128,0,137373:0:0:0:0:
320,192,136904,128,0,137373:0:0:0:0:
64,192,137841,128,0,138780:0:0:0:0:
448,192,137841,128,0,138780:0:0:0:0:
320,192,138076,1,0,0:0:0:0:
192,192,138193,1,0,0:0:0:0:
192,192,138427,1,0,0:0:0:0:
320,192,138544,1,0,0:0:0:0:
64,192,139248,128,0,140656:0:0:0:0:
320,192,139716,128,0,140655:0:0:0:0:
192,192,139951,1,0,0:0:0:0:
448,192,140068,1,0,0:0:0:0:
448,192,140302,1,0,0:0:0:0:
192,192,140419,1,0,0:0:0:0:
448,192,141123,128,0,142531:0:0:0:0:
192,192,141591,128,0,142530:0:0:0:0:
320,192,141826,1,0,0:0:0:0:
64,192,141943,1,0,0:0:0:0:
64,192,142177,1,0,0:0:0:0:
320,192,142295,1,0,0:0:0:0:
64,192,142529,128,0,144406:0:0:0:0:
320,192,142529,128,0,144406:0:0:0:0:
192,192,142998,1,0,0:0:0:0:
448,192,142998,1,0,0:0:0:0:
192,192,143466,1,0,0:0:0:0:
448,192,143466,1,0,0:0:0:0:
448,192,143701,1,0,0:0:0:0:
192,192,143818,1,0,0:0:0:0:
448,192,144052,1,0,0:0:0:0:
192,192,144170,1,0,0:0:0:0:
192,192,144404,128,0,146281:0:0:0:0:
448,192,144404,128,0,146281:0:0:0:0:
64,192,144873,1,0,0:0:0:0:
320,192,144873,1,0,0:0:0:0:
64,192,145341,1,0,0:0:0:0:
320,192,145341,1,0,0:0:0:0:
320,192,145576,1,0,0:0:0:0:
64,192,145693,1,0,0:0:0:0:
320,192,145927,1,0,0:0:0:0:
64,192,146045,1,0,0:0:0:0:
192,192,146748,1,0,0:0:0:0:
320,192,146748,1,0,0:0:0:0:
192,192,147217,1,0,0:0:0:0:
320,192,147217,1,0,0:0:0:0:
192,192,147451,1,0,0:0:0:0:
320,192,147451,1,0,0:0:0:0:
64,192,147568,1,0,0:0:0:0:
448,192,147568,1,0,0:0:0:0:
192,192,147803,1,0,0:0:0:0:
320,192,147803,1,0,0:0:0:0:
64,192,147920,1,0,0:0:0:0:
448,192,147920,1,0,0:0:0:0:
64,192,148154,1,0,0:0:0:0:
448,192,148154,1,0,0:0:0:0:
64,192,148623,1,0,0:0:0:0:
448,192,148623,1,0,0:0:0:0:
320,192,149092,1,0,0:0:0:0:
192,192,149092,1,0,0:0:0:0:
64,192,149326,1,0,0:0:0:0:
448,192,149326,1,0,0:0:0:0:
192,192,149443,1,0,0:0:0:0:
320,192,149443,1,0,0:0:0:0:
64,192,149678,1,0,0:0:0:0:
448,192,149678,1,0,0:0:0:0:
192,192,149795,1,0,0:0:0:0:
320,192,149795,1,0,0:0:0:0:
64,192,150029,128,0,153783:0:0:0:0:
448,192,150029,128,0,153783:0:0:0:0:
192,192,150264,1,0,0:0:0:0:
320,192,150498,1,0,0:0:0:0:
192,192,150732,1,0,0:0:0:0:
320,192,150967,1,0,0:0:0:0:
192,192,151201,1,0,0:0:0:0:
320,192,151318,1,0,0:0:0:0:
192,192,151553,1,0,0:0:0:0:
320,192,151553,1,0,0:0:0:0:
192,192,151670,1,0,0:0:0:0:
320,192,151670,1,0,0:0:0:0:
192,192,151904,1,0,0:0:0:0:
320,192,151904,1,0,0:0:0:0:
192,192,152373,1,0,0:0:0:0:
320,192,152373,1,0,0:0:0:0:
192,192,152842,1,0,0:0:0:0:
320,192,152842,1,0,0:0:0:0:
192,192,153076,1,0,0:0:0:0:
320,192,153076,1,0,0:0:0:0:
320,192,153193,1,0,0:0:0:0:
192,192,153193,1,0,0:0:0:0:
192,192,153428,1,0,0:0:0:0:
320,192,153428,1,0,0:0:0:0:
192,192,153545,1,0,0:0:0:0:
320,192,153545,1,0,0:0:0:0:
192,192,153779,128,0,157533:0:0:0:0:
320,192,153779,128,0,157533:0:0:0:0:
64,192,154248,1,0,0:0:0:0:
448,192,154248,1,0,0:0:0:0:
64,192,154717,1,0,0:0:0:0:
448,192,154717,1,0,0:0:0:0:
64,192,154951,1,0,0:0:0:0:
448,192,155068,1,0,0:0:0:0:
448,192,155303,1,0,0:0:0:0:
64,192,155420,1,0,0:0:0:0:
64,192,155654,1,0,0:0:0:0:
448,192,155654,1,0,0:0:0:0:
64,192,156123,1,0,0:0:0:0:
448,192,156123,1,0,0:0:0:0:
64,192,156592,1,0,0:0:0:0:
448,192,156592,1,0,0:0:0:0:
64,192,156826,1,0,0:0:0:0:
448,192,156826,1,0,0:0:0:0:
64,192,156943,1,0,0:0:0:0:
448,192,156943,1,0,0:0:0:0:
64,192,157178,1,0,0:0:0:0:
448,192,157178,1,0,0:0:0:0:
64,192,157295,1,0,0:0:0:0:
448,192,157295,1,0,0:0:0:0:
64,192,157529,128,0,159406:0:0:0:0:
448,192,157529,128,0,159406:0:0:0:0:
320,192,157764,1,0,0:0:0:0:
192,192,157998,1,0,0:0:0:0:
320,192,158232,1,0,0:0:0:0:
192,192,158467,1,0,0:0:0:0:
320,192,158701,1,0,0:0:0:0:
192,192,158818,1,0,0:0:0:0:
192,192,159053,1,0,0:0:0:0:
320,192,159170,1,0,0:0:0:0:
192,192,159404,128,0,161281:0:0:0:0:
320,192,159404,128,0,161281:0:0:0:0:
64,192,159639,1,0,0:0:0:0:
448,192,159873,1,0,0:0:0:0:
64,192,160108,1,0,0:0:0:0:
448,192,160342,1,0,0:0:0:0:
64,192,160576,1,0,0:0:0:0:
448,192,160693,1,0,0:0:0:0:
64,192,160928,1,0,0:0:0:0:
448,192,161045,1,0,0:0:0:0:
448,192,161279,128,0,163156:0:0:0:0:
64,192,161279,128,0,163156:0:0:0:0:
192,192,161748,1,0,0:0:0:0:
320,192,161748,1,0,0:0:0:0:
192,192,162217,1,0,0:0:0:0:
320,192,162217,1,0,0:0:0:0:
320,192,162686,1,0,0:0:0:0:
192,192,162686,1,0,0:0:0:0:
192,192,163154,128,0,164562:0:0:0:0:
320,192,163154,128,0,164562:0:0:0:0:
64,192,163623,1,0,0:0:0:0:
448,192,163623,1,0,0:0:0:0:
448,192,164092,1,0,0:0:0:0:
64,192,164092,1,0,0:0:0:0:
192,192,165030,1,0,0:0:0:0:
320,192,165264,1,0,0:0:0:0:
192,192,165498,1,0,0:0:0:0:
320,192,165733,1,0,0:0:0:0:
64,192,165967,1,0,0:0:0:0:
448,192,166201,1,0,0:0:0:0:
64,192,166436,1,0,0:0:0:0:
448,192,166670,1,0,0:0:0:0:
320,192,166905,1,0,0:0:0:0:
192,192,167139,1,0,0:0:0:0:
320,192,167373,1,0,0:0:0:0:
192,192,167608,1,0,0:0:0:0:
448,192,167842,1,0,0:0:0:0:
64,192,168077,1,0,0:0:0:0:
448,192,168311,1,0,0:0:0:0:
64,192,168545,1,0,0:0:0:0:
192,192,168780,1,0,0:0:0:0:
320,192,168780,1,0,0:0:0:0:
64,192,169014,1,0,0:0:0:0:
448,192,169014,1,0,0:0:0:0:
192,192,169248,1,0,0:0:0:0:
320,192,169248,1,0,0:0:0:0:
64,192,169483,1,0,0:0:0:0:
448,192,169483,1,0,0:0:0:0:
192,192,169717,1,0,0:0:0:0:
320,192,169717,1,0,0:0:0:0:
64,192,169952,1,0,0:0:0:0:
448,192,169952,1,0,0:0:0:0:
192,192,170186,1,0,0:0:0:0:
320,192,170186,1,0,0:0:0:0:
448,192,170420,1,0,0:0:0:0:
64,192,170420,1,0,0:0:0:0:
192,192,170655,1,0,0:0:0:0:
320,192,170889,1,0,0:0:0:0:
192,192,171123,1,0,0:0:0:0:
320,192,171358,1,0,0:0:0:0:
192,192,171592,1,0,0:0:0:0:
320,192,171827,1,0,0:0:0:0:
192,192,172061,1,0,0:0:0:0:
320,192,172295,1,0,0:0:0:0:
192,192,172530,1,0,0:0:0:0:
320,192,172647,1,0,0:0:0:0:
192,192,172764,1,0,0:0:0:0:
320,192,172881,1,0,0:0:0:0:
192,192,172999,1,0,0:0:0:0:
320,192,173116,1,0,0:0:0:0:
192,192,173233,1,0,0:0:0:0:
320,192,173350,1,0,0:0:0:0:
192,192,173467,1,0,0:0:0:0:
320,192,173584,1,0,0:0:0:0:
192,192,173702,1,0,0:0:0:0:
320,192,173819,1,0,0:0:0:0:
192,192,173936,1,0,0:0:0:0:
320,192,174053,1,0,0:0:0:0:
192,192,174170,1,0,0:0:0:0:
320,192,174288,1,0,0:0:0:0:
192,192,174405,1,0,0:0:0:0:
320,192,174522,1,0,0:0:0:0:
192,192,174639,1,0,0:0:0:0:
320,192,174756,1,0,0:0:0:0:
192,192,174874,1,0,0:0:0:0:
320,192,174991,1,0,0:0:0:0:
192,192,175108,1,0,0:0:0:0:
320,192,175225,1,0,0:0:0:0:
192,192,175342,1,0,0:0:0:0:
320,192,175460,1,0,0:0:0:0:
192,192,175577,1,0,0:0:0:0:
320,192,175694,1,0,0:0:0:0:
192,192,175811,1,0,0:0:0:0:
320,192,175928,1,0,0:0:0:0:
192,192,176045,1,0,0:0:0:0:
192,192,176280,128,0,179561:0:0:0:0:
320,192,176280,128,0,179561:0:0:0:0:
192,192,180030,1,0,0:0:0:0:
320,192,180030,1,0,0:0:0:0:
64,192,180499,1,0,0:0:0:0:
448,192,180499,1,0,0:0:0:0:
192,192,180968,1,0,0:0:0:0:
320,192,180968,1,0,0:0:0:0:
64,192,181319,1,0,0:0:0:0:
192,192,181319,1,0,0:0:0:0:
320,192,181553,1,0,0:0:0:0:
448,192,181553,1,0,0:0:0:0:
192,192,181671,1,0,0:0:0:0:
64,192,181905,1,0,0:0:0:0:
192,192,181905,1,0,0:0:0:0:
448,192,182139,1,0,0:0:0:0:
320,192,182139,1,0,0:0:0:0:
192,192,182374,1,0,0:0:0:0:
320,192,182374,1,0,0:0:0:0:
64,192,182843,1,0,0:0:0:0:
448,192,182843,1,0,0:0:0:0:
192,192,183194,1,0,0:0:0:0:
320,192,183429,1,0,0:0:0:0:
64,192,183546,1,0,0:0:0:0:
448,192,183780,1,0,0:0:0:0:
320,192,183780,1,0,0:0:0:0:
64,192,184249,1,0,0:0:0:0:
192,192,184249,1,0,0:0:0:0:
448,192,184718,1,0,0:0:0:0:
192,192,184718,1,0,0:0:0:0:
64,192,185069,1,0,0:0:0:0:
320,192,185069,1,0,0:0:0:0:
192,192,185304,1,0,0:0:0:0:
320,192,185421,1,0,0:0:0:0:
64,192,185655,1,0,0:0:0:0:
448,192,185655,1,0,0:0:0:0:
64,192,185890,1,0,0:0:0:0:
448,192,185890,1,0,0:0:0:0:
192,192,186124,1,0,0:0:0:0:
320,192,186124,1,0,0:0:0:0:
64,192,186241,1,0,0:0:0:0:
448,192,186241,1,0,0:0:0:0:
192,192,186593,1,0,0:0:0:0:
320,192,186593,1,0,0:0:0:0:
192,192,186827,1,0,0:0:0:0:
448,192,186827,1,0,0:0:0:0:
192,192,187061,1,0,0:0:0:0:
320,192,187061,1,0,0:0:0:0:
64,192,187296,1,0,0:0:0:0:
320,192,187296,1,0,0:0:0:0:
64,192,187530,128,0,191280:0:0:0:0:
448,192,187999,1,0,0:0:0:0:
192,192,188468,128,0,189405:0:0:0:0:
448,192,188819,1,0,0:0:0:0:
320,192,189054,1,0,0:0:0:0:
448,192,189171,1,0,0:0:0:0:
320,192,189640,1,0,0:0:0:0:
448,192,189874,1,0,0:0:0:0:
192,192,189874,128,0,191280:0:0:0:0:
320,192,190343,1,0,0:0:0:0:
448,192,190694,1,0,0:0:0:0:
320,192,190929,1,0,0:0:0:0:
448,192,191046,1,0,0:0:0:0:
192,192,191749,1,0,0:0:0:0:
320,192,191749,1,0,0:0:0:0:
320,192,192218,1,0,0:0:0:0:
192,192,192218,1,0,0:0:0:0:
64,192,192569,1,0,0:0:0:0:
448,192,192569,1,0,0:0:0:0:
320,192,192804,1,0,0:0:0:0:
192,192,192921,1,0,0:0:0:0:
64,192,193155,1,0,0:0:0:0:
448,192,193155,1,0,0:0:0:0:
192,192,193155,1,0,0:0:0:0:
64,192,193624,1,0,0:0:0:0:
448,192,193624,1,0,0:0:0:0:
320,192,193624,1,0,0:0:0:0:
64,192,194093,1,0,0:0:0:0:
448,192,194093,1,0,0:0:0:0:
192,192,194093,1,0,0:0:0:0:
64,192,194562,1,0,0:0:0:0:
448,192,194562,1,0,0:0:0:0:
320,192,194562,1,0,0:0:0:0:
64,192,195030,128,0,196671:0:0:0:0:
320,192,195030,128,0,195499:0:0:0:0:
320,192,195968,1,0,0:0:0:0:
448,192,196319,1,0,0:0:0:0:
448,192,196554,1,0,0:0:0:0:
448,192,196905,128,0,198546:0:0:0:0:
192,192,196905,128,0,197140:0:0:0:0:
64,192,197374,1,0,0:0:0:0:
192,192,197843,1,0,0:0:0:0:
320,192,197843,1,0,0:0:0:0:
64,192,198195,1,0,0:0:0:0:
320,192,198429,1,0,0:0:0:0:
192,192,198781,1,0,0:0:0:0:
320,192,198781,1,0,0:0:0:0:
192,192,199015,1,0,0:0:0:0:
320,192,199015,1,0,0:0:0:0:
64,192,199249,1,0,0:0:0:0:
448,192,199249,1,0,0:0:0:0:
64,192,199484,1,0,0:0:0:0:
448,192,199484,1,0,0:0:0:0:
192,192,199718,1,0,0:0:0:0:
320,192,199718,1,0,0:0:0:0:
64,192,200070,1,0,0:0:0:0:
192,192,200070,1,0,0:0:0:0:
320,192,200304,1,0,0:0:0:0:
448,192,200304,1,0,0:0:0:0:
192,192,200421,1,0,0:0:0:0:
320,192,200656,1,0,0:0:0:0:
448,192,200890,1,0,0:0:0:0:
320,192,201124,1,0,0:0:0:0:
192,192,201242,1,0,0:0:0:0:
320,192,201359,1,0,0:0:0:0:
192,192,201476,1,0,0:0:0:0:
64,192,201593,1,0,0:0:0:0:
192,192,201710,1,0,0:0:0:0:
64,192,201827,1,0,0:0:0:0:
192,192,201945,1,0,0:0:0:0:
64,192,202062,1,0,0:0:0:0:
192,192,202179,1,0,0:0:0:0:
320,192,202296,1,0,0:0:0:0:
448,192,202413,1,0,0:0:0:0:
64,192,202531,128,0,204406:0:0:0:0:
320,192,202531,1,0,0:0:0:0:
448,192,202999,1,0,0:0:0:0:
320,192,202999,128,0,203468:0:0:0:0:
192,192,203820,1,0,0:0:0:0:
448,192,204054,1,0,0:0:0:0:
320,192,204171,1,0,0:0:0:0:
448,192,204406,128,0,206281:0:0:0:0:
320,192,204640,128,0,206281:0:0:0:0:
192,192,204874,128,0,205343:0:0:0:0:
64,192,205695,1,0,0:0:0:0:
192,192,205929,1,0,0:0:0:0:
64,192,206046,1,0,0:0:0:0:
64,192,206281,128,0,208156:0:0:0:0:
320,192,206749,1,0,0:0:0:0:
448,192,206749,1,0,0:0:0:0:
192,192,207218,1,0,0:0:0:0:
448,192,207570,1,0,0:0:0:0:
192,192,207804,1,0,0:0:0:0:
320,192,207921,1,0,0:0:0:0:
448,192,208156,128,0,209562:0:0:0:0:
192,192,209093,128,0,209562:0:0:0:0:
320,192,209328,128,0,209562:0:0:0:0:
64,192,210031,1,0,0:0:0:0:
192,192,210265,1,0,0:0:0:0:
64,192,210500,1,0,0:0:0:0:
192,192,210734,1,0,0:0:0:0:
192,192,210968,1,0,0:0:0:0:
64,192,211320,1,0,0:0:0:0:
320,192,211554,1,0,0:0:0:0:
448,192,211671,1,0,0:0:0:0:
448,192,211906,1,0,0:0:0:0:
320,192,212140,1,0,0:0:0:0:
192,192,212375,1,0,0:0:0:0:
64,192,212843,1,0,0:0:0:0:
192,192,212843,1,0,0:0:0:0:
320,192,213195,1,0,0:0:0:0:
320,192,213429,1,0,0:0:0:0:
192,192,213547,1,0,0:0:0:0:
64,192,213781,128,0,215656:0:0:0:0:
448,192,214250,128,0,215656:0:0:0:0:
192,192,214718,1,0,0:0:0:0:
320,192,214718,1,0,0:0:0:0:
192,192,215070,1,0,0:0:0:0:
320,192,215304,1,0,0:0:0:0:
192,192,215422,1,0,0:0:0:0:
192,192,215656,128,0,215890:0:0:0:0:
320,192,215656,128,0,215890:0:0:0:0:
64,192,216125,1,0,0:0:0:0:
448,192,216242,1,0,0:0:0:0:
64,192,216594,128,0,217062:0:0:0:0:
192,192,216828,128,0,217062:0:0:0:0:
448,192,217297,1,0,0:0:0:0:
192,192,217531,128,0,219406:0:0:0:0:
448,192,217531,128,0,219406:0:0:0:0:
64,192,218000,1,0,0:0:0:0:
320,192,218000,1,0,0:0:0:0:
64,192,218469,1,0,0:0:0:0:
320,192,218469,1,0,0:0:0:0:
64,192,218820,1,0,0:0:0:0:
320,192,218820,1,0,0:0:0:0:
320,192,219055,1,0,0:0:0:0:
64,192,219172,1,0,0:0:0:0:
64,192,219406,128,0,219640:0:0:0:0:
320,192,219406,128,0,219640:0:0:0:0:
448,192,219875,1,0,0:0:0:0:
192,192,220344,128,0,220812:0:0:0:0:
448,192,220930,1,0,0:0:0:0:
64,192,221047,1,0,0:0:0:0:
192,192,221281,1,0,0:0:0:0:
320,192,221281,1,0,0:0:0:0:
64,192,221516,1,0,0:0:0:0:
448,192,221516,1,0,0:0:0:0:
192,192,221750,1,0,0:0:0:0:
320,192,221750,1,0,0:0:0:0:
64,192,221984,1,0,0:0:0:0:
448,192,221984,1,0,0:0:0:0:
192,192,222219,1,0,0:0:0:0:
320,192,222219,1,0,0:0:0:0:
64,192,222570,1,0,0:0:0:0:
448,192,222570,1,0,0:0:0:0:
192,192,222805,1,0,0:0:0:0:
320,192,222805,1,0,0:0:0:0:
64,192,222922,1,0,0:0:0:0:
448,192,222922,1,0,0:0:0:0:
192,192,223156,128,0,225031:0:0:0:0:
320,192,223156,128,0,225031:0:0:0:0:
64,192,223156,1,0,0:0:0:0:
448,192,223156,1,0,0:0:0:0:
64,192,223625,1,0,0:0:0:0:
448,192,223625,1,0,0:0:0:0:
64,192,224094,1,0,0:0:0:0:
448,192,224094,1,0,0:0:0:0:
64,192,224562,1,0,0:0:0:0:
448,192,224562,1,0,0:0:0:0:
64,192,225031,1,0,0:0:0:0:
448,192,225031,1,0,0:0:0:0:
