osu file format v14

[General]
AudioFilename: audio.mp3
AudioLeadIn: 0
PreviewTime: 148083
Countdown: 0
SampleSet: Soft
StackLeniency: 0.5
Mode: 0
LetterboxInBreaks: 0
EpilepsyWarning: 1
WidescreenStoryboard: 1

[Editor]
DistanceSpacing: 1.1
BeatDivisor: 4
GridSize: 32
TimelineZoom: 1.5

[Metadata]
Title:timecapsule
TitleUnicode:タイムカプセル
Artist:Laica
ArtistUnicode:Laica
Creator:HowRengar
Version:Whispers of Yesterday
Source:
Tags:Japanese Rock J-rock Jrock female vocals vocalist 収録内容 Shūroku Naiyō Shuuroku Naiyou 勿忘草と夏を待つ みすず やま tomoya ざき TSVNAKYO SOUND 春原染
BeatmapID:4342129
BeatmapSetID:2074414

[Difficulty]
HPDrainRate:6.5
CircleSize:4.4
OverallDifficulty:9
ApproachRate:9.2
SliderMultiplier:1.6
SliderTickRate:1

[Events]
//Background and Video events
0,0,"timecapsulebg.jpg",0,0
Video,0,"video.mp4"
//Break Periods
//Storyboard Layer 0 (Background)
//Storyboard Layer 1 (Fail)
//Storyboard Layer 2 (Pass)
//Storyboard Layer 3 (Foreground)
//Storyboard Layer 4 (Overlay)
//Storyboard Sound Samples

[TimingPoints]
1247,312.5,4,2,1,60,1,0
1247,-76.9230769230769,4,2,1,60,0,0
1637,-76.9230769230769,4,2,1,5,0,0
1715,-111.111111111111,4,2,1,60,0,0
2106,-111.111111111111,4,2,1,5,0,0
2184,-200,4,2,1,60,0,0
3122,-90.9090909090909,4,2,1,60,0,0
3747,-76.9230769230769,4,2,1,60,0,0
4137,-76.9230769230769,4,2,1,5,0,0
4215,-111.111111111111,4,2,1,60,0,0
4606,-111.111111111111,4,2,1,5,0,0
4684,-200,4,2,1,60,0,0
5622,-90.9090909090909,4,2,1,60,0,0
6247,-76.9230769230769,4,2,1,60,0,0
6637,-76.9230769230769,4,2,1,5,0,0
6715,-111.111111111111,4,2,1,60,0,0
7106,-111.111111111111,4,2,1,5,0,0
7184,-200,4,2,1,60,0,0
8747,-100,4,2,1,60,0,0
9137,-100,4,2,1,5,0,0
9215,-111.111111111111,4,2,1,60,0,0
9606,-111.111111111111,4,2,1,5,0,0
9684,-200,4,2,1,60,0,0
11090,-71.4285714285714,4,2,1,70,0,0
11325,-71.4285714285714,4,2,1,5,0,0
11403,-71.4285714285714,4,2,1,70,0,0
13825,-71.4285714285714,4,2,1,5,0,0
13903,-71.4285714285714,4,2,1,70,0,0
16325,-71.4285714285714,4,2,1,5,0,0
16403,-71.4285714285714,4,2,1,70,0,0
18825,-71.4285714285714,4,2,1,5,0,0
18903,-71.4285714285714,4,2,1,70,0,0
19840,-62.5,4,2,1,70,0,0
20075,-62.5,4,2,1,5,0,0
20153,-62.5,4,2,1,70,0,0
20504,-62.5,4,2,1,5,0,0
20622,-62.5,4,2,1,70,0,0
20817,-62.5,4,2,1,5,0,0
20934,-62.5,4,2,1,70,0,0
21090,-71.4285714285714,4,2,1,70,0,0
21325,-71.4285714285714,4,2,1,5,0,0
21399,-71.4285714285714,4,2,1,70,0,0
23825,-71.4285714285714,4,2,1,5,0,0
23903,-71.4285714285714,4,2,1,70,0,0
26325,-71.4285714285714,4,2,1,5,0,0
26403,-71.4285714285714,4,2,1,70,0,0
28825,-71.4285714285714,4,2,1,5,0,0
28903,-71.4285714285714,4,2,1,70,0,0
29840,-62.5,4,2,1,70,0,0
30075,-83.3333333333333,4,2,1,5,0,0
30153,-83.3333333333333,4,2,1,70,0,0
30387,-83.3333333333333,4,2,1,5,0,0
30465,-83.3333333333333,4,2,1,70,0,0
31247,-200,4,2,1,50,0,0
33747,-333.333333333333,4,2,1,50,0,0
38747,-250,4,2,1,50,0,0
40622,-111.111111111111,4,2,1,50,0,0
41247,-111.111111111111,4,2,1,55,0,0
41793,-111.111111111111,4,2,1,5,0,0
41872,-111.111111111111,4,2,1,55,0,0
42575,-111.111111111111,4,2,1,5,0,0
42654,-111.111111111111,4,2,1,55,0,0
44293,-111.111111111111,4,2,1,5,0,0
44372,-111.111111111111,4,2,1,55,0,0
45075,-111.111111111111,4,2,1,5,0,0
45154,-111.111111111111,4,2,1,55,0,0
46481,-111.111111111111,4,2,1,5,0,0
46559,-111.111111111111,4,2,1,55,0,0
47575,-111.111111111111,4,2,1,5,0,0
47654,-111.111111111111,4,2,1,55,0,0
49293,-111.111111111111,4,2,1,5,0,0
49372,-111.111111111111,4,2,1,55,0,0
50075,-111.111111111111,4,2,1,5,0,0
50154,-111.111111111111,4,2,1,55,0,0
51247,-83.3333333333333,4,2,1,60,0,0
52575,-83.3333333333333,4,2,1,5,0,0
52622,-83.3333333333333,4,2,1,60,0,0
55075,-83.3333333333333,4,2,1,5,0,0
55153,-83.3333333333333,4,2,1,60,0,0
56247,-111.111111111111,4,2,1,50,0,0
58434,-200,4,2,1,50,0,0
58747,-90.9090909090909,4,2,1,60,0,0
61247,-90.9090909090909,4,2,1,70,0,0
63122,-333.333333333333,4,2,1,70,0,0
63668,-333.333333333333,4,2,1,5,0,0
63747,-71.4285714285714,4,2,1,80,0,1
63981,-71.4285714285714,4,2,1,5,0,1
64059,-71.4285714285714,4,2,1,80,0,1
65543,-71.4285714285714,4,2,1,5,0,1
65621,-71.4285714285714,4,2,1,80,0,1
65934,-111.111111111111,4,2,1,80,0,1
66168,-71.4285714285714,4,2,1,5,0,1
66247,-71.4285714285714,4,2,1,80,0,1
66481,-71.4285714285714,4,2,1,5,0,1
66559,-71.4285714285714,4,2,1,80,0,1
68043,-71.4285714285714,4,2,1,5,0,1
68121,-71.4285714285714,4,2,1,80,0,1
68434,-111.111111111111,4,2,1,80,0,1
68668,-71.4285714285714,4,2,1,5,0,1
68747,-71.4285714285714,4,2,1,80,0,1
68981,-71.4285714285714,4,2,1,5,0,1
69059,-71.4285714285714,4,2,1,80,0,1
70543,-71.4285714285714,4,2,1,5,0,1
70621,-71.4285714285714,4,2,1,80,0,1
71715,-71.4285714285714,4,2,1,80,0,0
72184,-71.4285714285714,4,2,1,80,0,1
72653,-71.4285714285714,4,2,1,80,0,0
73122,-71.4285714285714,4,2,1,80,0,0
73200,-71.4285714285714,4,2,1,5,0,0
73278,-71.4285714285714,4,2,1,80,0,0
73747,-71.4285714285714,4,2,1,80,0,1
73981,-71.4285714285714,4,2,1,5,0,1
74059,-71.4285714285714,4,2,1,80,0,1
75543,-71.4285714285714,4,2,1,5,0,1
75621,-71.4285714285714,4,2,1,80,0,1
77575,-71.4285714285714,4,2,1,5,0,1
77653,-71.4285714285714,4,2,1,80,0,1
78434,-111.111111111111,4,2,1,80,0,1
78668,-111.111111111111,4,2,1,5,0,1
78747,-71.4285714285714,4,2,1,80,0,1
78981,-71.4285714285714,4,2,1,5,0,1
79059,-71.4285714285714,4,2,1,80,0,1
80543,-71.4285714285714,4,2,1,5,0,1
80621,-71.4285714285714,4,2,1,80,0,1
81715,-71.4285714285714,4,2,1,80,0,0
82184,-71.4285714285714,4,2,1,80,0,1
82653,-100,4,2,1,80,0,0
83590,-99.9999999999999,4,2,1,60,0,0
84293,-99.9999999999999,4,2,1,5,0,0
84372,-99.9999999999999,4,2,1,60,0,0
85543,-99.9999999999999,4,2,1,5,0,0
85622,-99.9999999999999,4,2,1,60,0,0
87575,-99.9999999999999,4,2,1,5,0,0
87653,-99.9999999999999,4,2,1,60,0,0
90543,-99.9999999999999,4,2,1,5,0,0
90622,-99.9999999999999,4,2,1,60,0,0
91481,-99.9999999999999,4,2,1,5,0,0
91559,-99.9999999999999,4,2,1,60,0,0
92575,-99.9999999999999,4,2,1,5,0,0
92653,-99.9999999999999,4,2,1,60,0,0
93278,-250,4,2,1,60,0,0
93512,-250,4,2,1,5,0,0
93590,-100,4,2,1,60,0,0
95075,-100,4,2,1,5,0,0
95153,-100,4,2,1,60,0,0
97575,-100,4,2,1,5,0,0
97653,-100,4,2,1,60,0,0
98747,-125,4,2,1,50,0,0
103122,-200,4,2,1,50,0,0
103668,-200,4,2,1,5,0,0
103747,-100,4,2,1,60,0,0
108747,-83.3333333333333,4,2,1,60,0,0
108981,-83.3333333333333,4,2,1,5,0,0
109059,-83.3333333333333,4,2,1,60,0,0
110075,-83.3333333333333,4,2,1,5,0,0
110153,-83.3333333333333,4,2,1,60,0,0
110543,-83.3333333333333,4,2,1,5,0,0
110622,-83.3333333333333,4,2,1,60,0,0
111247,-100,4,2,1,70,0,0
113981,-100,4,2,1,5,0,0
114059,-76.9230769230769,4,2,1,70,0,0
115622,-100,4,2,1,70,0,0
115856,-100,4,2,1,5,0,0
115934,-285.714285714284,4,2,1,70,0,0
116168,-133.333333333333,4,2,1,5,0,0
116247,-66.6666666666667,4,2,1,85,0,1
118981,-66.6666666666667,4,2,1,5,0,1
119059,-66.6666666666667,4,2,1,85,0,1
119293,-66.6666666666667,4,2,1,5,0,1
119372,-66.6666666666667,4,2,1,85,0,1
119762,-66.6666666666667,4,2,1,5,0,1
119840,-66.6666666666667,4,2,1,85,0,1
120700,-66.6666666666667,4,2,1,5,0,1
120778,-66.6666666666667,4,2,1,85,0,1
120856,-66.6666666666667,4,2,1,5,0,1
120934,-133.333333333333,4,2,1,85,0,1
121168,-133.333333333333,4,2,1,5,0,1
121247,-133.333333333333,4,2,1,85,0,1
121793,-66.6666666666667,4,2,1,5,0,1
121872,-66.6666666666667,4,2,1,85,0,1
122106,-66.6666666666667,4,2,1,5,0,1
122184,-44.4444444444445,4,2,1,85,0,1
122418,-44.4444444444445,4,2,1,5,0,1
122497,-41.6666666666667,4,2,1,85,0,1
122731,-66.6666666666667,4,2,1,5,0,1
122809,-66.6666666666667,4,2,1,85,0,1
122887,-66.6666666666667,4,2,1,5,0,1
122965,-66.6666666666667,4,2,1,85,0,1
123278,-133.333333333333,4,2,1,85,0,1
124215,-66.6666666666667,4,2,1,85,0,0
124684,-66.6666666666667,4,2,1,85,0,1
125153,-66.6666666666667,4,2,1,85,0,0
126247,-66.6666666666667,4,2,1,85,0,1
127575,-66.6666666666667,4,2,1,5,0,1
127653,-66.6666666666667,4,2,1,85,0,1
128981,-66.6666666666667,4,2,1,5,0,1
129059,-66.6666666666667,4,2,1,85,0,1
129293,-66.6666666666667,4,2,1,5,0,1
129372,-66.6666666666667,4,2,1,85,0,1
129450,-66.6666666666667,4,2,1,5,0,1
129528,-66.6666666666667,4,2,1,85,0,1
129762,-66.6666666666667,4,2,1,5,0,1
129840,-66.6666666666667,4,2,1,85,0,1
129918,-66.6666666666667,4,2,1,5,0,1
129996,-66.6666666666667,4,2,1,85,0,1
130075,-66.6666666666667,4,2,1,5,0,1
130153,-66.6666666666667,4,2,1,85,0,1
130231,-66.6666666666667,4,2,1,5,0,1
130309,-66.6666666666667,4,2,1,85,0,1
130387,-66.6666666666667,4,2,1,5,0,1
130465,-66.6666666666667,4,2,1,85,0,1
132731,-66.6666666666667,4,2,1,5,0,1
132809,-66.6666666666667,4,2,1,85,0,1
133512,-66.6666666666667,4,2,1,5,0,1
133590,-66.6666666666667,4,2,1,85,0,1
134997,-100,4,2,1,70,0,0
135934,-100,4,2,1,5,0,0
136247,-100,4,2,1,70,0,0
141247,-100,4,2,1,60,0,0
146247,-100,4,2,1,70,0,0
148122,-400,4,2,1,70,0,0
148668,-400,4,2,1,5,0,0
148747,-142.857142857143,4,2,1,70,0,0
151168,-142.857142857143,4,2,1,5,0,0
151247,-83.3333333333334,4,2,1,70,0,0
153122,-500,4,2,1,70,0,0
153668,-500,4,2,1,5,0,0
153747,-500,4,2,1,70,0,0
154059,-66.6666666666667,4,2,1,80,0,1
154293,-71.4285714285714,4,2,1,5,0,1
154372,-71.4285714285714,4,2,1,80,0,1
155075,-71.4285714285714,4,2,1,5,0,1
155153,-71.4285714285714,4,2,1,80,0,1
155543,-71.4285714285714,4,2,1,5,0,1
155621,-71.4285714285714,4,2,1,80,0,1
158981,-71.4285714285714,4,2,1,5,0,1
159059,-71.4285714285714,4,2,1,80,0,1
160543,-71.4285714285714,4,2,1,5,0,1
160621,-71.4285714285714,4,2,1,80,0,1
161168,-71.4285714285714,4,2,1,5,0,1
161246,-71.4285714285714,4,2,1,80,0,1
161950,-71.4285714285714,4,2,1,5,0,1
162028,-71.4285714285714,4,2,1,80,0,1
162575,-71.4285714285714,4,2,1,5,0,1
162653,-71.4285714285714,4,2,1,80,0,1
163043,-71.4285714285714,4,2,1,5,0,1
163121,-71.4285714285714,4,2,1,80,0,1
164293,-71.4285714285714,4,2,1,5,0,1
164371,-71.4285714285714,4,2,1,80,0,1
165543,-71.4285714285714,4,2,1,5,0,1
165621,-71.4285714285714,4,2,1,80,0,1
168747,-66.6666666666667,4,2,1,80,0,1
168981,-66.6666666666667,4,2,1,5,0,1
169059,-71.4285714285714,4,2,1,80,0,1
170075,-71.4285714285714,4,2,1,5,0,1
170153,-71.4285714285714,4,2,1,80,0,1
170543,-71.4285714285714,4,2,1,5,0,1
170622,-71.4285714285714,4,2,1,80,0,1
171168,-71.4285714285714,4,2,1,5,0,1
171246,-71.4285714285714,4,2,1,80,0,1
172575,-71.4285714285714,4,2,1,5,0,1
172653,-71.4285714285714,4,2,1,80,0,1
173668,-71.4285714285714,4,2,1,5,0,1
173747,-71.4285714285714,4,2,1,80,0,1
175075,-71.4285714285714,4,2,1,5,0,1
175153,-71.4285714285714,4,2,1,80,0,1
175543,-71.4285714285714,4,2,1,5,0,1
175621,-71.4285714285714,4,2,1,80,0,1
176715,-71.4285714285714,4,2,1,80,0,0
177184,-71.4285714285714,4,2,1,80,0,1
177653,-71.4285714285714,4,2,1,80,0,0
178200,-71.4285714285714,4,2,1,5,0,0
178278,-71.4285714285714,4,2,1,80,0,0
178512,-71.4285714285714,4,2,1,5,0,0
178590,-71.4285714285714,4,2,1,80,0,0
178747,-66.6666666666667,4,2,1,80,0,1
178981,-66.6666666666667,4,2,1,5,0,1
179059,-71.4285714285714,4,2,1,80,0,1
180075,-71.4285714285714,4,2,1,5,0,1
180153,-71.4285714285714,4,2,1,80,0,1
180543,-71.4285714285714,4,2,1,5,0,1
180622,-71.4285714285714,4,2,1,80,0,1
182575,-71.4285714285714,4,2,1,5,0,1
182653,-71.4285714285714,4,2,1,80,0,1
183668,-71.4285714285714,4,2,1,5,0,1
183747,-71.4285714285714,4,2,1,80,0,1
184293,-71.4285714285714,4,2,1,5,0,1
184371,-71.4285714285714,4,2,1,80,0,1
185231,-71.4285714285714,4,2,1,5,0,1
185309,-71.4285714285714,4,2,1,80,0,1
185543,-71.4285714285714,4,2,1,5,0,1
185621,-71.4285714285714,4,2,1,80,0,1
186715,-71.4285714285714,4,2,1,80,0,0
187184,-71.4285714285714,4,2,1,80,0,1
188590,-71.4285714285714,4,2,1,70,0,0
188825,-71.4285714285714,4,2,1,5,0,1
188903,-71.4285714285714,4,2,1,80,0,0
191325,-71.4285714285714,4,2,1,5,0,0
191403,-71.4285714285714,4,2,1,80,0,0
193590,-66.6666666666667,4,2,1,70,0,0
193825,-66.6666666666667,4,2,1,5,0,0
193903,-71.4285714285714,4,2,1,70,0,0
196090,-66.6666666666667,4,2,1,70,0,0
196325,-66.6666666666667,4,2,1,5,0,0
196403,-71.4285714285714,4,2,1,70,0,0
197575,-71.4285714285714,4,2,1,5,0,0
197653,-71.4285714285714,4,2,1,80,0,0
198590,-62.5,4,2,1,70,0,0
198825,-62.5,4,2,1,5,0,0
198903,-71.4285714285714,4,2,1,70,0,0
199840,-166.666666666667,4,2,1,70,0,0
200153,-166.666666666667,4,2,1,5,0,0

[Colours]
Combo1 : 198,102,102
Combo2 : 63,141,123
Combo3 : 175,218,205
Combo4 : 227,188,149
Combo5 : 219,139,128

[HitObjects]
48,157,934,5,8,0:3:0:0:
48,157,1247,2,0,P|124:226|121:123,1,259.999988098145,6|0,3:1|0:0,0:0:0:0:
74,72,1715,2,0,P|159:96|237:55,1,179.999994506836,6|0,3:2|0:0,0:0:0:0:
281,1,2184,2,0,B|261:68|324:80|309:153,1,160,6|0,3:2|0:0,0:0:0:0:
309,154,3122,5,0,1:0:0:0:
479,104,3278,1,0,1:0:0:0:
385,164,3434,5,8,0:3:0:0:
403,93,3590,1,8,0:3:0:0:
443,283,3747,6,0,P|494:193|393:214,1,259.999988098145,6|0,3:1|0:0,0:0:0:0:
372,280,4215,2,0,B|334:294|306:241|326:221|276:162|243:180,1,179.999994506836,6|0,3:2|0:0,0:0:0:0:
176,203,4684,2,0,P|209:275|230:352,1,160,6|0,3:2|0:0,0:0:0:0:
300,381,5465,5,0,3:0:0:0:
149,328,5622,1,0,1:0:0:0:
244,260,5778,5,0,3:0:0:0:
56,301,5934,1,0,1:0:0:0:
56,301,6247,6,0,B|-4:263|-14:193|34:143|34:143|23:181|46:213,1,259.999988098145,6|0,3:1|0:0,0:0:0:0:
110,243,6715,2,0,P|184:201|171:117,1,179.999994506836,6|0,3:2|0:0,0:0:0:0:
112,168,7184,2,0,P|186:196|258:230,1,160,6|0,3:2|0:0,0:0:0:0:
379,290,7965,5,0,1:0:0:0:
390,285,8043,1,0,1:0:0:0:
400,280,8122,1,0,1:0:0:0:
288,320,8278,1,8,0:3:0:0:
348,199,8434,1,4,0:3:0:0:
259,231,8590,1,4,0:3:0:0:
442,374,8747,6,0,P|501:298|473:206,1,200,6|0,3:1|0:0,0:0:0:0:
425,156,9215,2,0,B|395:189|348:199|348:199|394:212|420:253,1,179.999994506836,6|0,3:2|0:0,0:0:0:0:
372,308,9684,2,0,P|346:274|299:260,1,80,6|0,3:2|0:0,0:0:0:0:
312,260,10309,5,0,1:0:0:0:
331,265,10387,1,8,0:3:0:0:
348,276,10465,1,4,0:3:0:0:
362,290,10543,1,4,0:3:0:0:
371,307,10621,1,0,1:0:0:0:
454,81,10778,1,0,1:0:0:0:
454,81,11090,6,0,B|422:89|422:89|351:164|351:164|320:172,1,167.999994873047,6|0,3:1|0:0,0:0:0:0:
320,172,11403,1,2,3:2:0:0:
164,28,11559,2,0,L|272:56,1,111.999996582031,2|2,1:0|0:2,0:0:0:0:
168,250,11872,1,2,3:2:0:0:
221,152,12028,1,2,3:2:0:0:
343,297,12184,2,0,L|234:325,1,111.999996582031,0|2,1:0|3:2,0:0:0:0:
33,351,12497,5,2,0:2:0:0:
120,157,12653,1,2,3:2:0:0:
137,336,12809,1,0,1:0:0:0:
25,161,12965,5,2,0:2:0:0:
169,89,13122,1,2,3:2:0:0:
128,243,13278,2,0,L|19:271,1,111.999996582031,2|0,3:2|1:0,0:0:0:0:
46,20,13590,6,0,P|88:88|168:88,1,167.999994873047,6|0,3:2|0:0,0:0:0:0:
168,88,13903,1,2,3:2:0:0:
342,190,14059,5,0,1:0:0:0:
372,69,14215,1,2,3:2:0:0:
239,302,14372,5,2,1:2:0:0:
207,194,14528,1,2,3:2:0:0:
441,341,14684,2,0,P|403:302|349:293,1,111.999996582031,0|2,1:0|0:2,0:0:0:0:
493,99,14997,5,2,1:2:0:0:
342,190,15153,1,8,0:3:0:0:
372,69,15309,1,4,0:3:0:0:
418,145,15465,1,2,3:2:0:0:
243,138,15622,5,2,1:2:0:0:
512,0,15778,1,2,3:2:0:0:
261,244,16090,6,0,B|227:254|227:254|180:188|243:138,1,167.999994873047,6|0,3:1|0:0,0:0:0:0:
242,137,16403,1,2,3:2:0:0:
433,219,16559,2,0,B|418:272|418:272|421:274|421:274|405:331,1,111.999996582031,0|2,1:0|0:2,0:0:0:0:
341,174,16872,1,2,3:2:0:0:
260,243,17028,1,2,3:2:0:0:
291,25,17184,2,0,B|344:10|344:10|346:13|346:13|403:-2,1,111.999996582031,0|2,1:0|3:2,0:0:0:0:
91,74,17497,5,2,0:2:0:0:
247,111,17653,1,2,3:2:0:0:
12,195,17809,1,0,1:0:0:0:
174,267,17965,5,2,0:2:0:0:
130,157,18122,1,2,3:2:0:0:
130,157,18278,1,2,3:2:0:0:
291,321,18434,1,0,1:0:0:0:
102,384,18590,6,0,B|60:340|60:340|91:224,1,167.999994873047,6|0,3:2|0:0,0:0:0:0:
88,236,18903,1,2,3:2:0:0:
272,225,19059,5,2,1:0:0:0:
178,82,19215,1,2,3:2:0:0:
279,232,19372,5,2,1:0:0:0:
279,12,19528,1,2,3:2:0:0:
286,239,19684,5,2,1:0:0:0:
437,21,19840,2,0,B|456:12|467:-2|467:-2|454:30|467:60|467:60|473:64|473:64|494:99|463:139,1,192,6|0,3:2|0:0,0:0:0:0:
463,139,20153,1,2,1:2:0:0:
178,82,20309,1,2,1:2:0:0:
343,327,20465,6,0,L|397:306,1,32,2|0,3:2|0:0,0:0:0:0:
171,75,20778,6,0,L|141:86,1,32,6|0,3:2|0:0,0:0:0:0:
23,383,21090,6,0,B|-20:358|-23:307|13:278|13:278|25:294|48:299,1,167.999994873047,6|0,3:1|0:0,0:0:0:0:
48,299,21403,1,2,3:2:0:0:
198,173,21559,2,0,P|145:191|89:216,1,111.999996582031,0|2,1:0|0:2,0:0:0:0:
270,277,21872,1,2,3:2:0:0:
183,380,22028,1,2,3:2:0:0:
58,128,22184,2,0,P|109:105|162:87,1,111.999996582031,0|2,1:0|3:2,0:0:0:0:
405,106,22497,5,2,0:2:0:0:
277,0,22653,1,2,3:2:0:0:
310,234,22809,1,0,1:0:0:0:
405,106,22965,5,2,0:2:0:0:
233,158,23122,1,2,3:2:0:0:
386,307,23278,2,0,P|439:283|496:265,1,111.999996582031,2|0,3:2|1:0,0:0:0:0:
503,0,23590,6,0,B|473:21|487:73|487:73|482:75|482:75|503:127|465:160,1,167.999994873047,6|0,3:2|0:0,0:0:0:0:
472,152,23903,1,2,3:2:0:0:
331,65,24059,5,0,1:0:0:0:
364,217,24215,1,2,3:2:0:0:
207,0,24372,5,2,1:2:0:0:
171,187,24528,1,2,3:2:0:0:
5,32,24684,2,0,P|53:8|106:23,1,111.999996582031,0|2,1:0|0:2,0:0:0:0:
269,157,24997,5,2,1:2:0:0:
62,98,25153,1,8,0:3:0:0:
80,224,25309,1,4,0:3:0:0:
171,187,25465,1,2,3:2:0:0:
167,170,25543,1,0,3:0:0:0:
163,153,25622,1,2,1:2:0:0:
69,227,25778,1,2,3:2:0:0:
259,294,25934,1,0,1:0:0:0:
27,370,26090,6,0,P|6:293|58:231,1,167.999994873047,6|0,3:1|0:0,0:0:0:0:
132,273,26403,1,2,3:2:0:0:
132,273,26481,1,0,3:0:0:0:
132,273,26559,2,0,P|151:325|164:379,1,111.999996582031,0|2,1:0|0:2,0:0:0:0:
288,157,26872,1,2,3:2:0:0:
405,274,27028,1,2,3:2:0:0:
294,378,27184,2,0,P|280:323|261:270,1,111.999996582031,0|2,1:2|3:2,0:0:0:0:
148,69,27497,5,2,0:2:0:0:
288,157,27653,1,2,3:2:0:0:
65,71,27809,1,0,1:0:0:0:
285,7,27965,5,2,0:2:0:0:
220,110,28122,1,2,3:2:0:0:
105,0,28278,1,2,3:2:0:0:
0,224,28434,1,0,1:0:0:0:
189,180,28590,6,0,B|110:164|110:164|103:165|103:165|24:147,1,167.999994873047,6|0,3:1|0:0,0:0:0:0:
25,148,28903,1,2,3:2:0:0:
332,157,29059,5,2,1:2:0:0:
189,180,29215,1,2,3:2:0:0:
339,164,29372,5,2,1:2:0:0:
140,75,29528,1,2,3:2:0:0:
346,171,29684,5,2,1:2:0:0:
265,0,29840,6,0,B|238:24|235:61|235:61|236:54|236:54|266:74|272:108|272:108|253:132|258:168,1,192,6|0,3:2|0:0,0:0:0:0:
256,152,30153,1,2,1:2:0:0:
384,34,30309,2,0,L|328:46,1,47.9999985351563,2|0,3:2|0:0,0:0:0:0:
163,170,30465,1,2,1:2:0:0:
176,175,30543,1,0,1:0:0:0:
189,180,30622,1,2,1:2:0:0:
296,227,30778,5,8,0:3:0:0:
231,295,30934,1,4,0:3:0:0:
274,331,31090,1,0,3:0:0:0:
259,353,31247,6,0,B|210:384|172:385|133:362|110:325|93:297|62:281|22:278|-9:289|-34:311|-50:351|-40:400|2:423|54:420|90:391|109:345|110:296|115:264|140:240,1,560,6|2,3:1|0:2,0:0:0:0:
188,173,33747,2,0,P|178:134|165:96,2,71.9999978027344,2|2|2,0:2|0:2|0:2,0:0:0:0:
427,269,36247,6,0,L|502:279,2,71.9999978027344,2|2|2,0:2|0:2|0:2,0:0:0:0:
380,144,38747,2,0,B|365:122|374:96|374:96|401:88|416:64,2,96,2|2|2,0:2|0:2|0:2,0:0:0:0:
380,144,40622,5,0,1:0:0:0:
245,0,40778,1,0,1:0:0:0:
317,33,40934,1,8,0:3:0:0:
307,111,41090,1,8,0:3:0:0:
232,128,41247,5,6,3:2:0:0:
232,128,41403,1,0,3:0:0:0:
87,84,41559,2,0,P|139:70|191:58,1,107.999996704102,2|0,1:2|0:0,0:0:0:0:
191,58,41872,1,0,3:0:0:0:
145,153,42028,2,0,P|132:186|122:221,1,71.9999978027344,2|2,3:2|0:2,0:0:0:0:
0,363,42340,6,0,P|0:310|39:276,1,107.999996704102,0|0,1:0|0:0,0:0:0:0:
38,276,42653,1,0,3:0:0:0:
151,337,42809,2,0,P|114:342|80:348,1,71.9999978027344,2|0,1:2|0:0,0:0:0:0:
230,384,43122,1,2,3:2:0:0:
230,384,43278,1,0,3:0:0:0:
304,244,43434,1,2,1:2:0:0:
215,215,43590,5,0,1:0:0:0:
210,220,43668,1,0,1:0:0:0:
204,225,43747,2,0,P|211:260|221:294,1,71.9999978027344,2|0,3:2|3:0,0:0:0:0:
398,224,44059,2,0,P|374:176|326:152,1,107.999996704102,2|0,1:2|0:0,0:0:0:0:
326,152,44372,1,0,3:0:0:0:
369,307,44528,2,0,P|404:312|439:322,1,71.9999978027344,2|2,3:2|0:2,0:0:0:0:
512,119,44840,6,0,P|463:133|407:146,1,107.999996704102,0|0,1:0|0:0,0:0:0:0:
407,146,45153,1,0,3:0:0:0:
293,10,45309,2,0,P|293:45|313:74,1,71.9999978027344,0|0,1:0|0:0,0:0:0:0:
384,21,45622,1,2,3:2:0:0:
384,21,45778,1,2,3:2:0:0:
247,135,45934,1,0,1:0:0:0:
197,24,46090,5,0,1:0:0:0:
197,24,46168,1,0,1:0:0:0:
197,24,46247,2,0,P|145:42|93:53,1,107.999996704102,0|0,3:0|0:0,0:0:0:0:
26,23,46559,2,0,P|18:57|30:91,1,71.9999978027344,2|0,1:2|0:0,0:0:0:0:
97,210,46872,1,2,3:2:0:0:
167,144,47028,2,0,P|131:137|96:130,1,71.9999978027344,0|2,3:0|0:2,0:0:0:0:
0,246,47340,6,0,P|50:230|99:257,1,107.999996704102,0|0,1:0|0:0,0:0:0:0:
96,254,47653,1,0,3:0:0:0:
60,382,47809,2,0,P|54:347|45:311,1,71.9999978027344,2|0,1:2|0:0,0:0:0:0:
163,208,48122,1,2,3:2:0:0:
176,289,48278,1,0,3:0:0:0:
84,174,48434,1,2,1:2:0:0:
228,152,48590,5,0,1:0:0:0:
232,156,48668,1,0,1:0:0:0:
237,159,48747,2,0,P|273:152|308:144,1,71.9999978027344,2|0,3:2|3:0,0:0:0:0:
457,206,49059,2,0,P|404:216|351:228,1,107.999996704102,0|0,1:0|0:0,0:0:0:0:
351,228,49372,1,0,3:0:0:0:
286,325,49528,2,0,P|276:290|264:256,1,71.9999978027344,0|2,3:0|0:2,0:0:0:0:
460,384,49840,6,0,P|438:336|388:320,1,107.999996704102,0|0,1:0|0:0,0:0:0:0:
388,320,50153,1,0,3:0:0:0:
502,182,50309,2,0,P|490:216|480:250,1,71.9999978027344,2|0,1:2|0:0,0:0:0:0:
295,85,50622,5,0,1:0:0:0:
400,135,50778,1,8,0:3:0:0:
380,52,50934,1,4,0:3:0:0:
380,52,51090,1,0,3:0:0:0:
299,218,51247,5,6,3:1:0:0:
167,25,51403,1,0,3:0:0:0:
299,218,51559,1,0,1:0:0:0:
97,191,51715,5,0,3:0:0:0:
456,10,52028,1,0,3:0:0:0:
415,357,52340,6,0,B|445:317|424:263|390:254|390:254|382:273|374:282,1,143.999995605469,6|0,3:2|0:0,0:0:0:0:
380,272,52622,1,0,3:0:0:0:
233,320,52809,2,0,P|280:328|325:343,1,95.9999970703126,0|0,1:0|0:0,0:0:0:0:
102,262,53122,5,0,3:0:0:0:
151,329,53278,1,2,3:2:0:0:
168,212,53434,1,2,1:2:0:0:
92,379,53590,1,2,3:2:0:0:
0,230,53747,5,6,1:2:0:0:
226,143,53903,1,0,3:0:0:0:
0,230,54059,1,2,3:2:0:0:
254,280,54215,6,0,P|298:261|345:247,1,95.9999970703126,2|0,1:2|3:0,0:0:0:0:
72,90,54528,1,0,1:0:0:0:
487,12,54840,6,0,P|507:78|464:137,1,143.999995605469,6|0,3:2|0:0,0:0:0:0:
467,134,55153,1,0,3:0:0:0:
332,50,55309,2,0,P|379:56|426:66,1,95.9999970703126,0|2,1:0|0:2,0:0:0:0:
274,129,55622,5,2,1:2:0:0:
219,35,55778,1,8,0:3:0:0:
174,109,55934,1,4,0:3:0:0:
202,154,56090,1,2,3:2:0:0:
189,164,56247,1,2,0:2:0:0:
256,192,56325,12,0,58278,0:0:0:0:
299,146,58434,6,0,L|366:165,1,60,2|0,0:2|0:0,0:0:0:0:
412,220,58747,6,0,L|448:71,1,132.00000402832,4|0,1:2|0:0,0:0:0:0:
443,91,59059,1,0,1:0:0:0:
502,173,59215,1,0,1:0:0:0:
334,81,59372,5,2,1:2:0:0:
390,16,59528,1,0,1:0:0:0:
356,162,59684,1,2,1:2:0:0:
245,63,59840,1,0,1:0:0:0:
190,273,59997,5,2,1:2:0:0:
417,222,60153,1,0,1:0:0:0:
176,118,60309,1,2,1:2:0:0:
316,7,60465,1,0,1:0:0:0:
253,196,60622,5,2,1:2:0:0:
106,35,60778,1,0,1:0:0:0:
15,243,60934,1,2,1:2:0:0:
197,280,61090,5,0,3:0:0:0:
197,280,61168,1,0,3:0:0:0:
197,280,61247,1,6,1:1:0:0:
70,141,61403,1,0,3:0:0:0:
70,141,61559,1,0,3:0:0:0:
402,143,61715,5,6,1:2:0:0:
218,183,61871,1,0,3:0:0:0:
218,183,62027,1,0,3:0:0:0:
450,9,62184,5,2,1:0:0:0:
360,280,62340,1,4,3:2:0:0:
360,280,62653,5,4,1:3:0:0:
82,179,62809,1,4,1:3:0:0:
497,94,62965,1,4,1:3:0:0:
304,42,63122,6,0,L|331:128,1,83.9999974365235,2|0,0:2|0:0,0:0:0:0:
334,0,63747,6,0,L|298:164,1,167.999994873047,6|0,3:1|0:0,0:0:0:0:
278,234,64059,2,0,P|231:263|176:257,1,111.999996582031,0|0,1:0|0:0,0:0:0:0:
10,158,64372,1,0,3:0:0:0:
224,60,64528,1,0,3:0:0:0:
88,0,64684,2,0,P|101:54|111:109,1,111.999996582031,2|0,1:2|3:0,0:0:0:0:
0,344,64997,6,0,P|46:314|101:320,1,111.999996582031,2|0,0:2|3:0,0:0:0:0:
329,255,65309,2,0,P|245:244|162:230,1,167.999994873047,2|0,1:2|0:0,0:0:0:0:
162,230,65622,1,2,3:2:0:0:
265,384,65778,1,0,3:0:0:0:
395,130,65934,2,0,B|430:103|470:128|470:128|437:152,1,107.999996704102,2|0,1:2|0:0,0:0:0:0:
405,209,66247,6,0,B|390:172|429:127|446:150|485:102|462:59,1,167.999994873047,4|0,3:2|0:0,0:0:0:0:
417,6,66559,2,0,P|362:1|320:36,1,111.999996582031,0|0,1:0|0:0,0:0:0:0:
257,211,66872,1,0,3:0:0:0:
129,25,67028,1,0,3:0:0:0:
82,158,67184,2,0,P|134:138|188:124,1,111.999996582031,2|0,1:2|3:0,0:0:0:0:
431,315,67497,6,0,P|375:316|331:283,1,111.999996582031,2|0,0:2|3:0,0:0:0:0:
441,51,67809,2,0,P|423:133|402:214,1,167.999994873047,2|0,1:2|0:0,0:0:0:0:
402,214,68122,1,2,3:2:0:0:
512,148,68278,1,0,3:0:0:0:
316,55,68434,2,0,B|303:14|338:-2|338:-2|349:16|338:34,1,107.999996704102,2|0,1:2|0:0,0:0:0:0:
320,105,68747,6,0,P|238:120|156:140,1,167.999994873047,4|0,3:2|0:0,0:0:0:0:
133,206,69059,2,0,P|92:171|90:117,1,111.999996582031,0|0,1:0|0:0,0:0:0:0:
177,0,69372,1,0,3:0:0:0:
0,78,69528,1,0,3:0:0:0:
220,231,69684,2,0,P|275:217|330:206,1,111.999996582031,2|0,1:2|3:0,0:0:0:0:
37,380,69997,6,0,P|1:338|9:284,1,111.999996582031,2|0,0:2|3:0,0:0:0:0:
220,131,70309,2,0,B|252:163|247:201|220:230|220:230|189:222|185:191,1,167.999994873047,2|0,1:2|0:0,0:0:0:0:
184,190,70622,1,2,3:2:0:0:
269,321,70778,1,0,3:0:0:0:
363,135,70934,1,2,1:2:0:0:
229,120,71090,1,0,3:0:0:0:
397,270,71247,5,0,1:2:0:0:
329,0,71403,1,0,3:0:0:0:
397,270,71559,1,0,3:0:0:0:
329,0,71715,1,0,1:0:0:0:
95,105,72184,5,6,1:2:0:0:
27,375,72340,1,0,3:0:0:0:
95,105,72496,1,2,3:2:0:0:
27,375,72652,1,0,1:0:0:0:
392,231,73122,6,0,P|394:203|400:175,1,55.9999982910157,8|0,0:3|0:0,0:0:0:0:
454,336,73278,5,0,1:0:0:0:
461,343,73356,1,0,1:0:0:0:
468,350,73434,2,0,P|490:366|512:384,1,55.9999982910157,2|0,1:2|0:0,0:0:0:0:
330,338,73590,5,0,1:0:0:0:
323,345,73668,1,0,1:0:0:0:
316,352,73747,2,0,P|236:379|153:384,1,167.999994873047,6|0,3:1|0:0,0:0:0:0:
85,359,74059,2,0,P|63:299|82:252,1,111.999996582031,0|0,1:0|0:0,0:0:0:0:
298,165,74372,1,0,3:0:0:0:
153,303,74528,1,0,3:0:0:0:
57,117,74684,2,0,P|111:129|166:139,1,111.999996582031,2|0,1:2|3:0,0:0:0:0:
445,23,74997,6,0,P|392:9|344:35,1,111.999996582031,2|0,0:2|3:0,0:0:0:0:
377,242,75309,2,0,B|421:220|421:220|412:161|404:94,1,167.999994873047,2|0,1:2|0:0,0:0:0:0:
404,102,75622,1,2,3:2:0:0:
216,220,75778,1,0,3:0:0:0:
240,0,75934,2,0,P|249:55|257:110,1,111.999996582031,2|0,1:2|0:0,0:0:0:0:
34,368,76247,6,0,B|-14:334|-23:274|25:229|25:229|66:234|81:274,1,223.999993164063,6|0,3:2|1:0,0:0:0:0:
237,312,76715,2,0,P|182:325|129:342,1,111.999996582031,2|0,0:2|3:0,0:0:0:0:
34,368,77028,1,0,3:0:0:0:
182,228,77184,1,0,1:0:0:0:
336,384,77340,6,0,B|378:363|392:313|355:285|355:285|348:309|329:322,1,167.999994873047,0|0,3:0|0:0,0:0:0:0:
329,321,77653,1,0,3:0:0:0:
242,126,77809,2,0,P|260:178|275:232,1,111.999996582031,0|0,1:0|0:0,0:0:0:0:
451,375,78122,1,0,3:0:0:0:
237,312,78278,1,0,3:0:0:0:
476,171,78434,2,0,B|491:155|491:155|514:182|508:212|478:233,1,107.999996704102,2|0,1:2|0:0,0:0:0:0:
410,245,78747,6,0,P|386:164|360:84,1,167.999994873047,2|0,3:2|0:0,0:0:0:0:
403,20,79059,2,0,P|454:8|486:50,1,111.999996582031,0|0,1:0|0:0,0:0:0:0:
310,171,79372,1,2,3:2:0:0:
203,14,79528,1,0,3:0:0:0:
158,287,79684,2,0,P|210:267|264:253,1,111.999996582031,2|0,1:2|3:0,0:0:0:0:
106,44,79997,6,0,P|51:30|0:10,1,111.999996582031,2|0,0:2|3:0,0:0:0:0:
0,302,80309,2,0,P|48:365|128:355,1,167.999994873047,2|0,1:2|0:0,0:0:0:0:
158,287,80622,2,0,P|148:231|138:176,1,111.999996582031,2|0,3:2|3:0,0:0:0:0:
0,11,80934,1,2,1:2:0:0:
200,70,81090,1,0,3:0:0:0:
8,216,81247,5,0,1:0:0:0:
268,136,81403,1,0,3:0:0:0:
8,216,81559,1,2,3:2:0:0:
268,136,81715,1,0,1:0:0:0:
418,367,82184,5,4,1:2:0:0:
158,287,82340,1,0,3:0:0:0:
418,367,82496,1,0,3:0:0:0:
158,287,82652,1,0,1:0:0:0:
389,53,82965,5,0,1:0:0:0:
385,64,83043,1,0,1:0:0:0:
381,75,83122,1,0,1:0:0:0:
302,66,83278,1,8,0:3:0:0:
269,138,83434,1,4,0:3:0:0:
327,191,83590,6,0,P|390:158|474:126,1,160,6|0,3:2|3:0,0:0:0:0:
344,274,84059,2,0,P|302:223|250:222,1,120,2|0,1:2|0:0,0:0:0:0:
251,221,84372,1,2,3:2:0:0:
264,304,84528,1,0,3:0:0:0:
424,242,84684,1,2,1:2:0:0:
416,327,84840,6,0,P|383:342|342:365,1,80,2|0,3:2|0:0,0:0:0:0:
210,384,85153,1,2,3:2:0:0:
255,225,85309,2,0,P|241:166|225:108,1,120,0|0,1:0|0:0,0:0:0:0:
224,108,85622,1,0,3:0:0:0:
145,140,85778,1,0,3:0:0:0:
141,6,85934,1,2,1:2:0:0:
223,27,86090,1,0,3:0:0:0:
145,140,86247,6,0,P|139:175|135:219,1,80,2|0,0:2|3:0,0:0:0:0:
91,75,86559,1,2,1:2:0:0:
91,75,86872,1,2,3:2:0:0:
37,10,87028,1,0,3:0:0:0:
145,140,87184,1,2,1:2:0:0:
11,224,87340,6,0,P|-9:170|23:123,1,120,2|0,3:2|0:0,0:0:0:0:
23,123,87653,1,2,3:2:0:0:
95,215,87809,2,0,P|103:254|109:293,1,80,0|2,1:0|0:2,0:0:0:0:
119,384,88122,1,2,3:2:0:0:
34,347,88278,1,2,3:2:0:0:
184,239,88434,1,0,1:0:0:0:
193,331,88590,6,0,P|121:297|46:270,1,160,6|0,3:2|3:0,0:0:0:0:
205,161,89059,2,0,P|252:195|264:252,1,120,2|2,1:2|0:2,0:0:0:0:
264,252,89372,1,2,3:2:0:0:
184,239,89528,1,0,3:0:0:0:
330,146,89684,1,2,1:2:0:0:
376,241,89840,6,0,P|363:279|354:318,1,80,2|0,3:2|0:0,0:0:0:0:
459,231,90153,1,2,3:2:0:0:
442,365,90309,2,0,P|455:306|473:249,1,120,0|0,1:0|0:0,0:0:0:0:
473,249,90622,1,2,3:2:0:0:
330,146,90778,1,2,3:2:0:0:
512,63,90934,1,0,1:0:0:0:
420,107,91090,1,0,3:0:0:0:
309,4,91247,6,0,P|369:9|428:17,1,120,0|0,3:0|0:0,0:0:0:0:
429,18,91559,1,2,1:2:0:0:
330,146,91715,1,2,0:2:0:0:
245,89,91872,2,0,P|234:50|220:13,1,80,2|0,3:2|3:0,0:0:0:0:
96,212,92184,1,2,1:2:0:0:
0,93,92340,6,0,P|33:60|107:76,1,120,2|0,3:2|0:0,0:0:0:0:
100,70,92653,1,2,3:2:0:0:
6,181,92809,5,2,1:2:0:0:
182,241,92965,1,2,3:2:0:0:
9,345,93122,5,0,1:0:0:0:
194,236,93278,2,0,L|207:184,1,48,2|0,3:2|0:0,0:0:0:0:
202,100,93590,6,0,P|232:169|308:170,1,160,6|0,3:2|3:0,0:0:0:0:
373,33,94059,2,0,P|335:46|297:59,1,80,2|2,1:2|0:2,0:0:0:0:
483,164,94372,1,2,3:2:0:0:
483,164,94528,1,0,3:0:0:0:
512,24,94684,1,2,1:2:0:0:
379,122,94840,6,0,P|396:179|408:238,1,120,2|0,3:2|0:0,0:0:0:0:
408,238,95153,1,2,3:2:0:0:
206,189,95309,1,2,1:2:0:0:
206,189,95622,1,0,3:0:0:0:
289,278,95778,1,0,3:0:0:0:
236,79,95934,1,0,1:0:0:0:
319,182,96090,5,0,3:0:0:0:
318,182,96247,2,0,P|279:192|240:199,1,80,0|0,0:0|3:0,0:0:0:0:
46,162,96559,1,2,1:2:0:0:
134,117,96715,1,2,0:2:0:0:
152,249,96872,2,0,P|157:288|161:328,1,80,2|0,3:2|3:0,0:0:0:0:
46,162,97184,1,2,1:2:0:0:
0,346,97340,6,0,P|18:287|84:278,1,120,2|0,3:2|0:0,0:0:0:0:
69,273,97653,1,2,3:2:0:0:
234,384,97809,2,0,P|270:368|309:356,1,80,0|2,1:0|0:2,0:0:0:0:
388,171,98122,1,0,3:0:0:0:
281,235,98278,1,0,3:0:0:0:
433,367,98434,1,2,1:2:0:0:
129,103,98747,5,4,3:2:0:0:
256,192,98825,12,0,101247,0:0:0:0:
89,102,103122,6,0,P|49:128|83:95,1,140,2|0,0:2|0:0,0:0:0:0:
89,102,103747,6,0,L|120:217,1,120,6|0,1:2|0:0,0:0:0:0:
141,285,104059,6,0,L|189:271,3,40,0|0|0|0,1:0|1:0|1:0|1:0,0:0:0:0:
226,180,104372,5,2,1:0:0:0:
232,170,104450,1,0,1:0:0:0:
238,160,104528,2,0,L|276:171,1,40,0|0,1:0|1:0,0:0:0:0:
304,262,104684,5,2,1:0:0:0:
310,272,104762,1,0,1:0:0:0:
316,282,104840,2,0,L|354:270,1,40,0|0,1:0|1:0,0:0:0:0:
512,139,104997,5,2,1:0:0:0:
485,108,105075,1,0,1:0:0:0:
446,97,105153,1,0,1:0:0:0:
408,109,105231,1,0,1:0:0:0:
385,153,105309,5,2,1:0:0:0:
397,173,105387,1,0,1:0:0:0:
409,193,105465,1,0,1:0:0:0:
420,213,105543,1,0,1:0:0:0:
450,234,105622,5,2,1:0:0:0:
447,249,105700,1,0,1:0:0:0:
444,264,105778,1,0,1:0:0:0:
441,279,105856,1,0,1:0:0:0:
428,306,105934,2,0,L|418:357,3,40,2|0|0|0,1:0|1:0|1:0|1:0,0:0:0:0:
241,374,106247,5,6,1:2:0:0:
215,354,106325,1,0,1:0:0:0:
199,326,106403,1,0,1:0:0:0:
196,294,106481,1,0,1:0:0:0:
207,264,106559,1,0,1:0:0:0:
228,240,106637,1,0,1:0:0:0:
257,227,106715,2,0,P|267:243|276:261,1,40,2|0,1:0|1:0,0:0:0:0:
343,317,106872,6,0,P|332:333|323:351,3,40,0|0|0|0,1:0|1:0|1:0|1:0,0:0:0:0:
127,384,107184,2,0,P|118:366|107:349,3,40,0|0|0|0,1:0|1:0|1:0|1:0,0:0:0:0:
11,222,107497,5,0,1:0:0:0:
33,250,107575,1,0,1:0:0:0:
66,262,107653,1,0,1:0:0:0:
101,259,107731,1,0,1:0:0:0:
133,243,107809,1,0,1:0:0:0:
153,213,107887,1,0,1:0:0:0:
160,177,107965,1,0,1:0:0:0:
150,142,108043,1,0,1:0:0:0:
121,119,108122,5,2,1:0:0:0:
101,119,108200,1,0,1:0:0:0:
86,125,108278,1,0,1:0:0:0:
77,133,108356,1,0,1:0:0:0:
74,144,108434,1,0,1:0:0:0:
75,155,108512,1,0,1:0:0:0:
79,165,108590,1,0,1:0:0:0:
88,172,108668,1,0,1:0:0:0:
99,174,108747,6,0,P|112:115|138:32,1,143.999995605469,6|0,3:1|0:0,0:0:0:0:
136,35,109059,2,0,P|100:6|54:14,1,95.9999970703126,0|0,1:0|0:0,0:0:0:0:
236,134,109372,1,2,3:2:0:0:
236,134,109528,2,0,P|282:123|329:114,1,95.9999970703126,0|2,3:0|0:2,0:0:0:0:
506,11,109840,6,0,B|464:-1|464:-1|452:60|443:97,1,143.999995605469,0|0,1:0|0:0,0:0:0:0:
443,97,110153,1,0,3:0:0:0:
512,264,110309,2,0,P|477:203|408:199,1,143.999995605469,2|0,1:2|0:0,0:0:0:0:
408,199,110622,1,2,3:2:0:0:
512,345,110778,1,0,3:0:0:0:
268,269,110934,1,2,1:2:0:0:
367,384,111090,5,0,3:0:0:0:
367,384,111168,1,0,3:0:0:0:
367,384,111247,1,6,1:1:0:0:
391,287,111403,1,0,3:0:0:0:
391,287,111559,1,0,3:0:0:0:
148,236,111715,5,6,1:2:0:0:
172,333,111871,1,0,3:0:0:0:
172,333,112027,1,0,3:0:0:0:
417,176,112184,5,4,1:2:0:0:
284,204,112340,1,0,3:0:0:0:
284,204,112497,1,0,3:0:0:0:
53,63,112653,5,4,1:2:0:0:
195,92,112809,1,0,3:0:0:0:
195,92,112966,1,0,3:0:0:0:
74,316,113122,5,4,1:2:0:0:
63,186,113278,1,0,3:0:0:0:
242,378,113434,1,6,1:2:0:0:
189,245,113590,1,0,3:0:0:0:
183,250,113668,1,0,3:0:0:0:
179,257,113747,2,0,P|237:274|294:287,1,120,6|0,1:1|0:0,0:0:0:0:
295,287,114059,5,0,1:0:0:0:
373,151,114215,1,2,1:2:0:0:
430,364,114372,1,0,1:0:0:0:
295,287,114528,1,0,1:0:0:0:
508,228,114684,1,2,1:2:0:0:
236,74,114840,1,0,1:0:0:0:
449,15,114997,2,0,P|459:66|467:117,1,103.999995239258,0|0,3:0|1:0,0:0:0:0:
233,221,115309,5,2,1:2:0:0:
248,207,115387,1,0,1:0:0:0:
267,199,115465,2,0,P|300:194|330:201,1,51.999997619629,0|0,1:0|0:0,0:0:0:0:
311,379,115622,6,0,B|274:360|265:314|296:287|296:287|328:315,1,120,2|0,3:2|0:0,0:0:0:0:
385,339,115934,6,0,P|392:358|397:379,1,41.9999987182618,2|0,3:2|0:0,0:0:0:0:
303,293,116247,6,0,B|354:336|421:318|441:258|441:258|446:260|446:260|414:243|408:207,1,240.000009155274,6|0,3:1|1:0,0:0:0:0:
178,242,116715,2,0,B|115:264|97:331|138:378|138:378|134:382|134:382|165:362|199:376,1,240.000009155274,2|0,0:2|3:0,0:0:0:0:
284,159,117184,2,0,B|295:93|246:44|184:56|184:56|184:51|184:51|185:87|156:110,1,240.000009155274,2|0,1:2|0:0,0:0:0:0:
303,293,117653,1,2,3:2:0:0:
382,114,117809,2,0,B|372:87|369:59|369:59|364:55|364:55|363:25|351:0,1,120.000004577637,0|0,1:0|0:0,0:0:0:0:
46,37,118122,2,0,B|51:94|79:146|79:146|74:158|74:158|97:210|107:265,1,240.000009155274,2|0,3:2|1:0,0:0:0:0:
0,384,118590,1,2,0:2:0:0:
174,200,118747,6,0,B|129:167|129:167|133:165|133:165|76:182|76:182|75:184|75:184|17:202,1,180.000006866455,2|0,3:2|0:0,0:0:0:0:
168,209,119059,2,0,B|227:189|227:189|231:191|231:191|283:171|283:171|284:166|284:166|341:144,1,180.000006866455,2|0,1:2|0:0,0:0:0:0:
340,152,119372,1,0,3:0:0:0:
221,69,119528,1,0,3:0:0:0:
452,0,119684,6,0,P|455:32|464:65,1,60.0000022888184,2|0,1:2|0:0,0:0:0:0:
436,206,119840,2,0,B|434:165|413:122|413:122|408:123|408:123|430:111|457:98|457:98|460:100|460:100|442:66|436:7,1,240.000009155274,2|0,3:2|3:0,0:0:0:0:
115,0,120309,2,0,P|128:61|153:120,1,120.000004577637,0|0,1:0|0:0,0:0:0:0:
225,278,120622,6,0,L|279:252,1,60.0000022888184,2|0,3:2|0:0,0:0:0:0:
341,234,120778,2,0,L|286:259,1,60.0000022888184,2|0,3:2|0:0,0:0:0:0:
286,359,120934,6,0,B|322:342|322:342|332:344|332:344|372:327,1,90.0000034332277,2|0,1:2|0:0,0:0:0:0:
444,360,121247,5,0,3:0:0:0:
444,360,121403,1,0,3:0:0:0:
145,279,121559,6,0,B|145:236|166:218|166:218|169:220|169:220|175:211|202:202,1,90.0000034332277,2|0,1:2|0:0,0:0:0:0:
206,135,121872,6,0,B|163:132|141:150|141:150|135:149|135:149|90:180|77:237,1,180.000006866455,2|0,3:2|0:0,0:0:0:0:
12,197,122184,6,0,B|42:117|112:78|112:78|122:77|122:77|171:55|220:64,1,270.000010299683,2|0,1:2|0:0,0:0:0:0:
313,92,122497,6,0,B|350:65|334:18|334:18|281:43|291:114|291:114|285:112|285:112|326:131|348:171,1,287.999991210938,2|0,0:2|0:0,0:0:0:0:
401,228,122809,2,0,P|373:240|349:258,1,60.0000022888184,2|0,1:2|0:0,0:0:0:0:
240,227,122965,6,0,B|268:225|283:236|283:236|287:236|287:236|317:256|325:294,1,120.000004577637,2|0,0:2|3:0,0:0:0:0:
249,347,123278,6,0,B|246:322|234:313|234:313|232:314|232:314|228:309|212:306,1,60.0000022888184,0|0,3:0|1:0,0:0:0:0:
173,384,123590,1,2,3:2:0:0:
383,373,123747,5,6,1:2:0:0:
131,242,123903,1,0,3:0:0:0:
383,373,124059,1,0,3:0:0:0:
131,242,124215,1,2,1:2:0:0:
460,271,124528,5,0,3:0:0:0:
260,295,124684,5,6,1:2:0:0:
512,164,124840,1,0,3:0:0:0:
260,295,124996,1,2,3:2:0:0:
512,164,125153,1,0,1:0:0:0:
377,14,125465,5,0,3:0:0:0:
314,103,125622,5,8,0:3:0:0:
297,109,125700,1,0,1:0:0:0:
280,115,125778,1,2,1:2:0:0:
263,121,125856,1,0,1:0:0:0:
224,139,125934,5,8,1:3:0:0:
263,165,126012,1,0,1:0:0:0:
302,191,126090,2,0,L|371:164,1,60.0000022888184,0|0,1:0|1:0,0:0:0:0:
107,61,126247,5,4,3:1:0:0:
91,294,126403,1,2,0:2:0:0:
24,149,126559,1,6,1:2:0:0:
24,149,126637,1,2,0:2:0:0:
24,149,126715,2,0,L|88:162,1,60.0000022888184,2|0,0:2|0:0,0:0:0:0:
302,191,126872,1,2,3:2:0:0:
213,356,127028,2,0,B|195:297|195:297|197:293|197:293|179:236,1,120.000004577637,2|0,3:2|1:0,0:0:0:0:
241,12,127340,6,0,B|256:61|256:61|252:63|252:63|315:46|315:46|320:48|320:48|376:34,1,180.000006866455,2|0,3:2|0:0,0:0:0:0:
372,35,127653,1,2,3:2:0:0:
266,263,127809,1,2,1:2:0:0:
436,130,127965,2,0,B|376:145|376:145|372:143|372:143|315:159,1,120.000004577637,2|0,0:2|3:0,0:0:0:0:
213,356,128278,2,0,B|265:341|265:341|269:343|269:343|328:328,1,120.000004577637,2|0,3:2|1:0,0:0:0:0:
458,291,128590,1,2,0:2:0:0:
190,107,128747,5,4,3:2:0:0:
190,107,128903,2,0,L|209:170,1,60.0000022888184,0|0,3:0|0:0,0:0:0:0:
266,263,129059,2,0,B|252:204|186:199|186:199|190:193|190:193|175:228|133:237,1,180.000006866455,2|0,1:2|0:0,0:0:0:0:
279,271,129372,6,0,P|305:254|322:225,1,60.0000022888184,2|0,3:2|0:0,0:0:0:0:
319,30,129528,1,2,3:2:0:0:
311,34,129606,1,2,0:2:0:0:
303,38,129684,2,0,P|304:68|320:98,1,60.0000022888184,2|0,1:2|0:0,0:0:0:0:
492,175,129840,2,0,P|464:160|430:159,1,60.0000022888184,2|0,3:2|0:0,0:0:0:0:
242,168,129997,6,0,B|213:159|213:159|241:150,1,60.0000022888184,2|0,0:2|0:0,0:0:0:0:
404,66,130153,2,0,B|426:45|426:45|418:74,1,60.0000022888184,2|0,3:2|0:0,0:0:0:0:
411,257,130309,2,0,B|417:286|417:286|396:265,1,60.0000022888184,2|0,1:2|0:0,0:0:0:0:
359,159,130465,6,0,B|387:137|414:143|414:143|417:140|417:140|445:147|474:131,1,120.000004577637,2|0,0:2|3:0,0:0:0:0:
254,343,130778,2,0,B|205:364|160:295|160:295|151:300|151:300|113:235|54:256,1,240.000009155274,2|0,3:2|0:0,0:0:0:0:
52,368,131247,5,4,3:2:0:0:
257,247,131403,1,0,3:0:0:0:
177,172,131559,5,2,1:2:0:0:
168,170,131637,1,2,0:2:0:0:
159,168,131715,1,2,0:2:0:0:
150,166,131793,1,2,0:2:0:0:
114,143,131872,5,2,3:2:0:0:
137,136,131950,1,2,0:2:0:0:
160,129,132028,1,2,3:2:0:0:
183,122,132106,1,2,0:2:0:0:
219,94,132184,5,2,1:2:0:0:
168,76,132262,1,2,0:2:0:0:
117,58,132340,1,2,3:2:0:0:
65,40,132418,1,2,0:2:0:0:
6,50,132497,6,0,B|102:22|102:22|111:24|111:24|189:1,1,180.000006866455,2|0,0:2|0:0,0:0:0:0:
178,3,132809,1,2,1:2:0:0:
111,251,132965,2,0,B|57:235|57:235|54:230|54:230|0:211,1,120.000004577637,2|0,0:2|3:0,0:0:0:0:
353,110,133278,2,0,B|400:98|400:98|412:156|412:156|416:160|416:160|432:228,1,180.000006866455,2|0,3:2|0:0,0:0:0:0:
431,224,133590,1,0,3:0:0:0:
225,360,133747,5,6,1:2:0:0:
262,196,133903,1,0,3:0:0:0:
371,327,134059,1,0,3:0:0:0:
145,154,134215,5,6,1:1:0:0:
285,297,134372,1,0,3:0:0:0:
353,110,134528,1,0,3:0:0:0:
120,299,134684,5,6,1:2:0:0:
211,12,134840,1,0,3:0:0:0:
435,228,134997,1,6,1:1:0:0:
256,192,135075,12,0,135934,0:0:0:0:
139,65,136247,5,6,1:2:0:0:
314,134,136403,1,0,1:0:0:0:
324,139,136481,1,0,1:0:0:0:
334,144,136559,1,0,1:0:0:0:
352,108,136637,1,0,1:0:0:0:
341,69,136715,1,0,1:0:0:0:
309,44,136793,1,0,1:0:0:0:
268,45,136872,1,0,1:0:0:0:
233,65,136950,1,0,1:0:0:0:
216,101,137028,1,0,1:0:0:0:
225,139,137106,1,0,1:0:0:0:
247,171,137184,2,0,P|262:189|269:208,3,40,2|0|0|0,1:0|1:0|1:0|1:0,0:0:0:0:
367,247,137497,5,2,1:0:0:0:
336,278,137575,1,0,1:0:0:0:
329,321,137653,1,0,1:0:0:0:
349,359,137731,1,0,1:0:0:0:
385,383,137809,1,0,1:0:0:0:
428,382,137887,1,0,1:0:0:0:
459,365,137965,1,0,1:0:0:0:
471,335,138043,1,0,1:0:0:0:
463,303,138122,1,0,1:0:0:0:
419,303,138200,1,0,1:0:0:0:
384,329,138278,1,0,1:0:0:0:
360,366,138356,1,0,1:0:0:0:
320,384,138434,2,0,P|306:369|290:357,3,40,2|0|0|0,1:0|1:0|1:0|1:0,0:0:0:0:
189,278,138747,5,6,1:2:0:0:
160,316,138825,1,0,1:0:0:0:
117,337,138903,1,0,1:0:0:0:
69,329,138981,1,0,1:0:0:0:
30,300,139059,1,0,1:0:0:0:
11,255,139137,1,0,1:0:0:0:
14,207,139215,1,0,1:0:0:0:
44,170,139293,1,0,1:0:0:0:
88,151,139372,1,0,1:0:0:0:
134,141,139450,1,0,1:0:0:0:
166,106,139528,1,0,1:0:0:0:
180,60,139606,1,0,1:0:0:0:
164,14,139684,2,0,L|116:31,3,40,2|0|0|0,1:0|1:0|1:0|1:0,0:0:0:0:
12,46,139997,5,2,1:0:0:0:
14,55,140075,1,0,1:0:0:0:
16,64,140153,2,0,L|56:80,1,40,0|0,1:0|1:0,0:0:0:0:
106,240,140309,5,2,1:0:0:0:
108,231,140387,1,0,1:0:0:0:
110,222,140465,2,0,L|150:206,1,40,0|0,1:0|1:0,0:0:0:0:
233,115,140622,5,2,1:0:0:0:
235,124,140700,1,0,1:0:0:0:
237,133,140778,2,0,L|277:149,1,40,0|0,1:0|1:0,0:0:0:0:
302,257,140934,5,2,1:0:0:0:
304,248,141012,1,0,1:0:0:0:
306,239,141090,2,0,L|346:223,1,40,0|0,1:0|1:0,0:0:0:0:
449,137,141247,5,2,3:2:0:0:
440,209,141403,1,0,0:0:0:0:
435,137,141559,1,0,3:0:0:0:
453,208,141715,1,0,0:0:0:0:
422,143,141872,1,0,3:0:0:0:
466,202,142028,1,0,0:0:0:0:
413,154,142184,1,2,3:2:0:0:
475,191,142340,1,2,0:2:0:0:
408,167,142497,5,0,3:0:0:0:
480,178,142653,1,2,0:2:0:0:
409,181,142809,1,0,3:0:0:0:
479,164,142965,1,0,0:0:0:0:
414,193,143122,1,0,3:0:0:0:
474,152,143278,1,0,0:0:0:0:
424,203,143434,1,2,3:2:0:0:
464,142,143590,1,0,0:0:0:0:
277,346,143747,5,2,3:2:0:0:
321,245,143903,1,0,0:0:0:0:
259,334,144059,1,0,3:0:0:0:
338,256,144215,1,2,0:2:0:0:
248,316,144372,1,0,3:0:0:0:
349,274,144528,1,2,0:2:0:0:
243,295,144684,1,2,3:2:0:0:
354,295,144840,1,0,0:0:0:0:
247,275,144997,5,0,3:0:0:0:
350,315,145153,1,0,0:0:0:0:
259,257,145309,1,0,3:0:0:0:
338,333,145465,1,0,0:0:0:0:
276,245,145622,1,0,3:0:0:0:
321,345,145778,1,0,0:0:0:0:
228,140,145934,5,2,3:2:0:0:
151,376,146090,5,0,3:0:0:0:
151,376,146168,1,0,3:0:0:0:
151,376,146247,1,6,1:1:0:0:
90,191,146403,1,0,3:0:0:0:
90,191,146559,1,0,3:0:0:0:
388,90,146715,5,6,1:2:0:0:
232,144,146871,1,0,3:0:0:0:
232,144,147027,1,0,3:0:0:0:
358,253,147184,5,2,1:0:0:0:
261,0,147340,1,6,3:2:0:0:
261,0,147653,5,4,1:3:0:0:
498,148,147809,1,4,1:3:0:0:
145,267,147965,1,4,1:3:0:0:
347,322,148122,6,0,L|358:253,1,70,2|0,0:2|0:0,0:0:0:0:
358,252,148747,6,0,B|350:261|399:277|441:236|463:166|372:131|306:133|298:142|216:127|181:81|209:30|241:19,1,391.99998803711,6|0,3:1|0:0,0:0:0:0:
242,26,149918,1,2,0:3:0:0:
248,31,149997,1,2,0:3:0:0:
39,186,150622,1,2,0:2:0:0:
118,95,150934,6,0,P|113:66|124:91,1,83.9999974365235,2|0,0:2|0:0,0:0:0:0:
156,157,151247,6,0,P|143:177|133:199,1,47.9999985351563,4|0,3:2|0:0,0:0:0:0:
96,283,151403,1,0,1:0:0:0:
96,283,151481,1,0,1:0:0:0:
96,283,151559,2,0,L|154:307,1,47.9999985351563,0|0,1:0|1:0,0:0:0:0:
244,353,151715,5,0,3:0:0:0:
244,353,151793,1,0,1:0:0:0:
244,353,151872,1,0,1:0:0:0:
244,353,151950,1,0,1:0:0:0:
244,353,152028,2,0,L|268:295,1,47.9999985351563,0|0,1:0|1:0,0:0:0:0:
304,210,152184,5,0,3:0:0:0:
304,210,152262,1,0,1:0:0:0:
304,210,152341,1,0,1:0:0:0:
304,210,152419,1,0,1:0:0:0:
304,210,152497,2,0,L|243:192,1,47.9999985351563,2|0,1:0|1:0,0:0:0:0:
139,104,152653,5,0,3:0:0:0:
139,104,152731,1,0,1:0:0:0:
139,104,152810,1,2,1:0:0:0:
139,104,152888,1,0,1:0:0:0:
139,104,152966,2,0,L|201:90,1,47.9999985351563,0|0,1:0|1:0,0:0:0:0:
484,56,153122,6,0,L|473:116,1,56,6|0,3:2|0:0,0:0:0:0:
497,178,153747,5,0,3:0:0:0:
497,178,153903,1,0,3:0:0:0:
451,0,154059,2,0,L|494:178,1,180.000006866455,4|0,1:1|0:0,0:0:0:0:
480,249,154372,1,0,3:0:0:0:
268,189,154528,2,0,P|303:147|358:141,1,111.999996582031,0|2,3:0|0:2,0:0:0:0:
457,384,154840,6,0,P|377:357|295:338,1,167.999994873047,0|0,1:0|0:0,0:0:0:0:
295,338,155153,1,0,3:0:0:0:
133,238,155309,2,0,P|213:249|268:190,1,167.999994873047,2|0,1:2|0:0,0:0:0:0:
268,189,155622,1,2,3:2:0:0:
48,144,155778,1,0,3:0:0:0:
158,51,155934,2,0,P|171:105|182:160,1,111.999996582031,2|0,1:2|3:0,0:0:0:0:
411,4,156247,5,4,1:2:0:0:
258,114,156403,1,0,3:0:0:0:
411,4,156559,1,0,3:0:0:0:
418,242,156715,5,4,1:2:0:0:
335,60,156872,1,0,3:0:0:0:
418,242,157028,1,0,3:0:0:0:
182,160,157184,5,6,1:2:0:0:
446,132,157340,1,0,3:0:0:0:
200,325,157497,5,2,1:2:0:0:
442,370,157653,1,0,3:0:0:0:
191,334,157809,5,2,1:2:0:0:
508,216,157965,1,0,0:0:0:0:
335,354,158122,5,8,0:3:0:0:
320,345,158200,1,0,1:0:0:0:
307,331,158278,2,0,P|301:304|296:277,1,55.9999982910157,0|0,1:0|1:0,0:0:0:0:
173,59,158434,5,8,1:3:0:0:
138,95,158512,1,0,1:0:0:0:
130,144,158590,1,0,1:0:0:0:
153,188,158668,1,0,1:0:0:0:
198,211,158747,2,0,P|276:180|357:158,1,167.999994873047,6|0,3:1|0:0,0:0:0:0:
428,149,159059,2,0,P|451:99|433:48,1,111.999996582031,4|0,1:2|0:0,0:0:0:0:
204,128,159372,1,0,3:0:0:0:
280,0,159528,1,0,3:0:0:0:
464,270,159684,6,0,P|409:256|354:248,1,111.999996582031,2|0,1:2|3:0,0:0:0:0:
118,374,159997,2,0,P|172:372|214:336,1,111.999996582031,2|0,0:2|3:0,0:0:0:0:
172,118,160309,2,0,P|150:199|133:281,1,167.999994873047,2|0,1:2|0:0,0:0:0:0:
133,281,160622,1,2,3:2:0:0:
37,182,160778,1,0,3:0:0:0:
262,95,160934,2,0,B|253:45|215:17|159:23|159:23|154:37|143:45,1,167.999994873047,2|0,1:2|0:0,0:0:0:0:
69,73,161247,6,0,P|121:92|172:117,1,111.999996582031,2|0,3:2|3:0,0:0:0:0:
402,222,161559,1,0,1:0:0:0:
252,334,161715,2,0,B|235:265|319:258|308:167,1,167.999994873047,2|0,0:2|0:0,0:0:0:0:
308,182,162028,1,0,3:0:0:0:
512,268,162184,1,2,1:2:0:0:
353,303,162340,6,0,P|281:258|204:225,1,167.999994873047,0|0,3:0|0:0,0:0:0:0:
204,225,162653,1,0,3:0:0:0:
467,108,162809,2,0,P|473:187|401:221,1,167.999994873047,2|0,1:2|0:0,0:0:0:0:
401,222,163122,1,0,3:0:0:0:
296,23,163278,1,0,3:0:0:0:
237,138,163434,2,0,P|291:123|346:113,1,111.999996582031,2|0,1:2|0:0,0:0:0:0:
56,0,163747,6,0,P|69:54|80:109,1,111.999996582031,2|0,3:2|3:0,0:0:0:0:
128,378,164059,2,0,B|184:357|184:357|197:287|211:241,1,167.999994873047,0|0,1:0|0:0,0:0:0:0:
207,251,164372,1,2,3:2:0:0:
343,384,164528,1,0,3:0:0:0:
343,174,164684,2,0,P|290:154|237:138,1,111.999996582031,2|0,1:2|3:0,0:0:0:0:
0,264,164997,6,0,P|35:304|89:307,1,111.999996582031,2|0,0:2|3:0,0:0:0:0:
129,60,165309,2,0,P|103:140|76:219,1,167.999994873047,2|0,1:2|0:0,0:0:0:0:
76,219,165622,1,2,3:2:0:0:
0,114,165778,1,0,3:0:0:0:
247,13,165934,1,2,1:2:0:0:
129,60,166090,1,0,3:0:0:0:
289,300,166247,5,4,1:2:0:0:
224,117,166403,1,0,3:0:0:0:
289,300,166559,1,2,3:2:0:0:
387,14,166715,5,4,1:2:0:0:
322,197,166871,1,0,3:0:0:0:
387,14,167027,1,0,3:0:0:0:
497,307,167184,5,2,1:2:0:0:
432,124,167340,1,0,3:0:0:0:
230,374,167497,1,4,1:2:0:0:
120,244,167653,1,0,3:0:0:0:
120,244,167731,1,0,3:0:0:0:
120,244,167809,2,0,P|174:232|229:220,1,111.999996582031,6|0,1:1|0:0,0:0:0:0:
386,39,168122,5,2,1:0:0:0:
351,75,168200,1,0,1:0:0:0:
337,123,168278,1,0,1:0:0:0:
353,170,168356,1,0,1:0:0:0:
399,201,168434,1,2,1:0:0:0:
452,218,168512,1,0,1:0:0:0:
483,263,168590,1,0,1:0:0:0:
472,317,168668,1,0,1:0:0:0:
417,333,168747,6,0,P|421:243|433:154,1,180.000006866455,6|0,3:1|0:0,0:0:0:0:
502,115,169059,2,0,P|504:61|459:32,1,111.999996582031,4|0,1:2|0:0,0:0:0:0:
258,232,169372,1,0,3:0:0:0:
242,0,169528,1,0,3:0:0:0:
433,154,169684,1,2,1:2:0:0:
301,102,169840,1,0,3:0:0:0:
148,210,169997,6,0,P|203:219|257:231,1,111.999996582031,2|0,0:2|3:0,0:0:0:0:
79,320,170309,2,0,B|19:310|5:247|34:214|34:214|51:236|74:244,1,167.999994873047,2|0,1:2|0:0,0:0:0:0:
53,233,170622,1,2,3:2:0:0:
121,56,170778,1,0,3:0:0:0:
232,301,170934,2,0,B|287:275|284:211|248:186|248:186|237:212|217:226,1,167.999994873047,2|0,1:2|0:0,0:0:0:0:
234,210,171247,5,2,3:2:0:0:
418,190,171403,1,0,3:0:0:0:
283,0,171559,2,0,P|275:58|316:109,1,111.999996582031,0|0,1:0|0:0,0:0:0:0:
418,190,171872,1,0,3:0:0:0:
368,34,172028,1,0,3:0:0:0:
238,214,172184,1,2,1:2:0:0:
434,287,172340,1,0,3:0:0:0:
295,334,172497,6,0,P|241:317|184:306,1,111.999996582031,2|0,0:2|3:0,0:0:0:0:
289,125,172809,2,0,P|343:136|397:151,1,111.999996582031,2|0,1:2|0:0,0:0:0:0:
495,56,173122,1,2,3:2:0:0:
495,56,173278,1,0,3:0:0:0:
238,214,173434,2,0,P|190:151|210:63,1,167.999994873047,2|0,1:2|0:0,0:0:0:0:
269,33,173747,5,4,3:2:0:0:
99,202,173903,1,0,3:0:0:0:
306,281,174059,2,0,P|336:236|328:179,1,111.999996582031,0|0,1:0|0:0,0:0:0:0:
78,48,174372,1,0,3:0:0:0:
238,214,174528,1,0,3:0:0:0:
162,0,174684,1,2,1:2:0:0:
0,113,174840,1,0,3:0:0:0:
143,232,174997,6,0,P|132:176|117:123,1,111.999996582031,2|0,0:2|3:0,0:0:0:0:
238,315,175309,2,0,B|268:319|268:319|303:286|297:223|228:211,1,167.999994873047,2|0,1:2|0:0,0:0:0:0:
238,213,175622,1,2,3:2:0:0:
143,368,175778,1,0,3:0:0:0:
410,237,175934,1,2,1:2:0:0:
262,116,176090,1,0,3:0:0:0:
381,371,176247,5,4,1:2:0:0:
436,110,176403,1,0,3:0:0:0:
381,371,176559,1,0,3:0:0:0:
436,110,176715,1,4,1:2:0:0:
143,262,177184,5,2,1:2:0:0:
88,1,177340,1,0,3:0:0:0:
143,262,177496,1,2,3:2:0:0:
88,1,177652,1,0,1:0:0:0:
31,343,178122,6,0,P|48:321|69:302,1,55.9999982910157,8|0,0:3|0:0,0:0:0:0:
287,263,178278,1,0,1:0:0:0:
287,278,178356,1,0,1:0:0:0:
283,293,178434,2,0,P|255:288|228:279,1,55.9999982910157,2|0,1:2|0:0,0:0:0:0:
85,117,178590,5,0,1:0:0:0:
99,108,178668,1,0,1:0:0:0:
114,100,178747,2,0,P|133:187|146:276,1,180.000006866455,4|0,3:1|0:0,0:0:0:0:
152,349,179059,2,0,P|192:385|246:379,1,111.999996582031,0|0,1:0|0:0,0:0:0:0:
474,215,179372,1,0,3:0:0:0:
274,150,179528,1,0,3:0:0:0:
512,308,179684,1,2,1:2:0:0:
361,375,179840,1,0,3:0:0:0:
373,185,179997,6,0,P|388:238|403:292,1,111.999996582031,2|0,0:2|3:0,0:0:0:0:
512,4,180309,2,0,B|466:61|410:67|410:67|433:36|459:37,1,167.999994873047,2|0,1:2|0:0,0:0:0:0:
444,39,180622,1,2,3:2:0:0:
295,0,180778,1,0,3:0:0:0:
373,185,180934,2,0,P|425:166|480:153,1,111.999996582031,2|0,1:2|0:0,0:0:0:0:
130,139,181247,5,6,3:2:0:0:
265,91,181403,1,0,3:0:0:0:
205,358,181559,2,0,P|155:332|102:313,1,111.999996582031,0|2,1:0|0:2,0:0:0:0:
373,185,181872,5,0,3:0:0:0:
339,319,182028,1,0,3:0:0:0:
130,139,182184,1,2,1:2:0:0:
358,89,182340,2,0,B|446:83|428:149|516:150,1,167.999994873047,0|0,3:0|0:0,0:0:0:0:
508,150,182653,1,0,3:0:0:0:
264,49,182809,2,0,P|246:102|231:156,1,111.999996582031,2|0,1:2|0:0,0:0:0:0:
203,384,183122,5,0,3:0:0:0:
45,194,183278,1,0,3:0:0:0:
0,378,183434,2,0,P|75:374|123:290,1,167.999994873047,2|0,1:2|0:0,0:0:0:0:
161,240,183747,6,0,B|135:189|135:189|147:160|149:125,1,111.999996582031,2|0,3:2|3:0,0:0:0:0:
5,0,184059,2,0,B|-9:47|17:82|63:87|63:87|77:63|93:53,1,167.999994873047,2|0,1:2|0:0,0:0:0:0:
93,53,184372,1,2,3:2:0:0:
245,197,184528,1,0,3:0:0:0:
45,194,184684,1,2,1:2:0:0:
266,57,184840,1,0,3:0:0:0:
187,264,184997,6,0,B|127:276|107:170|41:195,1,167.999994873047,2|0,0:2|0:0,0:0:0:0:
44,193,185309,1,0,1:0:0:0:
275,318,185465,2,0,P|291:257|262:197,1,111.999996582031,2|0,0:2|3:0,0:0:0:0:
157,130,185778,1,0,3:0:0:0:
390,81,185934,1,2,1:2:0:0:
372,255,186090,1,0,3:0:0:0:
512,100,186247,5,4,1:2:0:0:
266,57,186403,1,0,3:0:0:0:
512,100,186559,1,0,3:0:0:0:
266,57,186715,1,0,1:0:0:0:
7,289,187184,5,6,1:2:0:0:
288,260,187340,1,0,3:0:0:0:
7,289,187496,1,2,3:2:0:0:
116,113,187653,2,0,P|130:167|141:222,1,111.999996582031,0|8,1:0|0:3,0:0:0:0:
156,349,187965,5,4,0:3:0:0:
266,87,188122,1,0,1:0:0:0:
0,47,188278,1,0,3:0:0:0:
0,47,188356,1,0,3:0:0:0:
0,47,188434,1,2,1:2:0:0:
56,208,188590,6,0,B|130:192|130:192|150:196|150:196|241:178,1,167.999994873047,4|0,3:1|0:0,0:0:0:0:
220,182,188903,1,2,3:2:0:0:
363,379,189059,2,0,B|307:386|307:386|255:351,1,111.999996582031,6|2,1:2|0:2,0:0:0:0:
410,131,189372,1,2,3:2:0:0:
481,292,189528,1,2,3:2:0:0:
339,42,189684,2,0,B|385:10|385:10|441:17,1,111.999996582031,0|2,1:0|3:2,0:0:0:0:
386,250,189997,5,2,0:2:0:0:
196,193,190153,1,2,3:2:0:0:
339,42,190309,1,0,1:0:0:0:
295,304,190465,5,2,0:2:0:0:
464,199,190622,1,2,3:2:0:0:
510,384,190778,2,0,B|460:371|460:371|456:367|456:367|396:351,1,111.999996582031,2|0,3:2|1:0,0:0:0:0:
96,354,191090,6,0,B|142:384|189:355|189:355|194:358|194:358|180:338|180:298,1,167.999994873047,6|0,3:2|0:0,0:0:0:0:
179,297,191403,1,2,3:2:0:0:
40,142,191559,5,0,1:0:0:0:
103,272,191715,1,2,3:2:0:0:
214,21,191872,5,2,1:2:0:0:
176,164,192028,1,2,3:2:0:0:
15,0,192184,2,0,P|49:42|103:45,1,111.999996582031,0|2,1:0|0:2,0:0:0:0:
325,0,192497,5,2,1:2:0:0:
284,220,192653,1,8,0:3:0:0:
255,100,192809,1,4,0:3:0:0:
464,141,192965,5,2,3:2:0:0:
464,141,193043,1,0,3:0:0:0:
464,141,193122,1,2,1:2:0:0:
200,271,193278,1,2,3:2:0:0:
464,141,193434,1,0,1:0:0:0:
400,333,193590,6,0,B|384:246|384:246|386:242|386:242|370:150,1,180.000006866455,6|0,3:1|0:0,0:0:0:0:
354,87,193903,1,2,3:2:0:0:
352,81,193981,1,0,3:0:0:0:
349,75,194059,2,0,B|388:35|388:35|443:58,1,111.999996582031,0|2,1:0|0:2,0:0:0:0:
512,217,194372,1,2,3:2:0:0:
296,135,194528,1,2,3:2:0:0:
310,359,194684,2,0,B|363:375|363:375|399:332,1,111.999996582031,0|2,1:0|3:2,0:0:0:0:
233,186,194997,5,2,0:2:0:0:
111,384,195153,1,2,3:2:0:0:
330,279,195309,1,0,1:0:0:0:
144,106,195465,5,2,0:2:0:0:
296,135,195622,1,2,3:2:0:0:
70,211,195778,1,2,3:2:0:0:
208,2,195934,1,0,1:0:0:0:
195,263,196090,6,0,B|162:285|114:287|114:287|110:291|110:291|72:286|13:316,1,180.000006866455,6|0,3:2|0:0,0:0:0:0:
24,310,196403,1,2,3:2:0:0:
303,347,196559,5,2,1:2:0:0:
218,141,196715,1,2,3:2:0:0:
310,354,196872,5,2,1:2:0:0:
317,161,197028,1,2,3:2:0:0:
197,366,197184,5,2,1:2:0:0:
483,270,197340,6,0,B|486:208|418:187|418:187|419:182|419:182|414:208|397:224,1,167.999994873047,6|0,3:2|0:0,0:0:0:0:
397,224,197653,1,0,3:0:0:0:
283,48,197809,5,2,1:2:0:0:
143,241,197965,1,2,0:2:0:0:
317,161,198122,1,8,0:3:0:0:
170,0,198278,1,2,1:2:0:0:
170,0,198356,1,0,1:0:0:0:
170,0,198434,1,0,1:0:0:0:
0,161,198590,6,0,B|33:113|33:113|28:114|28:114|93:103|93:103|97:105|97:105|159:95,1,192,6|0,3:2|0:0,0:0:0:0:
154,95,198903,1,2,3:2:0:0:
296,333,199059,5,2,1:2:0:0:
227,210,199215,1,2,0:2:0:0:
111,337,199372,5,0,1:0:0:0:
90,345,199450,1,0,1:0:0:0:
56,339,199528,1,8,0:3:0:0:
24,307,199606,1,8,0:3:0:0:
22,251,199684,1,4,0:3:0:0:
71,214,199762,1,4,0:3:0:0:
142,228,199840,6,0,P|163:270|178:316,1,95.9999970703126,6|0,3:1|0:0,0:0:0:0:
