osu file format v14

[General]
AudioFilename: audio.mp3
AudioLeadIn: 0
PreviewTime: 148083
Countdown: 0
SampleSet: Soft
StackLeniency: 0.7
Mode: 0
LetterboxInBreaks: 0
EpilepsyWarning: 1
WidescreenStoryboard: 1

[Editor]
DistanceSpacing: 1.1
BeatDivisor: 4
GridSize: 32
TimelineZoom: 1

[Metadata]
Title:timecapsule
TitleUnicode:タイムカプセル
Artist:Laica
ArtistUnicode:Laica
Creator:HowRengar
Version:Insane
Source:
Tags:Japanese Rock J-rock Jrock female vocals vocalist 収録内容 Shūroku Naiyō Shuuroku Naiyou 勿忘草と夏を待つ みすず やま tomoya ざき TSVNAKYO SOUND 春原染
BeatmapID:4452486
BeatmapSetID:2074414

[Difficulty]
HPDrainRate:5.5
CircleSize:4.1
OverallDifficulty:8
ApproachRate:9
SliderMultiplier:1.4
SliderTickRate:1

[Events]
//Background and Video events
0,0,"timecapsulebg.jpg",0,0
Video,0,"video.mp4"
//Break Periods
2,101447,102497
//Storyboard Layer 0 (Background)
//Storyboard Layer 1 (Fail)
//Storyboard Layer 2 (Pass)
//Storyboard Layer 3 (Foreground)
//Storyboard Layer 4 (Overlay)
//Storyboard Sound Samples

[TimingPoints]
1247,312.5,4,2,1,60,1,0
1247,-90.9090909090909,4,2,1,60,0,0
1637,-90.9090909090909,4,2,1,5,0,0
1715,-90.9090909090909,4,2,1,60,0,0
2106,-90.9090909090909,4,2,1,5,0,0
2184,-142.857142857143,4,2,1,60,0,0
3122,-90.9090909090909,4,2,1,60,0,0
4137,-90.9090909090909,4,2,1,5,0,0
4215,-90.9090909090909,4,2,1,60,0,0
4606,-90.9090909090909,4,2,1,5,0,0
4684,-142.857142857143,4,2,1,60,0,0
5622,-90.9090909090909,4,2,1,60,0,0
6637,-90.9090909090909,4,2,1,5,0,0
6715,-90.9090909090909,4,2,1,60,0,0
7106,-90.9090909090909,4,2,1,5,0,0
7184,-142.857142857143,4,2,1,60,0,0
8122,-125,4,2,1,60,0,0
8747,-90.9090909090909,4,2,1,60,0,0
9137,-90.9090909090909,4,2,1,5,0,0
9215,-90.9090909090909,4,2,1,60,0,0
9606,-90.9090909090909,4,2,1,5,0,0
9684,-166.666666666667,4,2,1,60,0,0
11090,-83.3333333333333,4,2,1,70,0,0
19840,-71.4285714285714,4,2,1,70,0,0
20309,-83.3333333333333,4,2,1,70,0,0
20543,-83.3333333333333,4,2,1,5,0,0
20778,-83.3333333333333,4,2,1,70,0,0
20856,-83.3333333333333,4,2,1,5,0,0
21090,-83.3333333333333,4,2,1,70,0,0
30075,-83.3333333333333,4,2,1,5,0,0
30153,-83.3333333333333,4,2,1,70,0,0
31247,-125,4,2,1,50,0,0
33747,-250,4,2,1,50,0,0
40622,-111.111111111111,4,2,1,50,0,0
41247,-111.111111111111,4,2,1,55,0,0
46481,-111.111111111111,4,2,1,5,0,0
46559,-111.111111111111,4,2,1,55,0,0
51247,-99.9999999999999,4,2,1,60,0,0
52340,-89.6399694573382,4,2,1,60,0,0
53434,-99.9999999999999,4,2,1,60,0,0
56247,-111.111111111111,4,2,1,50,0,0
58747,-90.9090909090909,4,2,1,60,0,0
61247,-90.9090909090909,4,2,1,70,0,0
63747,-83.3333333333333,4,2,1,80,0,1
66168,-83.3333333333333,4,2,1,5,0,1
66247,-83.3333333333333,4,2,1,80,0,1
68668,-83.3333333333333,4,2,1,5,0,1
68747,-83.3333333333333,4,2,1,80,0,1
70231,-83.3333333333333,4,2,1,5,0,1
70309,-83.3333333333333,4,2,1,80,0,1
71715,-83.3333333333333,4,2,1,80,0,0
72184,-83.3333333333333,4,2,1,80,0,1
72653,-83.3333333333333,4,2,1,80,0,0
73747,-83.3333333333333,4,2,1,80,0,1
76168,-83.3333333333333,4,2,1,5,0,1
76247,-83.3333333333333,4,2,1,80,0,1
78668,-83.3333333333333,4,2,1,5,0,1
78747,-83.3333333333333,4,2,1,80,0,1
81715,-83.3333333333333,4,2,1,80,0,0
82184,-83.3333333333333,4,2,1,80,0,1
82653,-100,4,2,1,80,0,0
83590,-100,4,2,1,60,0,0
86793,-100,4,2,1,5,0,0
86872,-100,4,2,1,60,0,0
87575,-100,4,2,1,5,0,0
87653,-100,4,2,1,60,0,0
96481,-100,4,2,1,5,0,0
96559,-100,4,2,1,60,0,0
97106,-100,4,2,1,5,0,0
97184,-100,4,2,1,60,0,0
98747,-125,4,2,1,50,0,0
103747,-100,4,2,1,60,0,0
111247,-100,4,2,1,70,0,0
115934,-133.333333333333,4,2,1,70,0,0
116168,-133.333333333333,4,2,1,5,0,0
116247,-83.3333333333333,4,2,1,85,0,1
118981,-83.3333333333333,4,2,1,5,0,1
119059,-83.3333333333333,4,2,1,85,0,1
122731,-83.3333333333333,4,2,1,5,0,1
122809,-83.3333333333333,4,2,1,85,0,1
124215,-83.3333333333333,4,2,1,85,0,0
124684,-83.3333333333333,4,2,1,85,0,1
125153,-83.3333333333333,4,2,1,85,0,0
126247,-83.3333333333333,4,2,1,85,0,1
128981,-83.3333333333333,4,2,1,5,0,1
129059,-83.3333333333333,4,2,1,85,0,1
129293,-83.3333333333333,4,2,1,5,0,1
129372,-83.3333333333333,4,2,1,85,0,1
132731,-83.3333333333333,4,2,1,5,0,1
132809,-83.3333333333333,4,2,1,85,0,1
134997,-100,4,2,1,70,0,0
135934,-100,4,2,1,5,0,0
136247,-100,4,2,1,70,0,0
141247,-100,4,2,1,60,0,0
146247,-100,4,2,1,70,0,0
148747,-111.111111111111,4,2,1,70,0,0
149840,-200,4,2,1,70,0,0
151168,-200,4,2,1,5,0,0
151247,-100,4,2,1,70,0,0
153122,-200,4,2,1,70,0,0
154059,-83.3333333333333,4,2,1,80,0,1
161168,-83.3333333333333,4,2,1,5,0,1
161247,-83.3333333333333,4,2,1,80,0,1
163668,-83.3333333333333,4,2,1,5,0,1
163747,-83.3333333333333,4,2,1,80,0,1
171168,-83.3333333333333,4,2,1,5,0,1
171247,-83.3333333333333,4,2,1,80,0,1
173668,-83.3333333333333,4,2,1,5,0,1
173747,-83.3333333333333,4,2,1,80,0,1
176715,-83.3333333333333,4,2,1,80,0,0
177184,-83.3333333333333,4,2,1,80,0,1
177653,-83.3333333333333,4,2,1,80,0,0
178747,-83.3333333333333,4,2,1,80,0,1
181168,-83.3333333333333,4,2,1,5,0,1
181247,-83.3333333333333,4,2,1,80,0,1
183668,-83.3333333333333,4,2,1,5,0,1
183747,-83.3333333333333,4,2,1,80,0,1
186715,-83.3333333333333,4,2,1,80,0,0
187184,-83.3333333333333,4,2,1,80,0,1
188590,-83.3333333333333,4,2,1,70,0,0
199840,-142.857142857143,4,2,1,70,0,0
200153,-142.857142857143,4,2,1,5,0,0

[Colours]
Combo1 : 219,139,128
Combo2 : 123,182,217
Combo3 : 177,167,226
Combo4 : 227,188,149
Combo5 : 233,210,122

[HitObjects]
47,81,934,5,8,0:3:0:0:
40,88,1247,2,0,P|69:13|126:73,1,192.500005874634,6|0,3:1|0:0,0:0:0:0:
145,142,1715,2,0,B|108:164|97:229|129:262|129:262|118:223|141:202,1,192.500005874634,6|0,3:2|0:0,0:0:0:0:
203,241,2184,2,0,B|257:260|302:226|281:202|322:170|378:186,1,195.999994018555,6|0,3:2|0:0,0:0:0:0:
377,186,3122,5,0,1:0:0:0:
441,338,3278,1,0,1:0:0:0:
418,255,3434,1,8,0:3:0:0:
404,274,3590,1,8,0:3:0:0:
490,154,3747,6,0,B|526:108|498:50|447:43|447:43|441:66|419:80,1,192.500005874634,6|0,3:1|0:0,0:0:0:0:
348,30,4215,2,0,P|421:1|406:79,1,192.500005874634,6|0,3:2|0:0,0:0:0:0:
336,107,4684,2,0,P|241:81|144:70,1,195.999994018555,6|0,3:2|0:0,0:0:0:0:
51,56,5465,5,0,3:0:0:0:
131,189,5622,1,0,1:0:0:0:
144,81,5778,5,0,3:0:0:0:
35,201,5934,1,0,1:0:0:0:
25,214,6247,6,0,B|5:203|-2:185|-2:185|42:183|64:223|50:229|78:264|117:265,1,192.500005874634,6|0,3:1|0:0,0:0:0:0:
189,248,6715,2,0,B|205:233|215:208|215:208|205:260|223:311|280:323,1,192.500005874634,6|0,3:2|0:0,0:0:0:0:
354,335,7184,2,0,B|379:361|370:389|370:389|343:366|353:319|353:319|384:300|392:273,1,195.999994018555,6|0,3:2|0:0,0:0:0:0:
308,243,7965,5,0,1:0:0:0:
308,243,8043,1,0,1:0:0:0:
308,243,8122,1,0,1:0:0:0:
377,184,8278,1,8,0:3:0:0:
252,158,8434,2,0,P|226:167|199:174,1,56,4|4,0:3|0:3,0:0:0:0:
296,25,8747,6,0,B|351:33|368:83|329:115|329:115|311:84|278:76,1,192.500005874634,6|0,3:1|0:0,0:0:0:0:
208,97,9215,2,0,P|296:92|326:179,1,192.500005874634,6|0,3:2|0:0,0:0:0:0:
303,247,9684,2,0,P|260:254|220:263,1,83.9999974365235,6|0,3:2|0:0,0:0:0:0:
216,274,10309,5,0,1:0:0:0:
212,286,10387,1,8,0:3:0:0:
208,298,10465,2,0,L|183:308,1,20.9999993591309,4|4,0:3|0:3,0:0:0:0:
109,274,10622,5,0,1:0:0:0:
281,340,10778,1,0,1:0:0:0:
281,340,11090,6,0,B|275:293|321:272|321:272|319:267|319:267|361:247|359:206,1,167.999994873047,6|2,3:1|3:2,0:0:0:0:
306,107,11559,2,0,P|265:119|224:128,1,83.9999974365235,2|2,1:0|0:2,0:0:0:0:
115,161,11872,1,2,3:2:0:0:
150,61,12028,1,2,3:2:0:0:
29,0,12184,2,0,P|41:40|50:81,1,83.9999974365235,0|2,1:0|3:2,0:0:0:0:
83,253,12497,5,2,0:2:0:0:
115,161,12653,1,2,3:2:0:0:
0,219,12809,2,0,L|88:248,1,83.9999974365235,0|2,1:0|0:2,0:0:0:0:
196,286,13122,1,2,3:2:0:0:
42,354,13278,1,2,3:2:0:0:
52,368,13590,6,0,P|103:309|177:337,1,167.999994873047,6|2,3:2|3:2,0:0:0:0:
331,384,14059,2,0,B|309:348|309:348|320:307,1,83.9999974365235,0|2,1:0|3:2,0:0:0:0:
353,193,14372,1,2,1:2:0:0:
244,227,14528,1,2,3:2:0:0:
353,193,14684,2,0,B|364:152|364:152|342:116,1,83.9999974365235,0|2,1:0|0:2,0:0:0:0:
194,29,14997,5,2,1:2:0:0:
237,106,15153,1,8,0:3:0:0:
335,109,15309,1,4,0:3:0:0:
374,29,15465,1,2,3:2:0:0:
185,23,15622,5,2,1:2:0:0:
284,190,15778,1,2,3:2:0:0:
284,190,16090,6,0,B|204:179|204:179|200:181|200:181|106:168,1,167.999994873047,6|2,3:1|3:2,0:0:0:0:
248,293,16559,2,0,L|331:281,1,83.9999974365235,0|2,1:0|0:2,0:0:0:0:
447,241,16872,1,2,3:2:0:0:
420,346,17028,1,2,3:2:0:0:
366,183,17184,2,0,P|362:141|375:101,1,83.9999974365235,0|2,1:0|3:2,0:0:0:0:
447,15,17497,5,2,0:2:0:0:
486,105,17653,1,2,3:2:0:0:
351,6,17809,2,0,P|392:0|430:16,1,83.9999974365235,0|2,1:0|0:2,0:0:0:0:
375,101,18122,1,2,3:2:0:0:
245,21,18278,1,2,3:2:0:0:
245,21,18590,6,0,B|270:124|270:124|233:134|219:170,1,167.999994873047,6|2,3:2|3:2,0:0:0:0:
237,299,19059,5,2,1:0:0:0:
297,207,19215,1,2,3:2:0:0:
332,318,19372,5,2,1:0:0:0:
299,214,19528,1,2,3:2:0:0:
410,259,19684,5,2,1:0:0:0:
301,221,19840,6,0,B|258:217|258:217|170:286|170:286|129:282,1,195.999994018555,6|2,3:2|1:2,0:0:0:0:
11,173,20309,1,2,1:2:0:0:
102,118,20465,6,0,L|109:165,1,41.9999987182618,2|0,3:2|0:0,0:0:0:0:
55,384,20778,6,0,L|48:342,1,41.9999987182618,6|0,3:2|0:0,0:0:0:0:
47,323,21090,6,0,B|85:346|85:346|135:322|146:277|120:222,1,167.999994873047,6|2,3:1|3:2,0:0:0:0:
76,133,21559,2,0,P|36:143|-5:149,1,83.9999974365235,0|2,1:0|0:2,0:0:0:0:
131,35,21872,1,2,3:2:0:0:
89,129,22028,1,2,3:2:0:0:
194,164,22184,2,0,P|234:153|276:147,1,83.9999974365235,0|2,1:0|3:2,0:0:0:0:
376,204,22497,5,2,0:2:0:0:
455,146,22653,1,2,3:2:0:0:
359,110,22809,2,0,L|378:211,1,83.9999974365235,0|2,1:0|0:2,0:0:0:0:
448,297,23122,1,2,3:2:0:0:
343,363,23278,1,2,3:2:0:0:
336,370,23590,6,0,B|334:310|248:310|248:233,1,167.999994873047,6|2,3:2|3:2,0:0:0:0:
363,133,24059,5,0,1:0:0:0:
335,231,24215,1,2,3:2:0:0:
273,126,24372,5,2,1:2:0:0:
339,226,24528,1,2,3:2:0:0:
452,180,24684,2,0,P|455:138|461:96,1,83.9999974365235,0|2,1:0|0:2,0:0:0:0:
384,0,24997,5,2,1:2:0:0:
384,0,25153,1,8,0:3:0:0:
270,66,25309,2,0,P|309:79|347:98,1,83.9999974365235,4|2,0:3|3:2,0:0:0:0:
359,99,25543,1,0,3:0:0:0:
371,96,25622,1,2,1:2:0:0:
299,182,25778,1,2,3:2:0:0:
378,241,25934,1,0,1:0:0:0:
295,188,26090,6,0,B|242:164|242:164|200:184|141:207,1,167.999994873047,6|2,3:1|3:2,0:0:0:0:
128,205,26481,1,0,3:0:0:0:
115,203,26559,2,0,P|86:170|88:129,1,83.9999974365235,0|2,1:0|0:2,0:0:0:0:
127,19,26872,1,2,3:2:0:0:
194,94,27028,1,2,3:2:0:0:
79,125,27184,2,0,L|0:99,1,83.9999974365235,0|2,1:2|3:2,0:0:0:0:
159,208,27497,5,2,0:2:0:0:
87,131,27653,1,2,3:2:0:0:
56,227,27809,2,0,P|63:268|67:310,1,83.9999974365235,0|2,1:0|0:2,0:0:0:0:
0,384,28122,1,2,3:2:0:0:
0,384,28278,1,2,3:2:0:0:
292,305,28590,6,0,P|299:222|313:139,1,167.999994873047,6|2,3:1|3:2,0:0:0:0:
414,24,29059,5,2,1:2:0:0:
384,93,29215,1,2,3:2:0:0:
239,96,29372,5,2,1:2:0:0:
269,27,29528,1,2,3:2:0:0:
378,102,29684,1,2,1:2:0:0:
311,183,29840,6,0,P|248:193|186:204,1,125.999996154785,6|0,3:2|0:0,0:0:0:0:
174,207,30153,2,0,B|153:171|153:171|180:129,1,83.9999974365235,2|2,1:2|3:2,0:0:0:0:
258,249,30465,5,2,1:2:0:0:
255,261,30543,1,0,1:0:0:0:
252,273,30622,1,2,1:2:0:0:
188,337,30778,1,8,0:3:0:0:
270,384,30934,2,0,P|309:368|349:357,1,83.9999974365235,4|0,0:3|3:0,0:0:0:0:
446,334,31247,1,6,3:1:0:0:
256,192,31325,12,2,33434,0:2:0:0:
303,147,33747,6,0,P|316:107|326:66,2,84,2|2|2,0:2|0:2|0:2,0:0:0:0:
91,333,36247,6,0,B|69:326|54:306|54:306|58:286|60:261,2,84,2|2|2,0:2|0:2|0:2,0:0:0:0:
351,338,38747,6,0,B|385:313|385:313|438:324,2,84,2|2|2,0:2|0:2|0:2,0:0:0:0:
351,338,40622,5,0,1:0:0:0:
176,277,40778,1,0,1:0:0:0:
266,310,40934,1,8,0:3:0:0:
266,310,41090,1,8,0:3:0:0:
157,369,41247,6,0,P|97:347|37:330,1,125.999996154785,6|2,3:2|1:2,0:0:0:0:
54,223,41715,2,0,P|114:239|173:261,1,125.999996154785,2|2,0:2|3:2,0:0:0:0:
296,205,42184,1,2,0:2:0:0:
295,205,42340,2,0,P|301:174|291:144,1,62.9999980773926,0|0,1:0|0:0,0:0:0:0:
21,88,42810,6,0,P|42:110|73:118,1,62.9999980773926,2|0,1:2|0:0,0:0:0:0:
159,150,43122,2,0,P|167:120|159:89,1,62.9999980773926,2|0,3:2|3:0,0:0:0:0:
144,0,43434,2,0,P|114:7|91:29,1,62.9999980773926,2|0,1:2|0:0,0:0:0:0:
92,205,43747,6,0,L|107:266,1,62.9999980773926,2|0,3:2|3:0,0:0:0:0:
50,354,44059,1,2,1:2:0:0:
49,354,44215,2,0,P|80:302|141:299,1,125.999996154785,2|2,0:2|3:2,0:0:0:0:
253,357,44684,2,0,P|222:365|193:376,1,62.9999980773926,2|0,0:2|1:0,0:0:0:0:
238,248,44997,2,0,P|301:258|361:271,1,125.999996154785,2|0,0:2|1:0,0:0:0:0:
366,280,45622,1,2,3:2:0:0:
453,331,45778,1,2,3:2:0:0:
395,183,45934,1,0,1:0:0:0:
406,187,46247,6,0,P|442:158|447:112,1,94.499997116089,0|0,3:0|0:0,0:0:0:0:
446,98,46559,2,0,P|415:91|384:84,1,62.9999980773926,2|0,1:2|0:0,0:0:0:0:
292,20,46872,2,0,P|322:13|353:6,1,62.9999980773926,2|0,3:2|3:0,0:0:0:0:
314,140,47184,2,0,P|283:146|252:153,1,62.9999980773926,2|0,0:2|1:0,0:0:0:0:
164,42,47497,6,0,P|195:49|217:71,1,62.9999980773926,2|0,0:2|3:0,0:0:0:0:
79,72,47809,2,0,P|70:42|78:11,1,62.9999980773926,2|0,1:2|0:0,0:0:0:0:
147,132,48122,2,0,P|125:154|95:162,1,62.9999980773926,2|0,3:2|3:0,0:0:0:0:
13,133,48434,1,2,1:2:0:0:
4,141,48747,6,0,P|23:200|37:262,1,125.999996154785,2|0,3:2|1:0,0:0:0:0:
59,367,49215,2,0,P|82:344|111:333,1,62.9999980773926,2|0,0:2|3:0,0:0:0:0:
155,236,49528,1,0,3:0:0:0:
155,236,49684,2,0,P|183:269|282:261,1,125.999996154785,2|0,0:2|0:0,0:0:0:0:
329,171,50153,1,0,3:0:0:0:
243,131,50309,2,0,P|238:162|232:193,1,62.9999980773926,2|0,1:2|0:0,0:0:0:0:
161,84,50622,5,0,1:0:0:0:
236,46,50778,1,8,0:3:0:0:
314,83,50934,1,4,0:3:0:0:
321,90,51247,5,6,3:1:0:0:
236,46,51403,1,0,3:0:0:0:
286,237,51559,1,0,1:0:0:0:
350,171,51715,2,0,L|271:158,1,70,0|0,3:0|0:0,0:0:0:0:
366,286,52028,2,0,L|435:274,1,70,0|2,3:0|0:2,0:0:0:0:
512,142,52340,6,0,P|444:136|403:81,1,140.937129680891,6|0,3:2|3:0,0:0:0:0:
460,9,52809,1,0,1:0:0:0:
139,61,53122,1,0,3:0:0:0:
211,14,53278,1,2,3:2:0:0:
259,82,53434,2,0,P|250:117|245:151,1,70,2|2,1:2|3:2,0:0:0:0:
220,284,53747,5,6,1:2:0:0:
330,239,53903,1,0,3:0:0:0:
210,290,54059,1,2,3:2:0:0:
320,384,54215,2,0,L|299:316,1,70,2|0,1:2|3:0,0:0:0:0:
419,247,54528,2,0,L|439:314,1,70,0|2,1:0|0:2,0:0:0:0:
243,203,54840,6,0,P|309:207|345:151,1,140,6|0,3:2|3:0,0:0:0:0:
331,51,55309,2,0,P|296:47|261:41,1,70,0|2,1:0|0:2,0:0:0:0:
86,54,55622,5,2,1:2:0:0:
164,22,55778,1,8,0:3:0:0:
202,103,55934,1,4,0:3:0:0:
118,132,56090,1,2,3:2:0:0:
170,12,56247,5,2,0:2:0:0:
256,192,56325,12,2,58434,0:2:0:0:
256,192,58747,5,4,1:2:0:0:
262,199,59059,5,0,1:0:0:0:
325,130,59215,1,0,1:0:0:0:
333,275,59372,2,0,P|295:281|257:289,1,77.0000023498536,2|0,1:2|1:0,0:0:0:0:
397,201,59684,2,0,P|434:194|472:186,1,77.0000023498536,2|0,1:2|1:0,0:0:0:0:
251,79,59997,5,2,1:2:0:0:
251,79,60153,1,0,1:0:0:0:
399,8,60309,1,2,1:2:0:0:
399,8,60465,1,0,1:0:0:0:
345,135,60622,2,0,P|340:96|332:59,1,77.0000023498536,2|0,1:2|1:0,0:0:0:0:
201,2,60934,1,2,1:2:0:0:
166,102,61090,5,0,3:0:0:0:
166,102,61168,1,0,3:0:0:0:
166,102,61247,1,6,1:1:0:0:
226,178,61403,1,0,3:0:0:0:
226,178,61559,1,0,3:0:0:0:
66,266,61715,5,6,1:2:0:0:
20,190,61872,1,0,3:0:0:0:
20,190,62028,1,0,3:0:0:0:
170,270,62184,5,2,1:0:0:0:
63,96,62340,1,4,3:2:0:0:
55,88,62653,5,4,1:3:0:0:
234,177,62809,1,4,1:3:0:0:
62,281,62965,1,4,1:3:0:0:
62,280,63747,6,0,P|98:205|128:107,2,167.999994873047,6|0|0,3:1|1:0|3:0,0:0:0:0:
0,378,64528,1,0,3:0:0:0:
143,308,64684,2,0,P|107:286|66:288,1,83.9999974365235,2|0,1:2|3:0,0:0:0:0:
197,381,64997,6,0,P|237:367|278:357,1,83.9999974365235,2|0,0:2|3:0,0:0:0:0:
286,208,65309,2,0,P|246:221|205:231,1,83.9999974365235,2|0,1:2|0:0,0:0:0:0:
408,293,65622,1,2,3:2:0:0:
408,293,65778,1,0,3:0:0:0:
297,213,65934,2,0,P|287:150|279:88,1,125.999996154785,2|0,1:2|0:0,0:0:0:0:
317,25,66247,6,0,B|287:61|287:61|233:52|166:44,2,167.999994873047,4|0|0,3:2|1:0|3:0,0:0:0:0:
317,25,67028,1,0,3:0:0:0:
470,92,67184,2,0,P|428:99|388:110,1,83.9999974365235,2|0,1:2|3:0,0:0:0:0:
302,260,67497,6,0,P|332:232|341:191,1,83.9999974365235,2|0,0:2|3:0,0:0:0:0:
207,115,67809,2,0,P|176:142|167:183,1,83.9999974365235,2|0,1:2|0:0,0:0:0:0:
177,351,68122,1,2,3:2:0:0:
177,351,68278,1,0,3:0:0:0:
172,191,68434,2,0,P|110:179|47:172,1,125.999996154785,2|0,1:2|0:0,0:0:0:0:
0,117,68747,6,0,P|18:198|29:282,2,167.999994873047,4|0|0,3:2|1:0|3:0,0:0:0:0:
43,27,69528,1,0,3:0:0:0:
179,78,69684,2,0,P|138:88|98:102,1,83.9999974365235,2|0,1:2|3:0,0:0:0:0:
262,12,69997,6,0,B|296:40|296:40|286:75|276:121,1,125.999996154785,2|0,0:2|0:0,0:0:0:0:
220,164,70309,2,0,P|252:189|293:189,1,83.9999974365235,2|0,1:2|0:0,0:0:0:0:
461,106,70622,1,2,3:2:0:0:
461,106,70778,1,0,3:0:0:0:
354,61,70934,2,0,P|365:101|374:142,1,83.9999974365235,2|0,1:2|3:0,0:0:0:0:
347,296,71247,5,0,1:2:0:0:
480,257,71403,1,0,3:0:0:0:
347,296,71559,5,0,3:0:0:0:
480,257,71715,1,0,1:0:0:0:
201,384,72184,5,6,1:2:0:0:
68,345,72340,1,0,3:0:0:0:
201,384,72496,5,2,3:2:0:0:
68,345,72652,1,0,1:0:0:0:
229,105,73122,5,8,0:3:0:0:
312,145,73278,1,0,1:0:0:0:
317,133,73356,1,0,1:0:0:0:
320,120,73434,1,2,1:2:0:0:
147,66,73590,5,0,1:0:0:0:
142,78,73668,1,0,1:0:0:0:
139,91,73747,2,0,B|208:99|211:27|298:41,2,167.999994873047,6|0|0,3:1|1:0|3:0,0:0:0:0:
72,0,74528,1,0,3:0:0:0:
17,105,74684,2,0,P|29:145|37:186,1,83.9999974365235,2|0,1:2|3:0,0:0:0:0:
3,325,74997,6,0,P|30:294|70:286,1,83.9999974365235,2|0,0:2|3:0,0:0:0:0:
212,362,75309,2,0,P|171:371|131:384,1,83.9999974365235,2|0,1:2|0:0,0:0:0:0:
219,241,75622,2,0,P|258:254|299:263,1,83.9999974365235,2|0,3:2|3:0,0:0:0:0:
461,366,75934,2,0,B|432:382|398:373|383:348|383:348|396:336|403:317,1,125.999996154785,2|0,1:2|0:0,0:0:0:0:
475,293,76247,6,0,B|491:217|422:217|449:126,1,167.999994873047,6|0,3:2|1:0,0:0:0:0:
512,0,76715,2,0,P|505:79|430:104,1,167.999994873047,2|0,0:2|3:0,0:0:0:0:
240,59,77184,1,0,1:0:0:0:
329,0,77340,6,0,P|334:41|337:83,1,83.9999974365235,0|0,3:0|0:0,0:0:0:0:
347,268,77653,1,0,3:0:0:0:
478,199,77809,2,0,P|436:193|394:188,1,83.9999974365235,0|0,1:0|0:0,0:0:0:0:
216,172,78122,1,0,3:0:0:0:
216,172,78278,1,0,3:0:0:0:
165,271,78434,2,0,B|212:259|247:254|247:254|231:268|221:287,1,125.999996154785,2|0,1:2|0:0,0:0:0:0:
151,311,78747,6,0,B|148:231|87:239|93:153,1,167.999994873047,2|0,3:2|1:0,0:0:0:0:
116,53,79215,1,0,0:0:0:0:
116,53,79372,2,0,P|76:68|35:77,1,83.9999974365235,2|0,3:2|3:0,0:0:0:0:
188,166,79684,2,0,P|227:150|268:141,1,83.9999974365235,2|0,1:2|3:0,0:0:0:0:
387,216,79997,6,0,B|369:203|355:189|355:189|356:166|361:147,1,83.9999974365235,2|0,0:2|3:0,0:0:0:0:
485,108,80309,2,0,B|502:120|517:135|517:135|516:158|510:176,1,83.9999974365235,2|0,1:2|0:0,0:0:0:0:
402,71,80622,1,2,3:2:0:0:
402,71,80778,1,0,3:0:0:0:
469,253,80934,2,0,P|478:294|485:335,1,83.9999974365235,2|0,1:2|3:0,0:0:0:0:
263,258,81247,5,0,1:0:0:0:
387,216,81403,1,0,3:0:0:0:
263,258,81559,5,2,3:2:0:0:
387,216,81715,1,0,1:0:0:0:
140,33,82184,5,4,1:2:0:0:
264,75,82340,1,0,3:0:0:0:
140,33,82496,5,0,3:0:0:0:
264,75,82652,1,0,1:0:0:0:
49,219,82965,5,0,1:0:0:0:
46,208,83043,1,0,1:0:0:0:
43,197,83122,1,0,1:0:0:0:
133,233,83278,1,8,0:3:0:0:
82,295,83434,1,4,0:3:0:0:
0,288,83590,6,0,P|65:312|128:343,1,140,6|0,3:2|3:0,0:0:0:0:
231,374,84059,2,0,P|216:342|220:308,1,70,2|0,1:2|0:0,0:0:0:0:
295,204,84372,2,0,P|261:213|227:221,1,70,2|0,3:2|3:0,0:0:0:0:
385,296,84684,5,2,1:2:0:0:
309,326,84840,2,0,P|342:315|376:309,1,70,2|0,3:2|0:0,0:0:0:0:
459,237,85153,1,2,3:2:0:0:
487,373,85309,2,0,P|480:303|472:233,1,140,0|0,1:0|3:0,0:0:0:0:
390,174,85778,1,0,3:0:0:0:
512,111,85934,1,2,1:2:0:0:
499,110,86247,6,0,P|492:75|487:40,1,70,2|0,0:2|3:0,0:0:0:0:
368,0,86559,2,0,P|377:51|382:103,1,105,2|0,1:2|0:0,0:0:0:0:
386,116,86872,2,0,P|355:133|326:153,1,70,2|0,3:2|3:0,0:0:0:0:
166,135,87184,1,2,1:2:0:0:
166,135,87340,2,0,P|153:83|183:41,1,105,2|0,3:2|0:0,0:0:0:0:
213,32,87653,2,0,P|243:48|272:68,1,70,2|0,3:2|1:0,0:0:0:0:
326,153,87965,5,2,0:2:0:0:
231,251,88122,1,2,3:2:0:0:
329,248,88278,2,0,P|320:214|312:179,1,70,2|0,3:2|1:0,0:0:0:0:
145,337,88590,5,6,3:2:0:0:
137,345,88903,1,0,3:0:0:0:
58,287,89059,2,0,P|50:236|39:184,1,105,2|2,1:2|0:2,0:0:0:0:
25,175,89372,2,0,P|57:159|87:141,1,70,2|0,3:2|3:0,0:0:0:0:
175,90,89684,1,2,1:2:0:0:
267,157,89840,2,0,P|201:181|139:213,1,140,2|2,3:2|3:2,0:0:0:0:
33,70,90309,1,0,1:0:0:0:
21,68,90622,5,2,3:2:0:0:
85,12,90778,1,2,3:2:0:0:
153,57,90934,2,0,P|161:90|169:125,1,70,0|0,1:0|0:0,0:0:0:0:
207,276,91247,6,0,B|221:307|221:307|275:296|325:290,1,140,0|2,3:0|1:2,0:0:0:0:
413,342,91715,1,2,0:2:0:0:
347,194,91872,2,0,P|312:196|278:204,1,70,2|0,3:2|3:0,0:0:0:0:
356,187,92184,1,2,1:2:0:0:
225,113,92340,2,0,P|293:101|363:93,1,140,2|2,3:2|3:2,0:0:0:0:
512,32,92809,5,2,1:2:0:0:
457,115,92965,1,2,3:2:0:0:
339,2,93122,5,0,1:0:0:0:
363,93,93278,1,2,3:2:0:0:
364,108,93590,6,0,B|301:123|294:67|228:79,1,140,6|0,3:2|3:0,0:0:0:0:
139,175,94059,1,2,1:2:0:0:
139,175,94215,1,2,0:2:0:0:
218,234,94372,2,0,P|227:200|238:167,1,70,2|0,3:2|3:0,0:0:0:0:
126,265,94684,1,2,1:2:0:0:
200,328,94840,6,0,P|234:335|267:346,1,70,2|0,3:2|0:0,0:0:0:0:
351,384,95153,2,0,P|311:353|330:265,1,140,2|0,3:2|0:0,0:0:0:0:
396,217,95622,1,0,3:0:0:0:
396,217,95778,1,0,3:0:0:0:
509,313,95934,1,0,1:0:0:0:
504,297,96247,6,0,P|452:305|401:318,1,105,0|0,0:0|0:0,0:0:0:0:
389,320,96559,1,2,1:2:0:0:
323,371,96715,1,2,0:2:0:0:
251,331,96872,2,0,P|227:299|252:221,1,105,2|0,3:2|0:0,0:0:0:0:
247,231,97184,1,2,1:2:0:0:
392,161,97340,6,0,P|357:162|323:172,1,70,2|0,3:2|0:0,0:0:0:0:
230,76,97653,2,0,P|264:77|298:87,1,70,2|0,3:2|1:0,0:0:0:0:
442,222,97965,2,0,P|432:151|429:83,1,140,2|0,0:2|3:0,0:0:0:0:
512,10,98434,2,0,P|490:36|457:49,1,70,2|2,1:2|0:2,0:0:0:0:
298,0,98747,1,4,3:2:0:0:
256,192,98825,12,0,101247,0:0:0:0:
72,67,103747,5,6,1:2:0:0:
65,81,104059,5,0,1:0:0:0:
67,91,104137,1,0,1:0:0:0:
69,101,104215,1,0,1:0:0:0:
71,111,104293,1,0,1:0:0:0:
73,121,104372,2,0,L|112:132,3,35,2|0|0|0,1:0|1:0|1:0|1:0,0:0:0:0:
169,187,104684,2,0,L|202:177,3,35,2|0|0|0,1:0|1:0|1:0|1:0,0:0:0:0:
257,107,104997,5,2,1:0:0:0:
266,102,105075,1,0,1:0:0:0:
276,99,105153,1,0,1:0:0:0:
286,100,105231,1,0,1:0:0:0:
303,116,105309,5,2,1:0:0:0:
309,124,105387,1,0,1:0:0:0:
318,128,105465,1,0,1:0:0:0:
328,129,105543,1,0,1:0:0:0:
351,118,105622,6,0,L|345:73,3,35,2|0|0|0,1:0|1:0|1:0|1:0,0:0:0:0:
430,167,105934,2,0,L|425:201,3,35,2|0|0|0,1:0|1:0|1:0|1:0,0:0:0:0:
317,232,106247,5,6,1:2:0:0:
319,242,106325,1,0,1:0:0:0:
321,252,106403,1,0,1:0:0:0:
323,262,106481,1,0,1:0:0:0:
325,272,106559,1,0,1:0:0:0:
328,282,106637,1,0,1:0:0:0:
331,292,106715,2,0,L|291:302,1,35,2|0,1:0|1:0,0:0:0:0:
211,344,106872,6,0,P|202:323|200:299,3,35,0|0|0|0,1:0|1:0|1:0|1:0,0:0:0:0:
124,258,107184,2,0,P|137:239|157:225,3,35,0|0|0|0,1:0|1:0|1:0|1:0,0:0:0:0:
154,139,107497,2,0,P|176:141|198:151,3,35,0|0|0|0,1:0|1:0|1:0|1:0,0:0:0:0:
271,106,107809,2,0,P|280:127|282:151,3,35,0|0|0|0,1:0|1:0|1:0|1:0,0:0:0:0:
358,190,108122,5,2,1:0:0:0:
353,197,108200,1,0,1:0:0:0:
348,204,108278,1,0,1:0:0:0:
341,210,108356,1,0,1:0:0:0:
334,215,108434,2,0,L|294:225,1,35,0|0,1:0|1:0,0:0:0:0:
242,293,108590,5,0,1:0:0:0:
233,299,108668,1,0,1:0:0:0:
224,305,108747,2,0,P|156:286|87:274,1,140,6|0,3:1|1:0,0:0:0:0:
80,283,109372,1,2,3:2:0:0:
23,215,109528,2,0,P|15:180|7:146,1,70,0|2,3:0|0:2,0:0:0:0:
120,18,109840,6,0,P|91:80|125:138,1,140,0|0,1:0|3:0,0:0:0:0:
201,201,110309,2,0,P|233:188|268:182,1,70,2|0,1:2|0:0,0:0:0:0:
367,193,110622,1,2,3:2:0:0:
367,193,110778,1,0,3:0:0:0:
484,110,110934,1,2,1:2:0:0:
374,86,111090,5,0,3:0:0:0:
374,86,111168,1,0,3:0:0:0:
374,86,111247,2,0,P|340:77|306:68,1,70,6|0,1:1|3:0,0:0:0:0:
201,201,111559,5,0,3:0:0:0:
252,285,111715,2,0,P|285:276|319:267,1,70,6|0,1:2|3:0,0:0:0:0:
164,115,112028,5,0,3:0:0:0:
97,187,112184,2,0,P|102:221|104:256,1,70,4|0,1:2|3:0,0:0:0:0:
298,191,112497,5,0,3:0:0:0:
251,301,112653,2,0,P|216:306|181:310,1,70,4|0,1:2|3:0,0:0:0:0:
379,374,112965,5,0,3:0:0:0:
463,300,113122,2,0,P|429:291|394:284,1,70,4|0,1:2|3:0,0:0:0:0:
208,211,113434,1,6,1:2:0:0:
298,191,113590,5,0,3:0:0:0:
301,185,113668,1,0,3:0:0:0:
305,179,113747,2,0,P|309:144|312:109,1,70,6|0,1:1|0:0,0:0:0:0:
256,34,114059,5,0,1:0:0:0:
256,34,114215,1,2,1:2:0:0:
189,104,114372,5,0,1:0:0:0:
160,19,114528,1,0,1:0:0:0:
287,118,114684,5,2,1:2:0:0:
127,182,114840,1,0,1:0:0:0:
266,299,114997,6,0,P|300:291|334:285,1,70,0|0,3:0|1:0,0:0:0:0:
411,191,115309,1,2,1:2:0:0:
404,189,115387,1,0,1:0:0:0:
397,187,115465,1,0,1:0:0:0:
480,256,115622,2,0,P|499:227|504:193,1,70,2|0,3:2|0:0,0:0:0:0:
328,117,115934,2,0,P|306:148|300:186,1,78.7500030040742,2|0,3:2|0:0,0:0:0:0:
416,106,116247,6,0,B|337:89|337:89|336:84|336:84|249:64,1,167.999994873047,6|0,3:1|1:0,0:0:0:0:
460,228,116715,2,0,B|381:211|381:211|380:206|380:206|293:186,1,167.999994873047,2|0,0:2|3:0,0:0:0:0:
156,350,117184,2,0,B|235:333|235:333|236:328|236:328|323:308,1,167.999994873047,2|0,1:2|0:0,0:0:0:0:
46,265,117653,2,0,B|125:248|125:248|126:243|126:243|213:223,1,167.999994873047,2|0,3:2|0:0,0:0:0:0:
412,227,118122,2,0,B|404:234|380:242|380:242|344:205|355:167|355:167|376:159|392:130,1,167.999994873047,2|0,3:2|1:0,0:0:0:0:
482,12,118590,5,2,0:2:0:0:
482,12,118747,2,0,B|470:42|443:52|443:52|410:26|366:44,1,125.999996154785,2|0,3:2|0:0,0:0:0:0:
324,92,119059,2,0,P|285:108|245:120,1,83.9999974365235,2|0,1:2|0:0,0:0:0:0:
167,81,119372,1,0,3:0:0:0:
167,81,119528,1,0,3:0:0:0:
110,191,119684,1,2,1:2:0:0:
25,133,119840,6,0,P|105:156|187:175,1,167.999994873047,2|0,3:2|3:0,0:0:0:0:
272,254,120309,2,0,P|230:260|190:272,1,83.9999974365235,0|0,1:0|0:0,0:0:0:0:
117,337,120622,5,2,3:2:0:0:
44,286,120778,1,2,3:2:0:0:
0,361,120934,1,2,1:2:0:0:
385,384,121247,5,0,3:0:0:0:
385,384,121403,1,0,3:0:0:0:
285,337,121559,2,0,P|279:295|272:254,1,83.9999974365235,2|0,1:2|0:0,0:0:0:0:
406,283,121872,2,0,P|411:241|418:200,1,83.9999974365235,2|0,3:2|3:0,0:0:0:0:
257,165,122184,2,0,P|251:123|244:82,1,83.9999974365235,2|0,1:2|3:0,0:0:0:0:
450,19,122497,6,0,B|441:69|435:109|435:109|447:87|456:80,1,125.999996154785,2|0,0:2|0:0,0:0:0:0:
465,83,122809,1,2,1:2:0:0:
333,54,122965,2,0,P|340:95|346:136,1,83.9999974365235,2|0,0:2|3:0,0:0:0:0:
512,173,123278,2,0,P|504:214|498:255,1,83.9999974365235,0|0,3:0|1:0,0:0:0:0:
421,319,123590,1,2,3:2:0:0:
265,187,123747,5,6,1:2:0:0:
384,229,123903,1,0,3:0:0:0:
265,187,124059,5,0,3:0:0:0:
384,229,124215,1,2,1:2:0:0:
150,149,124528,1,0,3:0:0:0:
178,260,124684,5,6,1:2:0:0:
59,302,124840,1,0,3:0:0:0:
178,260,124996,5,2,3:2:0:0:
59,302,125152,1,0,1:0:0:0:
295,378,125465,1,0,3:0:0:0:
274,295,125622,5,8,0:3:0:0:
270,287,125700,1,0,1:0:0:0:
266,279,125778,2,0,L|282:230,1,41.9999987182618,2|0,1:2|1:0,0:0:0:0:
361,204,125934,5,8,1:3:0:0:
363,195,126012,1,0,1:0:0:0:
365,186,126090,2,0,L|339:140,1,41.9999987182618,0|0,1:0|1:0,0:0:0:0:
300,72,126247,5,4,3:1:0:0:
300,72,126403,1,2,0:2:0:0:
182,137,126559,2,0,L|170:179,2,41.9999987182618,6|2|2,1:2|0:2|0:2,0:0:0:0:
208,26,126872,1,2,3:2:0:0:
208,26,127028,2,0,P|168:41|128:51,1,83.9999974365235,2|0,3:2|1:0,0:0:0:0:
0,40,127340,6,0,B|23:-1|23:-1|32:44|50:116,1,167.999994873047,2|2,3:2|3:2,0:0:0:0:
83,223,127809,1,2,1:2:0:0:
83,223,127965,2,0,P|43:207|3:197,1,83.9999974365235,2|0,0:2|3:0,0:0:0:0:
91,330,128278,2,0,P|130:314|170:304,1,83.9999974365235,2|0,3:2|1:0,0:0:0:0:
280,273,128590,1,2,0:2:0:0:
202,180,128747,5,4,3:2:0:0:
202,180,128903,2,0,P|206:199|209:222,1,41.9999987182618,0|0,3:0|0:0,0:0:0:0:
285,195,129059,2,0,P|274:132|261:71,1,125.999996154785,2|0,1:2|0:0,0:0:0:0:
252,67,129372,1,2,3:2:0:0:
349,103,129528,5,2,3:2:0:0:
356,99,129606,1,2,0:2:0:0:
363,96,129684,2,0,B|380:57|380:57|360:11,1,83.9999974365235,2|2,1:2|3:2,0:0:0:0:
166,28,129997,2,0,B|149:66|149:66|166:105,1,83.9999974365235,2|2,0:2|3:2,0:0:0:0:
207,198,130309,1,2,1:2:0:0:
141,262,130465,2,0,P|100:249|59:240,1,83.9999974365235,2|0,0:2|3:0,0:0:0:0:
200,106,130778,2,0,B|246:99|278:135|278:135|281:133|281:133|310:166|362:155,1,167.999994873047,2|0,3:2|0:0,0:0:0:0:
442,69,131247,5,4,3:2:0:0:
442,69,131403,1,0,3:0:0:0:
483,180,131559,5,2,1:2:0:0:
479,187,131637,1,2,0:2:0:0:
475,194,131715,1,2,0:2:0:0:
472,201,131793,1,2,0:2:0:0:
469,209,131872,2,0,L|424:223,3,41.9999987182618,2|2|2|2,3:2|0:2|3:2|0:2,0:0:0:0:
354,310,132184,2,0,L|313:297,3,41.9999987182618,2|2|2|2,1:2|0:2|3:2|0:2,0:0:0:0:
283,193,132497,6,0,B|305:233|305:233|288:274|276:307,1,125.999996154785,2|0,0:2|0:0,0:0:0:0:
250,376,132809,1,2,1:2:0:0:
125,273,132965,2,0,P|165:261|204:245,1,83.9999974365235,2|0,0:2|3:0,0:0:0:0:
20,282,133278,2,0,P|101:302|177:338,1,167.999994873047,2|0,3:2|3:0,0:0:0:0:
350,384,133747,5,6,1:2:0:0:
282,287,133903,1,0,3:0:0:0:
362,202,134059,1,0,3:0:0:0:
480,278,134215,6,0,P|439:290|402:308,1,83.9999974365235,6|0,1:1|3:0,0:0:0:0:
402,308,134528,1,0,3:0:0:0:
435,149,134684,2,0,P|475:161|512:179,1,83.9999974365235,6|0,1:2|3:0,0:0:0:0:
256,192,134997,5,6,1:1:0:0:
256,192,135075,12,0,135934,0:0:0:0:
272,154,136247,5,6,1:2:0:0:
180,93,136403,1,0,1:0:0:0:
182,82,136481,1,0,1:0:0:0:
187,72,136559,1,0,1:0:0:0:
194,64,136637,1,0,1:0:0:0:
203,59,136715,1,0,1:0:0:0:
213,57,136793,1,0,1:0:0:0:
223,54,136872,2,0,L|262:64,3,35,0|0|0|0,1:0|1:0|1:0|1:0,0:0:0:0:
340,95,137184,2,0,L|373:86,3,35,2|0|0|0,1:0|1:0|1:0|1:0,0:0:0:0:
453,24,137497,5,2,1:0:0:0:
456,34,137575,1,0,1:0:0:0:
459,44,137653,1,0,1:0:0:0:
462,53,137731,1,0,1:0:0:0:
465,63,137809,1,0,1:0:0:0:
468,72,137887,1,0,1:0:0:0:
471,82,137965,1,0,1:0:0:0:
474,92,138043,1,0,1:0:0:0:
477,102,138122,2,0,L|522:116,3,35,0|0|0|0,1:0|1:0|1:0|1:0,0:0:0:0:
444,192,138434,2,0,L|399:206,3,35,2|0|0|0,1:0|1:0|1:0|1:0,0:0:0:0:
320,254,138747,5,6,1:2:0:0:
322,243,138825,1,0,1:0:0:0:
323,232,138903,1,0,1:0:0:0:
321,221,138981,1,0,1:0:0:0:
317,210,139059,1,0,1:0:0:0:
312,200,139137,1,0,1:0:0:0:
305,192,139215,1,0,1:0:0:0:
297,184,139293,1,0,1:0:0:0:
288,177,139372,2,0,L|251:171,3,35,0|0|0|0,1:0|1:0|1:0|1:0,0:0:0:0:
187,79,139684,2,0,L|221:73,3,35,2|0|0|0,1:0|1:0|1:0|1:0,0:0:0:0:
352,42,139997,6,0,L|343:81,3,35,2|0|0|0,1:0|1:0|1:0|1:0,0:0:0:0:
288,177,140309,2,0,L|295:211,3,35,2|0|0|0,1:0|1:0|1:0|1:0,0:0:0:0:
404,224,140622,2,0,L|395:263,3,35,2|0|0|0,1:0|1:0|1:0|1:0,0:0:0:0:
324,323,140934,2,0,L|331:357,3,35,2|0|0|0,1:0|1:0|1:0|1:0,0:0:0:0:
420,372,141247,5,2,3:2:0:0:
429,368,141559,1,0,3:0:0:0:
438,364,141872,1,0,3:0:0:0:
447,360,142184,1,2,3:2:0:0:
456,356,142497,1,0,3:0:0:0:
465,352,142809,1,0,3:0:0:0:
474,348,143122,1,0,3:0:0:0:
483,344,143434,1,2,3:2:0:0:
394,198,143747,5,2,3:2:0:0:
377,190,144059,1,0,3:0:0:0:
361,183,144372,1,0,3:0:0:0:
344,176,144684,1,2,3:2:0:0:
328,168,144997,1,0,3:0:0:0:
312,161,145309,1,0,3:0:0:0:
295,154,145622,1,0,3:0:0:0:
279,147,145934,1,2,3:2:0:0:
222,237,146090,5,0,3:0:0:0:
222,237,146168,1,0,3:0:0:0:
222,237,146246,1,6,1:1:0:0:
141,189,146403,1,0,3:0:0:0:
141,189,146559,1,0,3:0:0:0:
62,323,146715,5,6,1:2:0:0:
144,277,146872,1,0,3:0:0:0:
144,277,147028,1,0,3:0:0:0:
66,137,147184,5,2,1:0:0:0:
64,231,147341,1,6,3:2:0:0:
54,236,147653,5,4,1:3:0:0:
211,148,147809,1,4,1:3:0:0:
217,330,147965,1,4,1:3:0:0:
217,330,148747,6,0,B|186:297|193:251|228:240|255:211|244:160|210:147|210:147|183:174|196:223|237:239|278:254|283:290,1,377.999988464356,6|2,3:1|0:2,0:0:0:0:
293,363,149840,2,0,L|299:382,2,17.5,0|2|2,0:0|0:3|0:3,0:0:0:0:
329,193,150622,1,2,0:2:0:0:
163,249,150934,2,0,P|166:241|166:242,1,52.5,2|0,0:2|0:0,0:0:0:0:
170,244,151247,1,4,0:2:0:0:
256,286,151403,5,0,1:0:0:0:
259,281,151481,1,0,1:0:0:0:
262,277,151559,2,0,L|256:234,1,35,0|0,1:0|1:0,0:0:0:0:
216,170,151715,5,0,3:0:0:0:
213,165,151793,1,0,1:0:0:0:
210,161,151871,2,0,L|216:118,3,35,0|0|0|0,1:0|1:0|1:0|1:0,0:0:0:0:
273,67,152184,5,2,3:2:0:0:
276,62,152262,1,0,1:0:0:0:
279,58,152340,2,0,L|273:15,3,35,0|0|2|0,1:0|1:0|1:0|1:0,0:0:0:0:
159,0,152653,5,0,3:0:0:0:
155,9,152731,1,0,1:0:0:0:
151,19,152809,1,2,1:0:0:0:
148,29,152887,1,0,1:0:0:0:
145,39,152965,2,0,L|149:73,1,35,0|0,1:0|1:0,0:0:0:0:
214,125,153122,6,0,P|249:131|283:141,1,70,6|2,3:2|0:2,0:0:0:0:
287,145,153747,1,0,3:0:0:0:
287,145,153903,1,0,3:0:0:0:
225,201,154059,6,0,P|299:171|359:225,1,167.999994873047,4|0,1:1|3:0,0:0:0:0:
384,328,154528,1,0,3:0:0:0:
284,295,154684,2,0,B|264:309|243:303|243:303|232:286|210:280,1,83.9999974365235,2|0,0:2|1:0,0:0:0:0:
359,225,154997,2,0,B|381:234|387:255|387:255|377:274|383:295,1,83.9999974365235,2|0,0:2|3:0,0:0:0:0:
269,195,155309,2,0,B|266:170|281:155|281:155|302:154|317:138,1,83.9999974365235,2|0,1:2|0:0,0:0:0:0:
406,89,155622,1,2,3:2:0:0:
406,89,155778,1,0,3:0:0:0:
476,165,155934,2,0,P|434:173|395:187,1,83.9999974365235,2|0,1:2|3:0,0:0:0:0:
259,246,156247,5,4,1:2:0:0:
392,276,156403,1,0,3:0:0:0:
259,246,156559,1,0,3:0:0:0:
308,164,156715,5,4,1:2:0:0:
175,194,156871,1,0,3:0:0:0:
308,164,157027,1,0,3:0:0:0:
219,93,157184,6,0,P|226:50|234:10,1,83.9999974365235,6|0,1:2|3:0,0:0:0:0:
114,119,157497,1,2,1:2:0:0:
211,98,157653,1,0,3:0:0:0:
175,194,157809,2,0,P|136:211|100:232,1,83.9999974365235,2|0,1:2|0:0,0:0:0:0:
60,325,158122,5,8,0:3:0:0:
49,331,158200,1,0,1:0:0:0:
38,338,158278,2,0,P|18:329|0:321,1,41.9999987182618,0|0,1:0|1:0,0:0:0:0:
9,234,158434,5,8,1:3:0:0:
20,240,158512,1,0,1:0:0:0:
31,247,158590,2,0,P|50:238|69:230,1,41.9999987182618,0|0,1:0|1:0,0:0:0:0:
175,194,158747,6,0,P|157:276|147:359,2,167.999994873047,6|4|0,3:1|1:2|3:0,0:0:0:0:
145,91,159528,1,0,3:0:0:0:
254,119,159684,2,0,P|291:126|341:138,1,83.9999974365235,2|0,1:2|3:0,0:0:0:0:
346,259,159997,6,0,P|305:251|278:220,1,83.9999974365235,2|0,0:2|3:0,0:0:0:0:
443,184,160309,2,0,P|451:224|463:264,1,83.9999974365235,2|0,1:2|0:0,0:0:0:0:
325,340,160622,2,0,P|337:300|346:259,1,83.9999974365235,2|0,3:2|3:0,0:0:0:0:
316,90,160934,2,0,B|310:72|322:59|322:59|355:70|361:114|326:146,1,125.999996154785,2|0,1:2|0:0,0:0:0:0:
288,190,161247,6,0,B|212:206|212:137|121:164,1,167.999994873047,2|0,3:2|1:0,0:0:0:0:
80,342,161715,2,0,P|155:317|162:238,1,167.999994873047,2|0,0:2|3:0,0:0:0:0:
3,208,162184,2,0,P|44:216|83:230,1,83.9999974365235,2|0,1:2|3:0,0:0:0:0:
207,173,162496,1,0,0:0:0:0:
96,90,162653,1,0,3:0:0:0:
181,267,162809,2,0,P|220:252|261:244,1,83.9999974365235,2|0,1:2|0:0,0:0:0:0:
373,231,163122,1,0,3:0:0:0:
373,231,163278,1,0,3:0:0:0:
314,79,163434,2,0,B|304:129|302:167|302:167|298:146|291:131,1,125.999996154785,2|0,1:2|0:0,0:0:0:0:
243,55,163747,6,0,B|323:50|319:123|401:113,1,167.999994873047,2|0,3:2|1:0,0:0:0:0:
512,80,164215,1,0,0:0:0:0:
512,80,164372,2,0,P|497:120|488:161,1,83.9999974365235,2|0,3:2|3:0,0:0:0:0:
325,79,164684,2,0,P|341:40|350:-1,1,83.9999974365235,2|0,1:2|3:0,0:0:0:0:
371,197,164997,6,0,B|358:179|344:165|344:165|321:166|302:171,1,83.9999974365235,2|0,0:2|3:0,0:0:0:0:
263,295,165309,2,0,B|275:312|290:327|290:327|313:326|331:320,1,83.9999974365235,2|0,1:2|0:0,0:0:0:0:
222,215,165622,1,2,3:2:0:0:
222,215,165778,1,0,3:0:0:0:
413,279,165934,2,0,P|454:271|495:262,1,83.9999974365235,2|0,1:2|3:0,0:0:0:0:
198,384,166247,5,4,1:2:0:0:
267,299,166403,1,0,3:0:0:0:
198,384,166559,1,2,3:2:0:0:
158,202,166715,5,4,1:2:0:0:
178,289,166871,1,0,3:0:0:0:
158,202,167027,1,0,3:0:0:0:
86,277,167184,6,0,P|127:286|168:298,1,83.9999974365235,2|0,1:2|3:0,0:0:0:0:
296,162,167497,1,4,1:2:0:0:
211,104,167653,1,0,3:0:0:0:
211,104,167731,1,0,3:0:0:0:
211,104,167809,1,6,1:1:0:0:
282,312,168122,5,2,1:0:0:0:
294,314,168200,1,0,1:0:0:0:
306,316,168278,1,0,1:0:0:0:
318,318,168356,1,0,1:0:0:0:
331,332,168434,5,2,1:0:0:0:
351,328,168512,1,0,1:0:0:0:
371,325,168590,1,0,1:0:0:0:
391,322,168668,1,0,1:0:0:0:
409,307,168747,6,0,B|440:260|414:224|408:229|379:184|417:138,2,167.999994873047,6|4|0,3:1|1:2|3:0,2:2:0:0:
248,296,169528,1,0,3:0:0:0:
248,295,169684,2,0,P|286:279|327:267,1,83.9999974365235,2|0,1:2|3:0,0:0:0:0:
149,241,169997,2,0,P|143:282|133:323,1,83.9999974365235,2|0,0:2|3:0,0:0:0:0:
246,183,170309,2,0,P|212:157|182:128,1,83.9999974365235,2|0,1:2|0:0,0:0:0:0:
67,162,170622,1,2,3:2:0:0:
67,162,170778,1,0,3:0:0:0:
173,110,170934,2,0,B|195:59|178:9|113:37|141:67,1,125.999996154785,2|0,1:2|0:0,0:0:0:0:
177,120,171247,6,0,P|258:100|341:86,2,167.999994873047,2|0|0,3:2|1:0|3:0,0:0:0:0:
14,80,172028,1,0,3:0:0:0:
113,0,172184,2,0,P|105:41|100:83,1,83.9999974365235,2|0,1:2|3:0,0:0:0:0:
0,205,172497,2,0,P|22:170|62:158,1,83.9999974365235,2|0,0:2|3:0,0:0:0:0:
224,182,172809,2,0,P|183:170|144:155,1,83.9999974365235,2|0,1:2|0:0,0:0:0:0:
293,73,173122,1,2,3:2:0:0:
293,73,173278,1,0,3:0:0:0:
346,177,173434,2,0,B|338:222|332:264|332:264|331:253|322:226,1,125.999996154785,2|0,1:2|0:0,0:0:0:0:
334,172,173747,6,0,B|392:191|392:191|437:174|495:162,2,167.999994873047,4|0|0,3:2|1:0|3:0,0:0:0:0:
334,172,174528,1,0,3:0:0:0:
390,101,174684,2,0,P|431:89|472:81,1,83.9999974365235,2|0,1:2|3:0,0:0:0:0:
509,247,174997,2,0,P|467:254|427:266,1,83.9999974365235,2|0,0:2|3:0,0:0:0:0:
289,173,175309,2,0,P|330:180|370:192,1,83.9999974365235,2|0,1:2|0:0,0:0:0:0:
213,221,175622,1,2,3:2:0:0:
167,144,175778,1,0,3:0:0:0:
95,192,175934,2,0,P|53:184|13:172,1,83.9999974365235,2|0,1:2|3:0,0:0:0:0:
131,331,176247,5,4,1:2:0:0:
99,196,176403,1,0,3:0:0:0:
131,331,176559,5,0,3:0:0:0:
99,196,176715,1,4,1:2:0:0:
263,106,177184,5,2,1:2:0:0:
231,241,177340,1,0,3:0:0:0:
263,106,177496,5,2,3:2:0:0:
231,241,177652,1,0,1:0:0:0:
132,54,178122,5,8,0:3:0:0:
225,33,178278,5,0,1:0:0:0:
222,20,178356,1,0,1:0:0:0:
216,8,178434,1,2,1:2:0:0:
45,73,178590,5,0,1:0:0:0:
48,86,178668,1,0,1:0:0:0:
54,98,178747,2,0,P|136:111|219:126,2,167.999994873047,4|0|0,3:1|1:0|3:0,0:0:0:0:
130,205,179528,1,0,3:0:0:0:
287,202,179684,6,0,P|324:183|363:168,1,83.9999974365235,2|0,1:2|3:0,0:0:0:0:
197,254,179997,2,0,P|162:230|129:204,1,83.9999974365235,2|0,0:2|3:0,0:0:0:0:
290,301,180309,2,0,P|287:342|280:384,1,83.9999974365235,2|0,1:2|0:0,0:0:0:0:
274,205,180622,1,2,3:2:0:0:
196,264,180778,1,0,3:0:0:0:
366,241,180934,2,0,B|379:199|364:167|364:167|374:189|399:200,1,125.999996154785,2|0,1:2|0:0,0:0:0:0:
426,200,181247,6,0,B|460:160|447:118|420:119|409:67|439:29,1,167.999994873047,6|0,3:2|1:0,0:0:0:0:
512,0,181715,2,0,P|474:18|433:29,1,83.9999974365235,2|0,0:2|3:0,0:0:0:0:
260,115,182028,1,0,3:0:0:0:
260,115,182184,2,0,P|310:128|350:145,2,83.9999974365235,2|0|0,1:2|3:0|0:0,0:0:0:0:
186,34,182653,1,0,3:0:0:0:
71,127,182809,2,0,P|119:111|177:198,1,167.999994873047,2|0,1:2|3:0,0:0:0:0:
156,293,183278,1,0,3:0:0:0:
0,242,183434,2,0,B|45:236|84:223|84:223|59:239|31:259,1,125.999996154785,2|0,1:2|0:0,0:0:0:0:
50,244,183747,6,0,P|48:203|43:161,1,83.9999974365235,2|0,3:2|3:0,0:0:0:0:
118,28,184059,2,0,P|123:69|124:111,1,83.9999974365235,2|0,1:2|0:0,0:0:0:0:
244,237,184372,2,0,P|217:205|178:193,1,83.9999974365235,2|0,3:2|3:0,0:0:0:0:
54,340,184684,2,0,P|94:333|125:304,1,83.9999974365235,2|0,1:2|3:0,0:0:0:0:
125,112,184997,6,0,B|109:159|141:195|179:192|179:192|193:168|220:162,1,167.999994873047,2|0,0:2|1:0,0:0:0:0:
338,278,185465,2,0,P|300:260|259:248,1,83.9999974365235,2|0,0:2|3:0,0:0:0:0:
432,220,185778,1,0,3:0:0:0:
331,284,185934,1,2,1:2:0:0:
428,316,186090,1,0,3:0:0:0:
346,187,186247,5,4,1:2:0:0:
494,155,186403,1,0,3:0:0:0:
346,187,186559,1,0,3:0:0:0:
494,155,186715,1,0,1:0:0:0:
376,32,187184,5,6,1:2:0:0:
228,0,187340,1,0,3:0:0:0:
376,32,187496,1,2,3:2:0:0:
228,0,187652,1,0,1:0:0:0:
271,150,187809,2,0,P|276:108|285:67,1,83.9999974365235,8|4,0:3|0:3,0:0:0:0:
166,170,188122,1,0,1:0:0:0:
339,233,188278,1,0,3:0:0:0:
347,223,188356,1,0,3:0:0:0:
353,212,188434,1,2,1:2:0:0:
318,328,188590,6,0,P|358:260|435:276,1,167.999994873047,4|2,3:1|3:2,0:0:0:0:
310,335,189059,2,0,P|269:323|228:314,1,83.9999974365235,6|2,1:2|0:2,0:0:0:0:
124,336,189372,1,2,3:2:0:0:
30,266,189528,1,2,3:2:0:0:
140,165,189684,2,0,P|128:205|119:246,1,83.9999974365235,0|2,1:0|3:2,0:0:0:0:
55,89,189997,5,2,0:2:0:0:
133,154,190153,1,2,3:2:0:0:
222,35,190309,2,0,P|182:49|142:61,1,83.9999974365235,0|2,1:0|0:2,0:0:0:0:
44,92,190622,1,2,3:2:0:0:
232,125,190778,1,2,3:2:0:0:
243,134,191090,6,0,B|282:162|282:162|330:141|344:95|312:49,1,167.999994873047,6|2,3:2|3:2,0:0:0:0:
150,99,191559,2,0,P|140:140|156:178,1,83.9999974365235,0|2,1:0|3:2,0:0:0:0:
306,237,191872,1,2,1:2:0:0:
197,268,192028,1,2,3:2:0:0:
306,237,192184,2,0,P|321:275|311:315,1,83.9999974365235,0|2,1:0|0:2,0:0:0:0:
214,379,192497,5,2,1:2:0:0:
135,336,192653,1,8,0:3:0:0:
197,268,192809,1,4,0:3:0:0:
124,221,192965,5,2,3:2:0:0:
124,221,193043,1,0,3:0:0:0:
124,221,193122,1,2,1:2:0:0:
191,164,193278,1,2,3:2:0:0:
59,275,193434,1,0,1:0:0:0:
0,126,193590,6,0,P|81:107|162:83,1,167.999994873047,6|2,3:1|3:2,0:0:0:0:
241,96,193981,1,0,3:0:0:0:
253,92,194059,2,0,B|267:52|267:52|234:18,1,83.9999974365235,0|2,1:0|0:2,0:0:0:0:
191,164,194372,1,2,3:2:0:0:
292,238,194528,1,2,3:2:0:0:
400,177,194684,2,0,P|359:166|318:155,1,83.9999974365235,0|2,1:0|3:2,0:0:0:0:
499,71,194997,5,2,0:2:0:0:
426,5,195153,1,2,3:2:0:0:
308,65,195309,2,0,P|320:111|327:147,1,83.9999974365235,0|2,1:0|0:2,0:0:0:0:
375,283,195622,1,2,3:2:0:0:
450,332,195778,1,2,3:2:0:0:
452,316,196090,6,0,B|416:287|374:287|374:287|375:283|375:283|359:324|319:334,1,167.999994873047,6|2,3:2|3:2,0:0:0:0:
197,278,196559,5,2,1:2:0:0:
290,249,196715,1,2,3:2:0:0:
136,206,196872,5,2,1:2:0:0:
290,249,197028,1,2,3:2:0:0:
238,131,197184,5,2,1:2:0:0:
185,287,197340,6,0,B|162:325|162:325|171:268|143:196,1,167.999994873047,6|0,3:2|3:0,0:0:0:0:
72,93,197809,2,0,P|106:115|146:109,1,83.9999974365235,2|2,1:2|0:2,0:0:0:0:
302,22,198122,2,0,P|281:25|261:31,1,41.9999987182618,8|0,0:3|0:0,0:0:0:0:
175,26,198278,1,2,1:2:0:0:
167,16,198356,1,0,1:0:0:0:
163,3,198434,1,0,1:0:0:0:
257,41,198590,6,0,P|305:30|433:25,1,167.999994873047,6|2,3:2|3:2,0:0:0:0:
512,89,199059,1,2,1:2:0:0:
361,170,199215,1,2,0:2:0:0:
455,190,199372,5,0,1:0:0:0:
449,169,199450,1,0,1:0:0:0:
443,148,199528,1,8,0:3:0:0:
437,127,199606,1,8,0:3:0:0:
431,106,199684,1,4,0:3:0:0:
390,259,199840,6,0,P|437:269|484:284,1,97.9999970092774,6|0,3:1|0:0,0:0:0:0:
