osu file format v14

[General]
AudioFilename: audio.mp3
AudioLeadIn: 0
PreviewTime: 18551
Countdown: 1
SampleSet: Normal
StackLeniency: 0.7
Mode: 0
LetterboxInBreaks: 0
WidescreenStoryboard: 0

[Editor]
Bookmarks: 2551,18526,50526,66526,98551,106551,130526,146551,162551
DistanceSpacing: 1
BeatDivisor: 4
GridSize: 4
TimelineZoom: 1

[Metadata]
Title:Playgirl
TitleUnicode:Playgirl
Artist:Ladytron
ArtistUnicode:Ladytron
Creator:Arphimigon
Version:Insane
Source:
Tags:cut shortened short 2001 604 english electronic
BeatmapID:1115470
BeatmapSetID:525604

[Difficulty]
HPDrainRate:6
CircleSize:7
OverallDifficulty:6
ApproachRate:6
SliderMultiplier:1.46
SliderTickRate:1

[Events]
//Background and Video events
0,0,"kekgirl.jpg",0,0
//Break Periods
2,98751,104601
//Storyboard Layer 0 (Background)
//Storyboard Layer 1 (Fail)
//Storyboard Layer 2 (Pass)
//Storyboard Layer 3 (Foreground)
//Storyboard Layer 4 (Overlay)
//Storyboard Sound Samples

[TimingPoints]
2551,500,4,1,1,60,1,0

[Colours]
Combo1 : 185,185,185
Combo2 : 45,45,45

[HitObjects]
111,80,2551,6,0,L|184:80,1,73,0|0,1:0|1:0,1:0:0:0:
256,80,3051,1,8,1:0:0:0:
256,86,3176,2,0,L|256:182,1,73,0|0,1:0|1:0,1:0:0:0:
256,198,3551,1,4,1:3:0:0:
256,270,3801,1,0,1:0:0:0:
256,342,4051,1,8,1:0:0:0:
400,342,4551,6,0,L|400:269,1,73,4|0,1:3|1:0,1:0:0:0:
400,198,5051,1,8,1:0:0:0:
400,192,5176,2,0,L|400:120,1,73,0|0,1:0|1:0,1:0:0:0:
400,80,5551,1,4,1:3:0:0:
256,80,5801,1,8,1:0:0:0:
406,80,6051,1,8,1:0:0:0:
160,192,6551,6,0,L|160:272,1,73,4|0,1:3|1:0,1:0:0:0:
210,320,7051,1,8,1:0:0:0:
216,320,7176,2,0,L|296:320,1,73,0|0,1:0|1:0,1:0:0:0:
328,320,7551,1,4,1:3:0:0:
368,256,7801,1,0,1:0:0:0:
328,192,8051,1,8,1:0:0:0:
368,128,8301,5,0,1:0:0:0:
348,96,8426,1,0,1:0:0:0:
328,64,8551,2,0,L|255:64,1,73,4|0,1:3|1:0,1:0:0:0:
256,137,9051,1,8,1:0:0:0:
256,143,9176,2,0,L|256:243,1,73,0|0,1:0|1:0,1:0:0:0:
256,252,9551,1,4,1:3:0:0:
332,343,9801,1,8,1:0:0:0:
180,343,10051,2,0,L|70:343,1,109.5,8|0,1:0|1:0,1:0:0:0:
71,307,10551,6,0,L|71:223,1,73,4|0,1:3|1:0,1:0:0:0:
70,160,11051,1,8,1:0:0:0:
76,160,11176,2,0,L|152:160,1,73,0|0,1:0|1:0,1:0:0:0:
184,160,11551,1,4,1:3:0:0:
256,160,11801,1,0,1:0:0:0:
328,160,12051,1,8,1:0:0:0:
318,232,12301,5,0,1:0:0:0:
302,264,12426,1,0,1:0:0:0:
286,296,12551,2,0,L|210:296,1,73,4|0,1:3|1:0,1:0:0:0:
142,300,13051,1,8,1:0:0:0:
142,294,13176,2,0,L|142:210,1,73,0|0,1:0|1:0,1:0:0:0:
142,186,13551,1,4,1:3:0:0:
185,64,13801,1,8,1:0:0:0:
228,186,14051,1,8,1:0:0:0:
302,164,14301,5,0,1:0:0:0:
338,164,14426,1,0,1:0:0:0:
374,164,14551,2,0,L|374:88,1,73,4|0,1:3|1:0,1:0:0:0:
374,20,15051,1,8,1:0:0:0:
368,20,15176,2,0,L|296:20,1,73,0|0,1:0|1:0,1:0:0:0:
256,20,15551,1,4,1:3:0:0:
256,92,15801,1,0,1:0:0:0:
256,164,16051,1,8,1:0:0:0:
256,236,16301,5,0,1:0:0:0:
256,272,16426,1,0,1:0:0:0:
256,308,16551,2,0,L|180:308,1,73,4|0,1:3|1:0,1:0:0:0:
142,236,17051,1,8,1:0:0:0:
148,236,17176,2,0,L|220:236,1,73,0|0,1:0|1:0,1:0:0:0:
256,236,17551,1,4,1:3:0:0:
328,172,17801,1,8,1:0:0:0:
184,172,18051,1,8,1:0:0:0:
256,108,18301,5,0,1:0:0:0:
256,72,18426,1,0,1:0:0:0:
256,36,18551,1,4,1:3:0:0:
112,36,19051,1,8,1:3:0:0:
40,160,19551,2,0,B|40:200|40:200|92:252|92:252|124:252,1,146,4|8,1:3|1:3,1:0:0:0:
256,192,20551,5,4,1:3:0:0:
256,264,20801,1,0,1:0:0:0:
328,264,21051,1,8,1:3:0:0:
328,192,21301,2,0,L|328:46,1,146,0|8,1:0|1:0,1:0:0:0:
470,46,22051,1,8,1:0:0:0:
399,46,22301,1,0,1:0:0:0:
400,119,22551,5,4,1:3:0:0:
399,192,22801,2,0,L|399:276,1,73,0|8,1:0|1:3,1:0:0:0:
451,316,23301,2,0,B|399:368|399:368|347:316,1,146,0|0,1:0|1:0,1:0:0:0:
295,264,24051,1,8,1:3:0:0:
184,284,24551,5,4,1:3:0:0:
112,264,24801,2,0,L|112:180,1,73,0|8,1:0|1:3,1:0:0:0:
60,140,25301,2,0,B|112:88|112:88|163:139,1,146,0|8,1:0|1:0,1:0:0:0:
209,247,26051,1,8,1:0:0:0:
256,140,26301,5,0,1:0:0:0:
256,104,26426,1,0,1:0:0:0:
256,68,26551,1,4,1:3:0:0:
400,64,27051,1,8,1:3:0:0:
328,192,27551,2,0,B|328:232|328:232|352:256|352:256|328:280|328:280|328:324,1,146,4|8,1:3|1:3,1:0:0:0:
184,318,28551,5,4,1:3:0:0:
112,320,28801,1,0,1:0:0:0:
148,380,29051,1,8,1:3:0:0:
184,318,29301,2,0,B|184:280|184:280|160:256|160:256|184:232|184:232|184:192,1,146,0|8,1:0|1:0,1:0:0:0:
75,120,30051,1,8,1:0:0:0:
184,47,30301,1,0,1:0:0:0:
256,23,30551,5,4,1:3:0:0:
328,47,30801,1,0,1:0:0:0:
328,120,31051,1,8,1:3:0:0:
256,144,31301,2,0,L|256:292,1,146,0|0,1:0|1:0,1:0:0:0:
256,360,32051,1,8,1:3:0:0:
172,232,32551,5,4,1:3:0:0:
112,192,32801,2,0,L|36:192,1,73,0|8,1:0|1:3,1:0:0:0:
40,120,33301,2,0,L|116:120,1,73,0|4,1:0|1:3,1:0:0:0:
184,11,33801,1,8,1:0:0:0:
256,120,34051,1,8,1:0:0:0:
256,192,34301,5,0,1:0:0:0:
292,192,34426,1,0,1:0:0:0:
328,192,34551,1,4,1:3:0:0:
184,192,35051,1,8,1:3:0:0:
328,192,35551,2,0,B|328:268|328:268|256:268,1,146,4|8,1:3|1:3,1:0:0:0:
256,124,36551,5,4,1:3:0:0:
256,192,36801,1,0,1:0:0:0:
184,192,37051,1,8,1:3:0:0:
112,192,37301,2,0,L|112:46,1,146,0|8,1:0|1:0,1:0:0:0:
184,143,38051,1,8,1:0:0:0:
256,46,38301,1,0,1:0:0:0:
328,46,38551,5,4,1:3:0:0:
256,59,38801,2,0,L|256:135,1,73,0|8,1:0|1:3,1:0:0:0:
256,207,39301,2,0,B|308:259|308:259|256:311,1,146,0|0,1:0|1:0,1:0:0:0:
204,259,40051,2,0,B|256:207,1,73,8|0,1:3|1:0,1:0:0:0:
256,132,40551,5,4,1:3:0:0:
204,84,40801,2,0,L|131:84,1,73,0|8,1:0|1:3,1:0:0:0:
131,156,41301,2,0,L|131:302,1,146,0|8,1:0|1:0,1:0:0:0:
256,302,42051,1,8,1:0:0:0:
256,229,42301,5,0,1:0:0:0:
256,193,42426,1,0,1:0:0:0:
256,157,42551,1,4,1:3:0:0:
256,11,43051,2,0,L|412:11,2,146,8|4|8,1:3|1:3|1:3,1:0:0:0:
112,40,44551,5,4,1:3:0:0:
88,108,44801,1,8,1:3:0:0:
144,156,45051,1,4,1:3:0:0:
144,228,45301,1,4,1:3:0:0:
180,218,45426,1,4,1:3:0:0:
216,208,45551,1,8,1:3:0:0:
256,268,45801,1,4,1:3:0:0:
296,208,46051,1,8,1:3:0:0:
368,228,46301,5,8,1:3:0:0:
368,192,46426,1,8,1:3:0:0:
368,156,46551,1,4,1:3:0:0:
424,108,46801,1,0,1:0:0:0:
400,40,47051,1,8,1:3:0:0:
329,60,47301,2,0,L|257:60,1,73,0|4,1:0|1:3,1:0:0:0:
220,0,47801,1,0,1:0:0:0:
183,60,48051,2,0,L|255:60,1,73,8|0,1:3|1:0,1:0:0:0:
256,132,48551,5,4,1:3:0:0:
256,204,48801,2,0,L|204:256,1,73,0|8,1:0|1:3,1:0:0:0:
132,256,49301,2,0,B|80:204|80:204|131:152,1,146,0|8,1:0|1:0,1:0:0:0:
256,152,50051,1,8,1:0:0:0:
256,79,50301,5,0,1:0:0:0:
256,43,50426,1,0,1:0:0:0:
256,7,50551,2,0,L|183:7,1,73,4|0,1:3|1:0,1:0:0:0:
142,77,51051,1,8,1:0:0:0:
142,83,51176,2,0,L|142:178,1,73,0|0,1:0|1:0,1:0:0:0:
142,192,51551,1,4,1:3:0:0:
199,238,51801,1,0,1:0:0:0:
256,192,52051,1,8,1:0:0:0:
346,306,52551,5,4,1:3:0:0:
274,321,52801,1,0,1:0:0:0:
202,336,53051,1,8,1:0:0:0:
131,353,53301,1,0,1:0:0:0:
128,280,53551,1,4,1:3:0:0:
256,238,53801,1,8,1:0:0:0:
125,207,54051,1,8,1:0:0:0:
256,98,54551,6,0,L|328:97,1,73,4|0,1:3|1:0,1:0:0:0:
372,149,55051,1,8,1:0:0:0:
372,155,55176,2,0,L|372:227,1,73,0|0,1:0|1:0,1:0:0:0:
372,264,55551,1,4,1:3:0:0:
300,250,55801,1,0,1:0:0:0:
256,192,56051,1,8,1:0:0:0:
208,328,56551,5,4,1:3:0:0:
136,314,56801,1,0,1:0:0:0:
92,256,57051,1,8,1:0:0:0:
128,192,57301,1,0,1:0:0:0:
92,128,57551,1,4,1:3:0:0:
92,0,57801,1,8,1:0:0:0:
208,56,58051,2,0,L|324:56,1,109.5,8|0,1:0|1:0,1:0:0:0:
352,56,58551,6,0,L|352:128,1,73,4|0,1:3|1:0,1:0:0:0:
352,200,59051,1,8,1:0:0:0:
256,308,59551,2,0,L|256:236,1,73,4|0,1:3|1:0,1:0:0:0:
256,164,60051,1,8,1:0:0:0:
160,56,60551,6,0,L|160:128,1,73,4|0,1:3|1:0,1:0:0:0:
160,200,61051,1,8,1:0:0:0:
184,344,61551,1,4,1:3:0:0:
256,225,61801,1,8,1:0:0:0:
328,344,62051,1,8,1:0:0:0:
392,212,62551,6,0,L|392:92,1,109.5,4|0,1:3|1:0,1:0:0:0:
356,104,63051,2,0,L|356:224,1,109.5,8|0,1:0|1:0,1:0:0:0:
320,212,63551,2,0,L|320:92,1,109.5,4|0,1:3|1:0,1:0:0:0:
300,72,64051,1,8,1:0:0:0:
256,12,64301,1,0,1:0:0:0:
212,68,64551,5,4,1:3:0:0:
256,128,64801,1,0,1:0:0:0:
300,72,65051,1,8,1:0:0:0:
256,12,65301,2,0,L|180:12,1,73,0|4,1:0|1:3,1:0:0:0:
88,102,65801,1,8,1:0:0:0:
200,102,66051,1,8,1:0:0:0:
118,200,66301,5,0,1:0:0:0:
106,236,66426,1,0,1:0:0:0:
94,268,66551,1,4,1:3:0:0:
223,331,67051,1,8,1:3:0:0:
256,192,67551,2,0,L|256:36,1,146,4|8,1:3|1:3,1:0:0:0:
400,44,68551,5,4,1:3:0:0:
400,117,68801,1,0,1:0:0:0:
400,190,69051,1,8,1:3:0:0:
400,263,69301,2,0,B|400:336|400:336|328:336,1,146,0|4,1:0|1:3,1:0:0:0:
256,332,70051,1,0,1:3:0:0:
256,192,70551,5,4,1:3:0:0:
256,180,70801,1,0,1:0:0:0:
156,84,71301,2,0,B|12:84|12:84|12:232|12:232|96:232,1,365,0|4,1:0|1:3,1:0:0:0:
400,264,73551,1,4,1:3:0:0:
400,120,74051,1,8,1:3:0:0:
256,120,74551,5,4,1:3:0:0:
256,264,75051,1,8,1:3:0:0:
256,120,75551,2,0,B|256:48|256:48|172:48,1,146,4|8,1:3|1:3,1:0:0:0:
184,192,76551,5,4,1:3:0:0:
184,264,76801,1,0,1:0:0:0:
184,336,77051,1,8,1:3:0:0:
256,338,77301,2,0,L|256:192,1,146,0|4,1:0|1:3,1:0:0:0:
256,120,78051,1,8,1:3:0:0:
356,16,78551,5,4,1:3:0:0:
368,16,78801,1,0,1:0:0:0:
396,156,79301,2,0,B|344:208|344:208|344:280|344:280|292:332|292:332|220:332|220:332|168:280,1,365,0|4,1:0|1:3,1:0:0:0:
168,72,81551,1,4,1:3:0:0:
256,192,82051,1,8,1:3:0:0:
344,72,82551,5,4,1:3:0:0:
256,192,83051,1,8,1:3:0:0:
256,336,83551,2,0,B|328:336|328:336|380:284,1,146,4|8,1:3|1:3,1:0:0:0:
256,192,84551,5,4,1:3:0:0:
328,192,84801,1,0,1:0:0:0:
328,264,85051,1,8,1:3:0:0:
256,264,85301,2,0,L|104:264,1,146,0|4,1:0|1:3,1:0:0:0:
36,260,86051,1,8,1:3:0:0:
36,124,86551,5,4,1:3:0:0:
48,124,86801,1,0,1:0:0:0:
164,192,87301,2,0,B|308:192|308:192|256:140|256:140|256:68|256:68|336:68,1,365,0|4,1:0|1:3,1:0:0:0:
400,336,89551,1,4,1:3:0:0:
256,336,90051,1,8,1:3:0:0:
112,336,90551,5,4,1:3:0:0:
256,336,91051,1,8,1:3:0:0:
256,192,91551,2,0,L|256:40,1,146,4|8,1:3|1:3,1:0:0:0:
110,44,92551,5,4,1:3:0:0:
38,44,92801,1,0,1:0:0:0:
38,116,93051,1,8,1:3:0:0:
110,116,93301,2,0,L|256:116,1,146,0|4,1:0|1:3,1:0:0:0:
329,116,94051,1,8,1:3:0:0:
256,244,94551,5,4,1:3:0:0:
256,232,94801,1,0,1:0:0:0:
256,96,95301,2,0,B|308:44|308:44|380:44|380:44|428:92|428:92|348:92|348:92|348:168,1,365,0|4,1:0|1:3,1:0:0:0:
57,192,97551,5,4,1:3:0:0:
120,307,97801,1,8,1:0:0:0:
183,192,98051,2,0,L|292:192,1,109.5,8|0,1:0|1:0,1:0:0:0:
329,192,98551,1,0,1:0:0:0:
220,328,105801,5,0,1:0:0:0:
292,328,106051,1,0,1:0:0:0:
256,264,106301,5,0,1:0:0:0:
256,228,106426,1,0,1:0:0:0:
256,192,106551,2,0,L|256:96,1,73,4|0,1:3|1:0,1:0:0:0:
256,48,107051,1,8,1:0:0:0:
384,120,107551,2,0,L|384:193,1,73,4|0,1:3|1:0,1:0:0:0:
384,264,108051,1,8,1:0:0:0:
256,192,108551,2,0,L|256:265,1,73,4|0,1:3|1:0,1:0:0:0:
256,336,109051,1,8,1:0:0:0:
128,264,109551,1,4,1:3:0:0:
128,120,109801,1,8,1:0:0:0:
128,270,110051,1,8,1:0:0:0:
256,48,110551,6,0,L|372:48,1,109.5,4|0,1:3|1:0,1:0:0:0:
392,76,111051,2,0,L|280:76,1,109.5,8|0,1:0|1:0,1:0:0:0:
256,104,111551,2,0,L|376:104,1,109.5,4|0,1:3|1:0,1:0:0:0:
392,132,112051,1,8,1:0:0:0:
392,204,112301,1,0,1:0:0:0:
328,236,112551,5,4,1:3:0:0:
328,308,112801,2,0,L|256:308,1,73,0|8,1:0|1:0,1:0:0:0:
256,236,113301,2,0,L|256:80,1,146,0|8,1:0|1:0,1:0:0:0:
256,16,114051,2,0,L|144:16,1,109.5,8|0,1:0|1:0,1:0:0:0:
112,16,114551,6,0,L|112:100,1,73,4|0,1:3|1:0,1:0:0:0:
112,154,115051,1,8,1:0:0:0:
112,160,115176,2,0,L|112:240,1,73,0|0,1:0|1:0,1:0:0:0:
112,268,115551,1,4,1:3:0:0:
184,268,115801,1,0,1:0:0:0:
256,268,116051,1,8,1:0:0:0:
256,113,116551,5,4,1:3:0:0:
328,113,116801,1,0,1:0:0:0:
400,113,117051,1,8,1:0:0:0:
400,188,117301,1,0,1:0:0:0:
328,188,117551,1,4,1:3:0:0:
328,332,117801,1,8,1:0:0:0:
328,182,118051,1,8,1:0:0:0:
184,272,118551,6,0,L|108:272,1,73,4|0,1:3|1:0,1:0:0:0:
44,306,119051,1,8,1:0:0:0:
44,300,119176,2,0,L|44:220,1,73,0|0,1:0|1:0,1:0:0:0:
44,192,119551,1,4,1:3:0:0:
116,192,119801,1,0,1:0:0:0:
188,192,120051,1,8,1:0:0:0:
256,48,120551,5,4,1:3:0:0:
256,120,120801,1,0,1:0:0:0:
256,192,121051,1,8,1:0:0:0:
328,192,121301,1,0,1:0:0:0:
328,120,121551,1,4,1:3:0:0:
256,48,121801,1,8,1:0:0:0:
400,48,122051,2,0,L|400:160,1,109.5,8|0,1:0|1:0,1:0:0:0:
400,192,122551,6,0,L|400:280,1,73,4|0,1:3|1:0,1:0:0:0:
336,306,123051,1,8,1:0:0:0:
336,300,123176,2,0,L|336:212,1,73,0|0,1:0|1:0,1:0:0:0:
336,192,123551,1,4,1:3:0:0:
296,132,123801,1,0,1:0:0:0:
256,192,124051,1,8,1:0:0:0:
156,92,124551,5,4,1:3:0:0:
116,152,124801,1,0,1:0:0:0:
76,92,125051,1,8,1:0:0:0:
122,152,125301,1,0,1:0:0:0:
51,192,125551,1,4,1:3:0:0:
173,242,125801,1,8,1:0:0:0:
51,292,126051,1,8,1:0:0:0:
220,324,126551,6,0,L|293:324,1,73,4|0,1:3|1:0,1:0:0:0:
256,266,127051,1,8,1:0:0:0:
256,260,127176,2,0,L|256:188,1,73,0|0,1:0|1:0,1:0:0:0:
256,152,127551,1,4,1:3:0:0:
324,128,127801,1,0,1:0:0:0:
392,104,128051,1,8,1:0:0:0:
464,232,128551,5,4,1:3:0:0:
396,256,128801,1,0,1:0:0:0:
328,280,129051,1,8,1:0:0:0:
256,268,129301,1,0,1:0:0:0:
188,292,129551,1,4,1:3:0:0:
125,384,129801,1,8,1:0:0:0:
48,304,130051,2,0,B|48:192,1,109.5,8|0,1:0|1:0,1:0:0:0:
48,160,130551,6,0,L|48:72,1,73,4|0,1:3|1:0,1:0:0:0:
48,16,131051,1,8,1:0:0:0:
184,16,131551,2,0,L|184:104,1,73,4|0,1:3|1:0,1:0:0:0:
184,160,132051,1,8,1:0:0:0:
320,160,132551,2,0,L|320:88,1,73,4|0,1:3|1:0,1:0:0:0:
320,16,133051,1,8,1:0:0:0:
464,16,133551,1,4,1:3:0:0:
320,87,133801,1,8,1:0:0:0:
464,160,134051,1,8,1:0:0:0:
412,296,134551,6,0,B|340:296|340:296|312:324,1,109.5,4|0,1:3|1:0,1:0:0:0:
288,296,135051,2,0,B|261:322|261:322|189:322,1,109.5,8|0,1:0|1:0,1:0:0:0:
164,296,135551,2,0,B|92:296|92:296|64:324,1,109.5,4|0,1:3|1:0,1:0:0:0:
40,296,136051,1,8,1:0:0:0:
88,244,136301,1,0,1:0:0:0:
136,192,136551,5,4,1:3:0:0:
184,244,136801,1,0,1:0:0:0:
232,296,137051,1,8,1:0:0:0:
280,244,137301,2,0,L|368:244,1,73,0|4,1:0|1:3,1:0:0:0:
464,152,137801,1,8,1:0:0:0:
464,270,138051,1,8,1:0:0:0:
464,146,138301,5,0,1:0:0:0:
464,110,138426,1,0,1:0:0:0:
464,74,138551,2,0,L|392:74,1,73,4|0,1:3|1:0,1:0:0:0:
320,74,139051,1,8,1:0:0:0:
228,192,139551,2,0,L|156:192,1,73,4|0,1:3|1:0,1:0:0:0:
84,192,140051,1,8,1:0:0:0:
176,304,140551,2,0,L|248:304,1,73,4|0,1:3|1:0,1:0:0:0:
320,304,141051,1,8,1:0:0:0:
400,192,141551,1,4,1:3:0:0:
328,78,141801,1,8,1:0:0:0:
256,192,142051,1,8,1:0:0:0:
144,100,142551,6,0,B|72:100|72:100|100:128,1,109.5,4|0,1:3|1:0,1:0:0:0:
128,148,143051,2,0,B|200:148|200:148|172:176,1,109.5,8|0,1:0|1:0,1:0:0:0:
148,200,143551,2,0,B|76:200|76:200|104:228,1,109.5,4|0,1:3|1:0,1:0:0:0:
128,252,144051,1,8,1:0:0:0:
180,304,144301,1,0,1:0:0:0:
216,240,144551,5,4,1:3:0:0:
256,300,144801,1,0,1:0:0:0:
296,240,145051,1,8,1:0:0:0:
332,304,145301,1,0,1:0:0:0:
384,252,145551,1,4,1:3:0:0:
494,188,145801,1,8,1:0:0:0:
384,124,146051,1,8,1:0:0:0:
328,76,146301,5,0,1:0:0:0:
292,64,146426,1,0,1:0:0:0:
256,52,146551,2,0,L|180:52,1,73,4|0,1:3|1:0,1:0:0:0:
112,52,147051,1,8,1:0:0:0:
112,58,147176,2,0,L|112:138,1,73,0|0,1:0|1:0,1:0:0:0:
112,166,147551,1,4,1:3:0:0:
112,238,147801,1,0,1:0:0:0:
112,310,148051,1,8,1:0:0:0:
256,328,148551,5,4,1:3:0:0:
220,264,148801,2,0,L|293:264,1,73,0|8,1:0|1:0,1:0:0:0:
256,200,149301,2,0,L|256:44,1,146,0|8,1:0|1:0,1:0:0:0:
328,36,150051,1,8,1:0:0:0:
424,148,150551,6,0,L|424:228,1,73,4|0,1:3|1:0,1:0:0:0:
356,238,151051,1,8,1:0:0:0:
356,244,151176,2,0,L|356:336,1,73,0|0,1:0|1:0,1:0:0:0:
356,352,151551,1,4,1:3:0:0:
284,336,151801,1,0,1:0:0:0:
256,268,152051,1,8,1:0:0:0:
256,120,152551,5,4,1:3:0:0:
256,192,152801,2,0,L|180:192,1,73,0|8,1:0|1:0,1:0:0:0:
256,192,153301,2,0,L|420:192,1,146,0|8,1:0|1:0,1:0:0:0:
476,192,154051,1,8,1:0:0:0:
440,260,154301,5,0,1:0:0:0:
428,296,154426,1,0,1:0:0:0:
416,328,154551,2,0,L|340:328,1,73,4|0,1:3|1:0,1:0:0:0:
272,328,155051,1,8,1:0:0:0:
388,240,155551,2,0,L|312:240,1,73,4|0,1:3|1:0,1:0:0:0:
244,240,156051,1,8,1:0:0:0:
356,152,156551,2,0,L|280:152,1,73,4|0,1:3|1:0,1:0:0:0:
212,152,157051,1,8,1:0:0:0:
328,64,157551,1,4,1:3:0:0:
184,64,157801,1,8,1:0:0:0:
334,64,158051,1,8,1:0:0:0:
112,184,158551,6,0,B|112:220|112:220|148:220|148:220|148:182,1,109.5,4|0,1:3|1:0,1:0:0:0:
184,184,159051,2,0,B|184:148|184:148|220:148|220:148|220:185,1,109.5,8|0,1:0|1:0,1:0:0:0:
256,184,159551,2,0,B|256:220|256:220|292:220|292:220|292:182,1,109.5,4|0,1:3|1:0,1:0:0:0:
292,144,160051,1,8,1:0:0:0:
360,176,160301,1,0,1:0:0:0:
428,208,160551,5,4,1:3:0:0:
366,250,160801,1,0,1:0:0:0:
304,293,161051,1,8,1:0:0:0:
298,218,161301,1,0,1:0:0:0:
292,143,161551,1,4,1:3:0:0:
428,208,161801,1,8,1:0:0:0:
286,144,162051,1,8,1:0:0:0:
360,176,162301,1,0,1:0:0:0:
363,212,162426,1,0,1:0:0:0:
366,248,162551,1,4,1:3:0:0:
