osu file format v14

[General]
AudioFilename: audio.mp3
AudioLeadIn: 0
PreviewTime: 18551
Countdown: 1
SampleSet: Normal
StackLeniency: 0.6
Mode: 0
LetterboxInBreaks: 0
WidescreenStoryboard: 1

[Editor]
Bookmarks: 2551,18526,50551,66526,98551,106551,130526,146551,162551
DistanceSpacing: 1
BeatDivisor: 4
GridSize: 4
TimelineZoom: 1

[Metadata]
Title:Playgirl
TitleUnicode:Playgirl
Artist:Ladytron
ArtistUnicode:Ladytron
Creator:Arphimigon
Version:Hard
Source:
Tags:cut shortened short 2001 604 english electronic
BeatmapID:1115469
BeatmapSetID:525604

[Difficulty]
HPDrainRate:5
CircleSize:6
OverallDifficulty:5
ApproachRate:5
SliderMultiplier:1.46
SliderTickRate:1

[Events]
//Background and Video events
0,0,"kekgirl.jpg",0,0
//Break Periods
2,98751,105351
//Storyboard Layer 0 (Background)
//Storyboard Layer 1 (Fail)
//Storyboard Layer 2 (Pass)
//Storyboard Layer 3 (Foreground)
//Storyboard Layer 4 (Overlay)
//Storyboard Sound Samples

[TimingPoints]
2551,500,4,1,1,60,1,0

[Colours]
Combo1 : 185,185,185
Combo2 : 45,45,45

[HitObjects]
72,48,2551,6,0,L|72:136,1,73,4|0,0:3|0:0,0:0:0:0:
76,192,3051,1,8,0:1:0:0:
82,192,3176,2,0,L|194:192,1,109.5,0|4,0:0|0:3,0:0:0:0:
300,100,4051,1,8,0:1:0:0:
440,48,4551,6,0,L|440:136,1,73,4|0,0:3|0:0,0:0:0:0:
436,192,5051,1,8,0:1:0:0:
430,192,5176,2,0,L|314:192,1,109.5
256,192,5801,1,8,0:1:0:0:
256,119,6051,1,8,0:1:0:0:
126,80,6551,6,0,L|54:80,1,73,4|0,0:3|0:0,0:0:0:0:
36,152,7051,1,8,0:1:0:0:
42,152,7176,2,0,L|162:152,1,109.5,0|4,0:0|0:3,0:0:0:0:
256,56,8051,1,8,0:1:0:0:
388,80,8551,6,0,L|460:80,1,73,4|0,0:3|0:0,0:0:0:0:
484,152,9051,1,8,0:1:0:0:
478,152,9176,2,0,L|362:152,1,109.5
346,218,9801,1,8,0:1:0:0:
340,218,10051,2,0,L|224:218,1,109.5,8|0,0:1|0:0,0:0:0:0:
196,218,10551,6,0,L|196:302,1,73,4|0,0:3|0:0,0:0:0:0:
140,332,11051,1,8,0:1:0:0:
134,332,11176,2,0,B|62:332|62:332|62:288,1,109.5,0|4,0:0|0:3,0:0:0:0:
66,148,12051,1,8,0:1:0:0:
66,76,12301,5,0,0:0:0:0:
66,76,12426,1,0,0:0:0:0:
66,76,12551,2,0,L|138:76,1,73,4|0,0:3|0:0,0:0:0:0:
194,28,13051,1,8,0:1:0:0:
200,28,13176,2,0,L|309:28,1,109.5,0|4,0:0|0:3,0:0:0:0:
384,28,13801,1,8,0:1:0:0:
419,91,14051,1,8,0:1:0:0:
352,96,14301,5,0,0:0:0:0:
352,102,14426,1,0,0:0:0:0:
352,108,14551,2,0,L|352:184,1,73,4|0,0:3|0:0,0:0:0:0:
352,258,15051,1,8,0:1:0:0:
346,258,15176,2,0,B|274:258|274:258|274:302,1,109.5,0|4,0:0|0:3,0:0:0:0:
136,294,16051,1,8,0:1:0:0:
184,239,16301,5,0,0:0:0:0:
184,233,16426,1,0,0:0:0:0:
184,227,16551,2,0,L|184:143,1,73,4|0,0:3|0:0,0:0:0:0:
184,91,17051,1,8,0:1:0:0:
190,91,17176,2,0,B|262:91|262:91|262:53,1,109.5,0|4,0:0|0:3,0:0:0:0:
333,30,17801,1,8,0:1:0:0:
406,30,18051,1,8,0:1:0:0:
376,99,18301,5,0,0:0:0:0:
376,105,18426,1,0,0:0:0:0:
376,111,18551,2,0,L|376:263,1,146,4|8,0:3|0:3,0:0:0:0:
256,152,19551,2,0,L|256:304,1,146,4|8,0:3|0:3,0:0:0:0:
112,300,20551,2,0,L|40:300,2,73,4|0|8,0:3|0:0|0:3,0:0:0:0:
180,276,21301,2,0,L|180:130,1,146,0|8,0:0|0:1,0:0:0:0:
184,56,22051,1,8,0:1:0:0:
256,32,22301,1,0,0:0:0:0:
328,56,22551,5,4,0:3:0:0:
332,135,22801,2,0,L|332:208,1,73,0|8,0:0|0:3,0:0:0:0:
400,232,23301,2,0,B|256:232|256:232|256:332,1,219,0|8,0:0|0:3,0:0:0:0:
136,220,24551,5,4,0:3:0:0:
184,168,24801,2,0,L|184:88,1,73,0|8,0:0|0:3,0:0:0:0:
184,24,25301,2,0,B|256:24|256:24|256:98,1,146,0|8,0:0|0:1,0:0:0:0:
256,172,26051,1,8,0:1:0:0:
256,244,26301,5,0,0:0:0:0:
256,250,26426,1,0,0:0:0:0:
256,256,26551,2,0,L|424:256,1,146,4|8,0:3|0:3,0:0:0:0:
256,256,27551,2,0,L|88:256,1,146,4|8,0:3|0:3,0:0:0:0:
256,320,28551,2,0,L|332:320,2,73,4|0|8,0:3|0:0|0:3,0:0:0:0:
183,320,29301,2,0,L|184:164,1,146,0|8,0:0|0:1,0:0:0:0:
184,100,30051,1,8,0:1:0:0:
120,68,30301,1,0,0:0:0:0:
56,104,30551,6,0,L|56:177,2,73,4|0|8,0:3|0:0|0:3,0:0:0:0:
120,68,31301,2,0,L|364:68,1,219,0|8,0:0|0:3,0:0:0:0:
427,192,32551,5,4,0:3:0:0:
355,192,32801,2,0,L|279:192,1,73,0|8,0:0|0:3,0:0:0:0:
256,120,33301,2,0,L|256:280,1,146,0|8,0:0|0:1,0:0:0:0:
256,340,34051,1,8,0:1:0:0:
192,304,34301,5,0,0:0:0:0:
186,304,34426,1,0,0:0:0:0:
180,304,34551,2,0,B|108:304|108:304|108:224,1,146,4|8,0:3|0:3,0:0:0:0:
180,80,35551,2,0,B|108:80|108:80|108:160,1,146,4|8,0:3|0:3,0:0:0:0:
256,192,36551,2,0,L|332:192,2,73,4|0|8,0:3|0:0|0:3,0:0:0:0:
256,120,37301,2,0,L|408:120,1,146,0|8,0:0|0:1,0:0:0:0:
476,120,38051,1,8,0:1:0:0:
456,192,38301,1,0,0:0:0:0:
476,264,38551,5,4,0:3:0:0:
456,336,38801,2,0,L|383:336,1,73,0|8,0:0|0:3,0:0:0:0:
312,336,39301,2,0,B|312:192|312:192|236:192,1,219,0|8,0:0|0:3,0:0:0:0:
256,48,40551,5,4,0:3:0:0:
324,72,40801,2,0,L|400:72,1,73,0|8,0:0|0:3,0:0:0:0:
452,24,41301,2,0,B|504:76|504:76|452:127,1,146,0|8,0:0|0:1,0:0:0:0:
392,168,42051,1,8,0:1:0:0:
324,192,42301,5,0,0:0:0:0:
324,198,42426,1,0,0:0:0:0:
324,204,42551,2,0,L|324:372,1,146,4|8,0:3|0:3,0:0:0:0:
188,350,43551,2,0,L|188:204,1,146,4|8,0:3|0:3,0:0:0:0:
200,48,44551,6,0,L|120:48,1,73,4|0,0:3|0:0,0:0:0:0:
68,88,45051,1,8,0:3:0:0:
124,136,45301,1,4,0:3:0:0:
124,142,45426,1,4,0:3:0:0:
124,148,45551,2,0,L|124:221,1,73,8|0,0:3|0:0,0:0:0:0:
161,284,46051,1,8,0:3:0:0:
198,221,46301,5,8,0:3:0:0:
204,221,46426,1,8,0:3:0:0:
210,221,46551,2,0,L|290:221,2,73,4|0|8,0:3|0:0|0:3,0:0:0:0:
228,288,47301,2,0,B|376:288|376:288|376:212,1,219,0|8,0:0|0:3,0:0:0:0:
320,84,48551,5,4,0:3:0:0:
256,48,48801,2,0,L|256:124,1,73,0|8,0:0|0:3,0:0:0:0:
192,84,49301,2,0,L|46:84,1,146,0|8,0:0|0:1,0:0:0:0:
44,156,50051,1,8,0:1:0:0:
44,228,50301,5,0,0:0:0:0:
44,234,50426,1,0,0:0:0:0:
44,240,50551,2,0,L|44:316,1,73,4|0,0:3|0:0,0:0:0:0:
112,332,51051,1,8,0:1:0:0:
118,332,51176,2,0,L|242:332,1,109.5,0|4,0:0|0:3,0:0:0:0:
256,192,52051,1,8,0:1:0:0:
290,52,52551,5,4,0:3:0:0:
221,52,52801,2,0,L|136:52,1,73,0|8,0:0|0:1,0:0:0:0:
221,52,53301,2,0,L|221:198,1,146,0|8,0:0|0:1,0:0:0:0:
220,272,54051,1,8,0:1:0:0:
348,344,54551,6,0,L|424:344,1,73,4|0,0:3|0:0,0:0:0:0:
476,296,55051,1,8,0:1:0:0:
470,296,55176,2,0,B|434:256|434:256|469:212,1,109.5,0|4,0:0|0:3,0:0:0:0:
396,92,56051,1,8,0:1:0:0:
292,192,56551,5,4,0:3:0:0:
256,128,56801,2,0,L|256:48,1,73,0|8,0:0|0:1,0:0:0:0:
184,52,57301,2,0,L|184:198,1,146,0|8,0:0|0:1,0:0:0:0:
184,272,58051,2,0,L|68:272,1,109.5,8|0,0:1|0:0,0:0:0:0:
40,272,58551,6,0,L|40:192,1,73,4|0,0:3|0:0,0:0:0:0:
40,128,59051,1,8,0:1:0:0:
184,88,59551,2,0,L|257:88,1,73,4|0,0:3|0:0,0:0:0:0:
328,88,60051,1,8,0:1:0:0:
472,128,60551,2,0,L|472:208,1,73,4|0,0:3|0:0,0:0:0:0:
472,272,61051,1,8,0:1:0:0:
328,272,61551,1,4,0:3:0:0:
256,272,61801,1,8,0:1:0:0:
184,272,62051,1,8,0:1:0:0:
256,144,62551,6,0,B|328:144|328:144|380:92,2,146,4|8|4,0:3|0:1|0:3,0:0:0:0:
132,72,64051,1,8,0:1:0:0:
92,132,64301,1,0,0:0:0:0:
52,192,64551,1,4,0:3:0:0:
92,252,64801,2,0,L|92:328,1,73,0|8,0:0|0:1,0:0:0:0:
164,328,65301,2,0,B|236:328|236:328|236:254,1,146,0|8,0:0|0:1,0:0:0:0:
236,181,66051,1,8,0:1:0:0:
236,113,66301,5,0,0:0:0:0:
236,107,66426,1,0,0:0:0:0:
236,101,66551,1,4,0:3:0:0:
116,84,67051,1,8,0:3:0:0:
256,124,67551,2,0,L|396:84,1,146,4|8,0:3|0:3,0:0:0:0:
496,192,68551,6,0,L|496:272,2,73,4|0|8,0:3|0:0|0:3,0:0:0:0:
424,192,69301,2,0,L|272:192,1,146,0|4,0:0|0:3,0:0:0:0:
204,192,70051,1,8,0:3:0:0:
256,56,70551,5,4,0:3:0:0:
256,44,70801,1,0,0:0:0:0:
112,84,71301,2,0,B|60:136|60:136|60:280|60:280|232:280,1,365,0|4,0:0|0:3,0:0:0:0:
344,22,73551,5,4,0:3:0:0:
484,66,74051,1,8,0:3:0:0:
396,148,74551,5,4,0:3:0:0:
256,104,75051,1,8,0:3:0:0:
116,60,75551,2,0,L|116:216,1,146,4|8,0:3|0:3,0:0:0:0:
256,248,76551,6,0,L|328:248,2,73,4|0|8,0:3|0:0|0:3,0:0:0:0:
256,176,77301,2,0,L|256:328,1,146,0|4,0:0|0:3,0:0:0:0:
184,316,78051,1,8,0:3:0:0:
184,168,78551,5,4,0:3:0:0:
184,156,78801,1,0,0:0:0:0:
304,88,79301,2,0,B|376:88|376:88|324:140|324:140|324:216|324:216|373:265|373:265|373:343,1,365,0|4,0:0|0:3,0:0:0:0:
108,220,81551,5,4,0:3:0:0:
156,84,82051,1,8,0:3:0:0:
256,192,82551,5,4,0:3:0:0:
228,44,83051,1,8,0:3:0:0:
256,192,83551,2,0,L|404:164,1,146,4|8,0:3|0:3,0:0:0:0:
256,192,84551,6,0,L|271:266,2,73,4|0|8,0:3|0:0|0:3,0:0:0:0:
220,128,85301,2,0,L|74:128,1,146,0|4,0:0|0:3,0:0:0:0:
32,188,86051,1,8,0:3:0:0:
124,300,86551,5,4,0:3:0:0:
135,300,86801,1,0,0:0:0:0:
256,240,87301,2,0,B|400:240|400:240|296:136|296:136|296:48,1,365,0|4,0:0|0:3,0:0:0:0:
62,55,89551,5,4,0:3:0:0:
0,192,90051,1,8,0:3:0:0:
62,329,90551,5,4,0:3:0:0:
208,329,91051,1,8,0:3:0:0:
256,192,91551,2,0,L|394:240,1,146,4|8,0:3|0:3,0:0:0:0:
256,192,92551,6,0,L|182:166,2,73,4|0|8,0:3|0:0|0:3,0:0:0:0:
319,156,93301,2,0,L|320:8,1,146,0|4,0:0|0:3,0:0:0:0:
256,44,94051,1,8,0:3:0:0:
112,24,94551,5,4,0:3:0:0:
112,36,94801,1,0,0:0:0:0:
112,168,95301,2,0,B|112:316|112:316|184:316|184:316|184:171,1,365,0|4,0:0|0:3,0:0:0:0:
440,28,97551,5,4,0:3:0:0:
476,92,97801,1,8,0:1:0:0:
476,104,98051,2,0,L|476:213,1,109.5,8|0,0:1|0:0,0:0:0:0:
476,248,98551,1,0,0:0:0:0:
72,48,106551,6,0,L|72:128,1,73,4|0,0:3|0:0,0:0:0:0:
72,196,107051,1,8,0:1:0:0:
196,120,107551,2,0,L|196:193,1,73,4|0,0:3|0:0,0:0:0:0:
196,268,108051,1,8,0:1:0:0:
320,192,108551,2,0,L|320:265,1,73,4|0,0:3|0:0,0:0:0:0:
320,340,109051,1,8,0:1:0:0:
440,340,109551,1,4,0:3:0:0:
440,267,109801,1,8,0:1:0:0:
440,192,110051,1,8,0:1:0:0:
360,72,110551,6,0,B|306:19|306:19|256:68,2,146,4|8|4,0:3|0:1|0:3,0:0:0:0:
268,192,112051,1,8,0:1:0:0:
195,192,112301,1,0,0:0:0:0:
122,192,112551,1,4,0:3:0:0:
52,192,112801,2,0,L|52:264,1,73,0|8,0:0|0:1,0:0:0:0:
124,264,113301,2,0,L|270:264,1,146,0|8,0:0|0:1,0:0:0:0:
344,264,114051,1,8,0:1:0:0:
344,192,114301,5,0,0:0:0:0:
344,186,114426,1,0,0:0:0:0:
344,180,114551,2,0,L|344:104,1,73,4|0,0:3|0:0,0:0:0:0:
288,68,115051,1,8,0:1:0:0:
282,68,115176,2,0,L|162:68,1,109.5,0|4,0:0|0:3,0:0:0:0:
256,192,116051,1,8,0:1:0:0:
256,336,116551,5,4,0:3:0:0:
236,264,116801,2,0,L|184:316,1,73,0|8,0:0|0:1,0:0:0:0:
256,336,117301,2,0,L|402:336,1,146,0|8,0:0|0:1,0:0:0:0:
400,264,118051,1,8,0:1:0:0:
272,192,118551,6,0,L|196:192,1,73,4|0,0:3|0:0,0:0:0:0:
220,120,119051,1,8,0:1:0:0:
226,120,119176,2,0,L|354:120,1,109.5,0|4,0:0|0:3,0:0:0:0:
256,0,120051,1,8,0:1:0:0:
148,96,120551,5,4,0:3:0:0:
148,168,120801,2,0,L|228:168,1,73,0|8,0:0|0:1,0:0:0:0:
220,96,121301,2,0,L|56:96,1,146,0|8,0:0|0:1,0:0:0:0:
72,168,122051,1,8,0:1:0:0:
72,240,122301,5,0,0:0:0:0:
78,240,122426,1,0,0:0:0:0:
84,240,122551,2,0,L|156:240,1,73,4|0,0:3|0:0,0:0:0:0:
228,240,123051,1,8,0:1:0:0:
234,240,123176,2,0,B|274:240|274:240|274:170,1,109.5,0|4,0:0|0:3,0:0:0:0:
274,24,124051,1,8,0:1:0:0:
401,80,124551,5,4,0:3:0:0:
401,152,124801,2,0,L|401:225,1,73,0|8,0:0|0:1,0:0:0:0:
401,152,125301,2,0,B|473:152|473:152|473:226,1,146,0|8,0:0|0:1,0:0:0:0:
473,300,126051,1,8,0:1:0:0:
328,300,126551,6,0,L|255:300,1,73,4|0,0:3|0:0,0:0:0:0:
256,228,127051,1,8,0:1:0:0:
256,222,127176,2,0,L|256:112,1,109.5,0|4,0:0|0:3,0:0:0:0:
128,48,128051,1,8,0:1:0:0:
96,192,128551,5,4,0:3:0:0:
136,252,128801,2,0,L|136:328,1,73,0|8,0:0|0:1,0:0:0:0:
204,338,129301,2,0,L|204:192,1,146,0|8,0:0|0:1,0:0:0:0:
256,140,130051,1,8,0:1:0:0:
308,192,130301,5,0,0:0:0:0:
314,192,130426,1,0,0:0:0:0:
320,192,130551,2,0,L|396:192,1,73,4|0,0:3|0:0,0:0:0:0:
464,192,131051,1,8,0:1:0:0:
320,192,131551,2,0,L|320:268,1,73,4|0,0:3|0:0,0:0:0:0:
320,336,132051,1,8,0:1:0:0:
320,192,132551,2,0,L|244:192,1,73,4|0,0:3|0:0,0:0:0:0:
176,192,133051,1,8,0:1:0:0:
320,192,133551,1,4,0:3:0:0:
320,119,133801,1,8,0:1:0:0:
320,48,134051,1,8,0:1:0:0:
172,100,134551,6,0,B|146:126|146:126|119:100|119:100|92:126|92:126|68:102,2,146,4|8|4,0:3|0:1|0:3,0:0:0:0:
256,224,136051,1,8,0:1:0:0:
256,296,136301,1,0,0:0:0:0:
184,296,136551,1,4,0:3:0:0:
184,224,136801,2,0,L|256:224,1,73,0|8,0:0|0:1,0:0:0:0:
256,296,137301,2,0,L|408:296,1,146,0|8,0:0|0:1,0:0:0:0:
476,296,138051,1,8,0:1:0:0:
436,236,138301,5,0,0:0:0:0:
436,230,138426,1,0,0:0:0:0:
436,224,138551,2,0,L|436:152,1,73,4|0,0:3|0:0,0:0:0:0:
436,80,139051,1,8,0:1:0:0:
292,151,139551,6,0,L|364:151,1,73,4|0,0:3|0:0,0:0:0:0:
436,151,140051,1,8,0:1:0:0:
292,78,140551,6,0,L|292:150,1,73,4|0,0:3|0:0,0:0:0:0:
292,227,141051,1,8,0:1:0:0:
436,151,141551,5,4,0:3:0:0:
363,151,141801,1,8,0:1:0:0:
292,151,142051,1,8,0:1:0:0:
180,68,142551,6,0,B|128:120|128:120|128:192,2,146,4|8|4,0:3|0:1|0:3,0:0:0:0:
256,192,144051,5,8,0:1:0:0:
256,264,144301,1,0,0:0:0:0:
328,264,144551,1,4,0:3:0:0:
328,192,144801,2,0,L|400:192,1,73,0|8,0:0|0:1,0:0:0:0:
400,120,145301,2,0,L|400:266,1,146,0|8,0:0|0:1,0:0:0:0:
328,264,146051,2,0,L|216:264,1,109.5,8|0,0:1|0:0,0:0:0:0:
184,264,146551,6,0,L|184:191,1,73,4|0,0:3|0:0,0:0:0:0:
256,160,147051,1,8,0:1:0:0:
256,154,147176,2,0,L|256:44,1,109.5,0|4,0:0|0:3,0:0:0:0:
112,20,148051,1,8,0:1:0:0:
56,156,148551,5,4,0:3:0:0:
116,200,148801,2,0,L|116:280,1,73,0|8,0:0|0:1,0:0:0:0:
40,276,149301,2,0,B|40:348|40:348|114:348,1,146,0|8,0:0|0:1,0:0:0:0:
188,348,150051,1,8,0:1:0:0:
256,220,150551,6,0,L|256:120,1,73,4|0,0:3|0:0,0:0:0:0:
256,76,151051,1,8,0:1:0:0:
262,76,151176,2,0,L|374:76,1,109.5,0|4,0:0|0:3,0:0:0:0:
324,216,152051,1,8,0:1:0:0:
456,156,152551,5,4,0:3:0:0:
396,200,152801,2,0,L|396:280,1,73,0|8,0:0|0:1,0:0:0:0:
472,276,153301,2,0,B|472:348|472:348|398:348,1,146,0|8,0:0|0:1,0:0:0:0:
324,348,154051,2,0,B|256:348|256:348|256:304,1,109.5,8|0,0:1|0:0,0:0:0:0:
256,272,154551,6,0,L|256:176,1,73,4|0,0:3|0:0,0:0:0:0:
256,128,155051,1,8,0:1:0:0:
132,57,155551,2,0,L|215:105,1,73,4|0,0:3|0:0,0:0:0:0:
256,128,156051,1,8,0:1:0:0:
380,57,156551,2,0,L|296:105,1,73,4|0,0:3|0:0,0:0:0:0:
256,128,157051,1,8,0:1:0:0:
256,272,157551,1,4,0:3:0:0:
256,199,157801,1,8,0:1:0:0:
256,128,158051,1,8,0:1:0:0:
124,192,158551,6,0,L|124:352,2,146,4|8|4,0:3|0:1|0:3,0:0:0:0:
192,64,160051,1,8,0:1:0:0:
256,100,160301,1,0,0:0:0:0:
320,64,160551,1,4,0:3:0:0:
256,28,160801,2,0,L|256:104,1,73,0|8,0:0|0:1,0:0:0:0:
256,172,161301,2,0,L|256:328,1,146,0|8,0:0|0:1,0:0:0:0:
328,320,162051,1,8,0:1:0:0:
400,320,162301,1,0,0:0:0:0:
406,320,162426,1,0,0:0:0:0:
412,320,162551,1,4,0:3:0:0:
