osu file format v14

[General]
AudioFilename: audio.mp3
AudioLeadIn: 0
PreviewTime: 18551
Countdown: 1
SampleSet: Normal
StackLeniency: 0.6
Mode: 0
LetterboxInBreaks: 0
WidescreenStoryboard: 1

[Editor]
Bookmarks: 2551,18551,50551,66551,98551,106551,130526,146551,162551
DistanceSpacing: 1
BeatDivisor: 4
GridSize: 4
TimelineZoom: 1

[Metadata]
Title:Playgirl
TitleUnicode:Playgirl
Artist:Ladytron
ArtistUnicode:Ladytron
Creator:Arphimigon
Version:Easy
Source:
Tags:cut shortened short 2001 604 english electronic
BeatmapID:1115468
BeatmapSetID:525604

[Difficulty]
HPDrainRate:3
CircleSize:4
OverallDifficulty:3
ApproachRate:3
SliderMultiplier:0.73
SliderTickRate:1

[Events]
//Background and Video events
0,0,"kekgirl.jpg",0,0
//Break Periods
2,98751,104991
//Storyboard Layer 0 (Background)
//Storyboard Layer 1 (Fail)
//Storyboard Layer 2 (Pass)
//Storyboard Layer 3 (Foreground)
//Storyboard Layer 4 (Overlay)
//Storyboard Sound Samples

[TimingPoints]
2551,500,4,1,1,60,1,0

[Colours]
Combo1 : 185,185,185
Combo2 : 45,45,45

[HitObjects]
36,60,2551,6,0,L|184:60,1,146,4|4,0:3|0:3,0:0:0:0:
256,60,4051,1,8,0:1:0:0:
256,132,4551,2,0,L|256:280,1,146,4|4,0:3|0:3,0:0:0:0:
256,352,6051,1,8,0:1:0:0:
184,352,6551,6,0,L|184:204,1,146,4|4,0:3|0:3,0:0:0:0:
184,132,8051,1,8,0:1:0:0:
256,132,8551,2,0,L|404:132,1,146,4|4,0:3|0:3,0:0:0:0:
476,132,10051,1,8,0:1:0:0:
496,204,10551,6,0,L|348:204,1,146,4|4,0:3|0:3,0:0:0:0:
348,276,12051,1,8,0:1:0:0:
276,276,12551,2,0,L|128:276,1,146,4|4,0:3|0:3,0:0:0:0:
128,348,14051,1,8,0:1:0:0:
200,348,14551,6,0,L|348:348,1,146,4|4,0:3|0:3,0:0:0:0:
348,276,16051,1,8,0:1:0:0:
276,276,16551,2,0,L|276:128,1,146,4|4,0:3|0:3,0:0:0:0:
206,108,18051,1,8,0:1:0:0:
256,53,18551,6,0,B|328:53|328:53|384:109,2,146,4|4|4,0:3|0:3|0:3,0:0:0:0:
204,192,21551,1,4,0:3:0:0:
256,331,22551,2,0,B|328:331|328:331|384:275,2,146,4|4|4,0:3|0:3|0:3,0:0:0:0:
204,192,25551,1,4,0:3:0:0:
312,192,26551,6,0,B|311:119|311:119|363:67,2,146,4|4|4,0:3|0:3|0:3,0:0:0:0:
256,328,29551,1,4,0:3:0:0:
200,192,30551,2,0,B|200:119|200:119|148:67,2,146,4|4|4,0:3|0:3|0:3,0:0:0:0:
256,328,33551,1,4,0:3:0:0:
116,292,34551,6,0,L|116:146,1,146,4|4,0:3|0:3,0:0:0:0:
256,148,36551,2,0,L|256:304,1,146,4|4,0:3|0:3,0:0:0:0:
396,292,38551,2,0,L|396:146,1,146,4|4,0:3|0:3,0:0:0:0:
256,148,40551,2,0,L|256:304,1,146,4|4,0:3|0:3,0:0:0:0:
116,292,42551,6,0,L|116:146,1,146,4|4,0:3|0:3,0:0:0:0:
220,44,44551,2,0,L|300:44,1,73,4|8,0:3|0:3,0:0:0:0:
352,88,45551,2,0,L|432:88,1,73,4|8,0:3|0:3,0:0:0:0:
488,128,46551,2,0,B|488:200|488:200|436:252,1,146,4|4,0:3|0:3,0:0:0:0:
289,252,48551,2,0,B|289:324|289:324|341:376,1,146,4|4,0:3|0:3,0:0:0:0:
404,232,50551,6,0,L|404:80,2,146,4|4|4,0:3|0:3|0:3,0:0:0:0:
108,232,54551,2,0,L|108:80,2,146,4|4|4,0:3|0:3|0:3,0:0:0:0:
392,234,58551,6,0,B|430:234|430:234|430:303|430:303|392:303,1,146,4|4,0:3|0:3,0:0:0:0:
264,234,60551,2,0,B|225:234|225:234|225:303|225:303|264:303,1,146,4|4,0:3|0:3,0:0:0:0:
328,168,62551,2,0,L|328:12,1,146,4|4,0:3|0:3,0:0:0:0:
184,22,64551,2,0,L|184:168,1,146,4|4,0:3|0:3,0:0:0:0:
256,44,66551,5,4,0:3:0:0:
256,192,67551,1,4,0:3:0:0:
256,336,68551,2,0,L|100:336,1,146,4|4,0:3|0:3,0:0:0:0:
256,336,70551,2,0,L|412:336,1,146,4|4,0:3|0:3,0:0:0:0:
256,336,72551,2,0,L|256:180,1,146,4|4,0:3|0:3,0:0:0:0:
256,44,74551,5,4,0:3:0:0:
184,172,75551,1,4,0:3:0:0:
328,172,76551,2,0,L|328:328,1,146,4|4,0:3|0:3,0:0:0:0:
184,318,78551,2,0,L|184:172,1,146,4|4,0:3|0:3,0:0:0:0:
256,44,80551,2,0,L|256:190,1,146,4|4,0:3|0:3,0:0:0:0:
112,188,82551,5,4,0:3:0:0:
256,192,83551,1,4,0:3:0:0:
400,188,84551,2,0,L|400:344,1,146,4|4,0:3|0:3,0:0:0:0:
256,338,86551,2,0,L|256:192,1,146,4|4,0:3|0:3,0:0:0:0:
112,188,88551,2,0,L|112:334,1,146,4|4,0:3|0:3,0:0:0:0:
256,338,90551,5,4,0:3:0:0:
256,192,91551,1,4,0:3:0:0:
256,44,92551,2,0,L|104:44,1,146,4|4,0:3|0:3,0:0:0:0:
256,44,94551,2,0,L|408:44,1,146,4|4,0:3|0:3,0:0:0:0:
256,44,96551,2,0,L|256:192,1,146,4|4,0:3|0:3,0:0:0:0:
256,340,98551,5,0,0:0:0:0:
36,72,106551,6,0,B|72:72|72:72|72:145|72:145|109:145,1,146,4|4,0:3|0:3,0:0:0:0:
256,144,108551,2,0,B|293:144|293:144|293:72|293:72|330:72,1,146,4|4,0:3|0:3,0:0:0:0:
456,156,110551,2,0,B|456:192|456:192|340:192,1,146,4|4,0:3|0:3,0:0:0:0:
200,192,112551,2,0,B|164:192|164:192|164:308,1,146,4|4,0:3|0:3,0:0:0:0:
308,300,114551,6,0,L|468:300,2,146,4|4|4,0:3|0:3|0:3,0:0:0:0:
204,84,118551,2,0,L|44:84,2,146,4|4|4,0:3|0:3|0:3,0:0:0:0:
328,348,122551,6,0,B|401:348|401:348|401:273,2,146,4|4|4,0:3|0:3|0:3,0:0:0:0:
80,192,126551,2,0,B|7:192|7:192|6:116,2,146,4|4|4,0:3|0:3|0:3,0:0:0:0:
316,56,130551,6,0,B|291:28|291:28|221:28|221:28|196:56,1,146,4|4,0:3|0:3,0:0:0:0:
195,202,132551,2,0,B|220:230|220:230|290:230|290:230|315:202,1,146,4|4,0:3|0:3,0:0:0:0:
424,104,134551,6,0,B|460:104|460:104|424:168|424:168|460:168,1,146,4|4,0:3|0:3,0:0:0:0:
364,280,136551,2,0,B|364:244|364:244|300:280|300:280|300:244,1,146,4|4,0:3|0:3,0:0:0:0:
256,104,138551,6,0,B|204:156|204:156|152:104,1,146,4|4,0:3|0:3,0:0:0:0:
256,104,140551,2,0,B|308:156|308:156|360:104,1,146,4|4,0:3|0:3,0:0:0:0:
256,208,142551,2,0,B|256:281|256:281|203:334,1,146,4|4,0:3|0:3,0:0:0:0:
256,208,144551,2,0,B|256:281|256:281|309:334,1,146,4|4,0:3|0:3,0:0:0:0:
328,188,146551,6,0,L|328:42,1,146,4|4,0:3|0:3,0:0:0:0:
256,40,148051,1,8,0:1:0:0:
184,42,148551,2,0,L|184:188,1,146,4|4,0:3|0:3,0:0:0:0:
256,188,150051,1,8,0:1:0:0:
256,260,150551,6,0,L|108:260,1,146,4|4,0:3|0:3,0:0:0:0:
112,332,152051,1,8,0:1:0:0:
184,332,152551,2,0,L|332:332,1,146,4|4,0:3|0:3,0:0:0:0:
328,260,154051,1,8,0:1:0:0:
256,260,154551,6,0,L|256:112,1,146,4|4,0:3|0:3,0:0:0:0:
256,40,156051,1,8,0:1:0:0:
184,40,156551,2,0,L|184:116,2,73,4|8|4,0:3|0:1|0:3,0:0:0:0:
112,40,158051,1,8,0:1:0:0:
112,112,158551,6,0,L|112:188,2,73,4|8|4,0:3|0:1|0:3,0:0:0:0:
40,112,160051,1,8,0:1:0:0:
40,184,160551,2,0,L|40:256,1,73,4|8,0:3|0:1,0:0:0:0:
40,328,161551,2,0,L|112:328,1,73,4|8,0:3|0:1,0:0:0:0:
188,328,162551,5,4,0:3:0:0:
