osu file format v14

[General]
AudioFilename: Lady Gaga - The Cure.mp3
AudioLeadIn: 0
PreviewTime: 163309
Countdown: 0
SampleSet: Soft
StackLeniency: 0.7
Mode: 0
LetterboxInBreaks: 0
EpilepsyWarning: 1
WidescreenStoryboard: 1

[Editor]
Bookmarks: 9709,144409,151609,205009
DistanceSpacing: 1.4
BeatDivisor: 4
GridSize: 4
TimelineZoom: 1

[Metadata]
Title:The Cure
TitleUnicode:The Cure
Artist:Lady Gaga
ArtistUnicode:Lady Gaga
Creator:Gero
Version:Relaxing Past
Source:
Tags:Beren ErufenRito Xanandra mancusojuanmattos mancuso_JM_ Skubi CptSqBany English Pop Disco Dance Rock Dive Bar Tour Battered Interscope Records Billboard Hot 100 Haus of Gaga Mother Monster Stefani Joanne Angelina Germanotta Coachella DJ White Shadow Lukas Nelson Mark Nilan Nick Monson
BeatmapID:1328131
BeatmapSetID:629209

[Difficulty]
HPDrainRate:2
CircleSize:3
OverallDifficulty:2
ApproachRate:3
SliderMultiplier:1.2
SliderTickRate:2

[Events]
//Background and Video events
0,0,"BG.jpg",0,0
//Break Periods
2,144409,151609
//Storyboard Layer 0 (Background)
//Storyboard Layer 1 (Fail)
//Storyboard Layer 2 (Pass)
//Storyboard Layer 3 (Foreground)
Sprite,Foreground,Centre,"SB\1.png",320,240 F,0,9709,9859,0,1 F,0,9859,11509,1 F,0,11509,11809,1,0
Sprite,Foreground,Centre,"SB\2.png",320,240 F,0,12109,12259,0,1 F,0,12259,13909,1 F,0,13909,14209,1,0
Sprite,Foreground,Centre,"SB\3.png",320,240 F,0,14509,14659,0,1 F,0,14659,17509,1 F,0,17509,17809,1,0
Sprite,Foreground,Centre,"SB\4.png",320,240 F,0,19309,19459,0,1 F,0,19459,21109,1 F,0,21109,21409,1,0
Sprite,Foreground,Centre,"SB\5.png",320,240 F,0,21709,21859,0,1 F,0,21859,23509,1 F,0,23509,23809,1,0
Sprite,Foreground,Centre,"SB\6.png",320,240 F,0,24109,24259,0,1 F,0,24259,26809,1 F,0,26809,27109,1,0
Sprite,Foreground,Centre,"SB\7.png",320,240 F,0,29209,29359,0,1 F,0,29359,30409,1 F,0,30409,30709,1,0
Sprite,Foreground,Centre,"SB\8.png",320,240 F,0,31309,31459,0,1 F,0,31459,33409,1 F,0,33409,33709,1,0
Sprite,Foreground,Centre,"SB\7.png",320,240 F,0,34159,34309,0,1 F,0,34309,35209,1 F,0,35209,35509,1,0
Sprite,Foreground,Centre,"SB\9.png",320,240 F,0,36109,36259,0,1 F,0,36259,38209,1 F,0,38209,38509,1,0
Sprite,Foreground,Centre,"SB\7.png",320,240 F,0,38809,38959,0,1 F,0,38959,39709,1 F,0,39709,40009,1,0
Sprite,Foreground,Centre,"SB\8.png",320,240 F,0,40909,41059,0,1 F,0,41059,43009,1 F,0,43009,43309,1,0
Sprite,Foreground,Centre,"SB\11.png",320,240 M,0,45709,,320,240 F,0,45709,45859,0,1 F,0,45859,47509,1 F,0,47509,48109,1,0 S,0,47509,48109,1,1.330323
Sprite,Foreground,Centre,"SB\12.png",320,240 F,0,48259,48409,0,0.8299355 M,0,48259,52909,162.3811,137.6018,211.8193,138.4258 F,0,48409,52609,0.8299355,1 F,0,52609,52909,1,0
Sprite,Foreground,Centre,"SB\13.png",320,240 F,0,50659,50809,0,1 M,0,50659,52909,280.3613,209.4452,253.9355,208.6194 F,0,50809,52609,1 F,0,52609,52909,1,0
Sprite,Foreground,Centre,"SB\14.png",320,240 F,0,53059,53209,0,1 M,0,53059,57409,164.7484,144.2065,213.471,144.2065 F,0,53209,57109,1 F,0,57109,57409,1,0
Sprite,Foreground,Centre,"SB\13.png",320,240 F,0,55459,55609,0,1 M,0,55459,57409,267.1484,209.4452,244.8516,209.4452 F,0,55609,57109,1 F,0,57109,57409,1,0
Sprite,Foreground,Centre,"SB\15.png",320,240 F,0,57559,57709,0,0.9180957 M,0,57559,62209,169.7032,145.0323,214.2968,144.2065 F,0,57709,61909,0.9180957,1 F,0,61909,62209,1,0
Sprite,Foreground,Centre,"SB\16.png",320,240 F,0,59959,60109,0,1 M,0,59959,62209,293.5742,211.9226,265.4968,211.0968 F,0,60109,61909,1 F,0,61909,62209,1,0
Sprite,Foreground,Centre,"SB\17.png",320,240 F,0,62659,62809,0,1 M,0,62659,67909,151.5355,145.0323,194.4774,144.2064 F,0,62809,67309,1 F,0,67309,67909,1,0
Sprite,Foreground,Centre,"SB\18.png",320,240 F,0,65059,65209,0,1 M,0,65059,67909,258.0645,204.4903,227.5097,204.4903 F,0,65209,67309,1 F,0,67309,67909,1,0
Sprite,Foreground,Centre,"SB\19.png",320,240 F,0,76909,77059,0,1 F,0,77059,78709,1 F,0,78709,79009,1,0
Sprite,Foreground,Centre,"SB\21.png",320,240 F,0,79309,79459,0,1 F,0,79459,81109,1 F,0,81109,81409,1,0
Sprite,Foreground,Centre,"SB\22.png",320,240 F,0,81709,81859,0,1 F,0,81859,85909,1 F,0,85909,86209,1,0.008333334
Sprite,Foreground,Centre,"SB\23.png",320,240 F,0,86509,86659,0,1 F,0,86659,88309,1 F,0,88309,88609,1,0
Sprite,Foreground,Centre,"SB\24.png",320,240 F,0,88909,89059,0,1 F,0,89059,90709,1 F,0,90709,91009,1,0
Sprite,Foreground,Centre,"SB\25.png",320,240 F,0,91309,91459,0,1 F,0,91459,95509,1 F,0,95509,95809,1,0
Sprite,Foreground,Centre,"SB\7.png",320,240 F,0,96409,96559,0,1 F,0,96559,97609,1 F,0,97609,97909,1,0.000774231
Sprite,Foreground,Centre,"SB\8.png",320,240 F,0,98509,98659,0,1 F,0,98659,100309,1 F,0,100309,100609,1,0
Sprite,Foreground,Centre,"SB\7.png",320,240 F,0,101209,101359,0,1 F,0,101359,102409,1 F,0,102409,102709,1,0
Sprite,Foreground,Centre,"SB\9.png",320,240 F,0,103309,103459,0,1 F,0,103459,105409,1 F,0,105409,105709,1,0
Sprite,Foreground,Centre,"SB\7.png",320,240 F,0,106009,106159,0,1 F,0,106159,107209,1 F,0,107209,107509,1,0
Sprite,Foreground,Centre,"SB\8.png",320,240 F,0,108109,108259,0,1 F,0,108259,110209,1 F,0,110209,110509,1,0
Sprite,Foreground,Centre,"SB\11.png",320,240 M,0,112909,,320,240 F,0,112909,113059,0,1 F,0,113059,114709,1 F,0,114709,115309,1,0 S,0,114709,115309,1,1.330323
Sprite,Foreground,Centre,"SB\12.png",320,240 F,0,115459,115609,0,0.8299355 M,0,115459,120109,162.3811,137.6018,211.8193,138.4258 F,0,115609,119809,0.8299355,1 F,0,119809,120109,1,0
Sprite,Foreground,Centre,"SB\13.png",320,240 F,0,117859,118009,0,1 M,0,117859,120109,280.3613,209.4452,253.9355,208.6194 F,0,118009,119809,1 F,0,119809,120109,1,0
Sprite,Foreground,Centre,"SB\14.png",320,240 F,0,120259,120409,0,1 M,0,120259,124609,164.7484,144.2065,213.471,144.2065 F,0,120409,124309,1 F,0,124309,124609,1,0
Sprite,Foreground,Centre,"SB\13.png",320,240 F,0,122659,122809,0,1 M,0,122659,124609,267.1484,209.4452,244.8516,209.4452 F,0,122809,124309,1 F,0,124309,124609,1,0
Sprite,Foreground,Centre,"SB\15.png",320,240 F,0,124759,124909,0,0.9180957 M,0,124759,129409,169.7032,145.0323,214.2968,144.2065 F,0,124909,129109,0.9180957,1 F,0,129109,129409,1,0
Sprite,Foreground,Centre,"SB\16.png",320,240 F,0,127159,127309,0,1 M,0,127159,129409,293.5742,211.9226,265.4968,211.0968 F,0,127309,129109,1 F,0,129109,129409,1,0
Sprite,Foreground,Centre,"SB\17.png",320,240 F,0,129859,130009,0,1 M,0,129859,135109,151.5355,145.0323,194.4774,144.2064 F,0,130009,134509,1 F,0,134509,135109,1,0
Sprite,Foreground,Centre,"SB\18.png",320,240 F,0,132259,132409,0,1 M,0,132259,135109,258.0645,204.4903,227.5097,204.4903 F,0,132409,134509,1 F,0,134509,135109,1,0
Sprite,Foreground,Centre,"SB\13.png",320,240 M,0,144409,,320,240 F,0,144409,144709,0,1 F,0,144709,148009,1 F,0,148009,148609,1,0
Sprite,Foreground,Centre,"SB\13.png",320,240 M,0,154009,,320,240 F,0,154009,154309,0,1 F,0,154309,157609,1 F,0,157609,158209,1,0
Sprite,Foreground,Centre,"SB\12.png",320,240 F,0,163459,163609,0,0.8299355 M,0,163459,168109,162.3811,137.6018,211.8193,138.4258 F,0,163609,167809,0.8299355,1 F,0,167809,168109,1,0
Sprite,Foreground,Centre,"SB\13.png",320,240 F,0,165859,166009,0,1 M,0,165859,168109,280.3613,209.4452,253.9355,208.6194 F,0,166009,167809,1 F,0,167809,168109,1,0
Sprite,Foreground,Centre,"SB\14.png",320,240 F,0,168259,168409,0,1 M,0,168259,172609,164.7484,144.2065,213.471,144.2065 F,0,168409,172309,1 F,0,172309,172609,1,0
Sprite,Foreground,Centre,"SB\13.png",320,240 F,0,170659,170809,0,1 M,0,170659,172609,267.1484,209.4452,244.8516,209.4452 F,0,170809,172309,1 F,0,172309,172609,1,0
Sprite,Foreground,Centre,"SB\15.png",320,240 F,0,172759,172909,0,0.9180957 M,0,172759,177409,169.7032,145.0323,214.2968,144.2065 F,0,172909,177109,0.9180957,1 F,0,177109,177409,1,0
Sprite,Foreground,Centre,"SB\16.png",320,240 F,0,175159,175309,0,1 M,0,175159,177409,293.5742,211.9226,265.4968,211.0968 F,0,175309,177109,1 F,0,177109,177409,1,0
Sprite,Foreground,Centre,"SB\17.png",320,240 F,0,177859,178009,0,1 M,0,177859,183109,151.5355,145.0323,194.4774,144.2064 F,0,178009,182509,1 F,0,182509,183109,1,0
Sprite,Foreground,Centre,"SB\18.png",320,240 F,0,180259,180409,0,1 M,0,180259,183109,258.0645,204.4903,227.5097,204.4903 F,0,180409,182509,1 F,0,182509,183109,1,0
Sprite,Foreground,Centre,"SB\18.png",320,240 F,0,190009,190159,0,1 F,0,190159,192709,1 F,0,192709,193309,1,0
Sprite,Foreground,Centre,"SB\13.png",320,240 M,0,202009,,320,240 F,0,202009,202309,0,1 F,0,202309,205009,1 F,0,205009,206209,1,0
//Storyboard Layer 4 (Overlay)
//Storyboard Sound Samples

[TimingPoints]
9709,600,4,2,1,50,1,0
45709,-100,4,2,1,40,0,0
48109,-100,4,2,2,70,0,1
57559,-100,4,2,2,70,0,0
57709,-100,4,2,2,70,0,1
67309,-100,4,2,2,70,0,0
75709,-100,4,2,2,50,0,0
76909,-100,4,2,1,60,0,0
112909,-100,4,2,1,40,0,0
115309,-100,4,2,2,70,0,1
124759,-100,4,2,2,70,0,0
124909,-100,4,2,2,70,0,1
134509,-100,4,2,2,70,0,0
142909,-100,4,2,2,50,0,0
144109,600,4,2,1,50,1,8
144409,600,4,2,1,50,1,0
154009,-100,4,2,1,50,0,0
161209,-100,4,2,1,30,0,0
163309,600,4,2,2,70,1,1
172759,-100,4,2,2,70,0,0
172909,-100,4,2,2,70,0,1
182509,-100,4,2,2,70,0,0
201709,600,4,2,1,70,1,8
202009,600,4,2,1,35,1,0
202609,-100,4,2,1,35,0,0
203209,-100,4,2,1,30,0,0
203809,-100,4,2,1,25,0,0
204409,-100,4,2,1,20,0,0
205009,-100,4,2,1,10,0,0

[Colours]
Combo1 : 130,130,130
Combo2 : 71,131,131
Combo3 : 92,150,105
Combo4 : 168,157,96
Combo5 : 0,155,155
Combo6 : 56,137,68
Combo7 : 124,116,69
Combo8 : 192,192,192

[HitObjects]
256,129,9709,6,0,P|311:109|366:129,1,120,0|8,3:0|0:0,0:0:0:0:
311,192,10609,1,0,3:0:0:0:
366,255,10909,2,0,B|394:266|394:266|422:255,2,60,0|0|8,0:0|3:0|0:0,0:0:0:0:
256,128,12109,2,0,P|201:108|146:128,1,120,0|8,3:0|0:0,0:0:0:0:
201,192,13009,1,0,3:0:0:0:
146,255,13309,2,0,B|118:266|118:266|90:255,2,60,0|0|8,0:0|3:0|0:0,0:0:0:0:
256,128,14509,6,0,B|293:104|333:128|341:132|341:132|349:136|389:160|426:136,2,180,0|0|8,3:0|3:0|0:0,0:0:0:0:
201,192,16609,1,0,0:0:0:0:
256,256,16909,2,0,B|293:280|333:256|341:252|341:252|349:248|389:224|426:248,2,180,0|0|8,3:0|3:0|0:0,0:0:0:0:
100,192,19309,6,0,B|80:172|80:172|80:108|80:108|100:88,1,120,0|8,3:0|0:0,0:0:0:0:
183,88,20209,2,0,B|236:88|256:45|256:45|276:88|329:88,1,180,0|8,3:0|0:0,0:0:0:0:
412,192,21709,2,0,B|432:212|432:212|432:276|432:276|412:296,1,120,0|8,3:0|0:0,0:0:0:0:
329,296,22609,2,0,B|276:296|256:339|256:339|236:296|183:296,1,180,0|8,3:0|0:0,0:0:0:0:
256,144,24109,6,0,L|256:84,2,60,0|0|8,3:0|0:0|0:0,0:0:0:0:
324,192,25009,1,0,3:0:0:0:
256,240,25309,2,0,L|256:300,2,60,0|0|8,0:0|3:0|0:0,0:0:0:0:
188,192,26209,1,0,0:0:0:0:
256,144,26509,2,0,B|280:104|324:88|324:88|368:104|392:144,2,180,0|0|0,3:0|3:0|0:0,0:0:0:0:
324,192,28609,1,2,0:0:0:0:
256,240,28909,6,0,B|200:240|200:240|100:240|72:350,1,240
16,192,30709,1,2,0:0:0:0:
72,33,31309,2,0,B|100:144|200:144|200:144|256:144,1,240
424,192,33109,1,2,0:0:0:0:
256,240,33709,6,0,B|200:261|200:261|144:240,1,120
76,192,34609,1,0,0:0:0:0:
144,144,34909,2,0,B|200:123|200:123|256:144,1,120,0|2,0:0|0:0,0:0:0:0:
420,112,36109,2,0,P|455:192|420:272,2,180,0|0|2,0:0|0:0|0:0,0:0:0:0:
256,144,38509,6,0,B|200:123|200:123|144:144,1,120,0|0,3:0|0:0,0:0:0:0:
76,192,39409,1,0,3:0:0:0:
144,240,39709,2,0,B|200:261|200:261|256:240,1,120,0|2,0:0|0:0,0:0:0:0:
420,272,40909,2,0,P|455:192|420:112,2,180,0|0|2,3:0|3:0|0:0,0:0:0:0:
256,240,43309,6,0,B|196:240|196:240|160:240|124:240|94:192|94:192|124:144|160:144|196:144|196:144|256:144,1,360,0|2,3:0|0:0,0:0:0:0:
424,192,45709,1,0,3:0:0:0:
424,192,48109,6,0,B|441:149|411:88|348:88|348:88|319:88,1,180,4|0,1:0|1:0,0:0:0:0:
256,32,49309,2,0,P|237:88|256:144,1,120,2|8,0:0|0:0,0:0:0:0:
88,192,50509,2,0,B|71:235|101:296|164:296|164:296|192:296,1,180,0|0,1:0|1:0,0:0:0:0:
256,352,51709,2,0,P|275:296|256:240,1,120,2|8,0:0|0:0,0:0:0:0:
424,192,52909,6,0,B|456:192|456:192|475:172,1,60,0|0,1:0|0:0,0:0:0:0:
424,108,53509,2,0,B|392:108|392:108|372:88,1,60,8|0,0:0|1:0,0:0:0:0:
424,24,54109,1,2,0:0:0:0:
256,24,54709,1,8,0:0:0:0:
88,24,55309,6,0,B|56:24|56:24|36:43,1,60,0|0,1:0|0:0,0:0:0:0:
88,108,55909,2,0,B|120:108|120:108|139:127,1,60,8|0,0:0|1:0,0:0:0:0:
88,192,56509,1,2,0:0:0:0:
256,192,57109,1,8,0:0:0:0:
424,192,57709,6,0,B|369:246|369:246|360:249|360:249|366:255|366:255|358:257|358:257|303:312,1,180,4|0,1:0|1:0,0:0:0:0:
229,351,58909,2,0,B|200:343|200:343|171:351,1,60,2|0,0:0|1:0,0:0:0:0:
88,350,59509,1,8,0:0:0:0:
88,192,60109,2,0,B|143:138|143:138|152:135|152:135|146:129|146:129|154:127|154:127|209:72,1,180,0|0,1:0|1:0,0:0:0:0:
283,33,61309,2,0,B|312:41|312:41|341:33,1,60,2|0,0:0|1:0,0:0:0:0:
424,34,61909,1,8,0:0:0:0:
424,192,62509,6,0,L|424:312,1,120,0|8,1:0|0:0,0:0:0:0:
500,352,63409,2,0,P|424:311|348:352,1,180,0|8,1:0|0:0,0:0:0:0:
256,192,64909,2,0,L|256:102,2,90,2|2|2,0:0|0:0|0:0,0:0:0:0:
208,260,66109,2,0,B|228:284|256:295|256:295|284:284|304:260,1,120,2|8,0:0|0:0,0:0:0:0:
424,142,67309,6,0,B|464:72|420:-12|320:-20|260:40|274:115|274:115|256:146|256:146|238:115|238:115|252:40|192:-20|92:-12|48:72|88:142,1,720,4|2,1:0|0:0,0:0:0:0:
424,242,72109,2,0,B|464:312|420:396|320:404|260:344|274:269|274:269|256:238|256:238|238:269|238:269|252:344|192:404|92:396|48:312|88:242,1,720,2|2,0:0|0:0,0:0:0:0:
424,142,76909,6,0,L|508:57,1,120,0|8,3:0|0:0,0:0:0:0:
436,12,77809,1,0,3:0:0:0:
364,58,78109,2,0,B|336:69|336:69|308:58,2,60,0|0|8,0:0|3:0|0:0,0:0:0:0:
424,242,79309,2,0,L|508:326,1,120,0|8,3:0|0:0,0:0:0:0:
436,372,80209,1,0,3:0:0:0:
364,326,80509,2,0,B|336:315|336:315|308:326,2,60,0|2|8,0:0|3:0|0:0,0:0:0:0:
256,192,81709,6,0,B|179:192|179:192|171:196|171:196|171:188|171:188|163:192|163:192|86:192,2,180,0|0|8,3:0|3:0|0:0,0:0:0:0:
315,132,83809,1,0,0:0:0:0:
256,72,84109,2,0,B|179:72|179:72|171:68|171:68|171:76|171:76|163:72|163:72|86:72,2,180,0|0|8,3:0|3:0|0:0,0:0:0:0:
374,192,86509,6,0,P|392:248|374:304,1,120,0|8,3:0|0:0,0:0:0:0:
433,363,87409,2,0,B|430:336|407:308|374:304|374:304|341:308|318:336|315:363,1,180,0|8,3:0|0:0,0:0:0:0:
374,192,88909,2,0,P|392:136|374:80,1,120,0|8,3:0|0:0,0:0:0:0:
433,21,89809,2,0,B|430:48|407:76|374:80|374:80|341:76|318:48|315:21,1,180,0|8,3:0|0:0,0:0:0:0:
192,136,91309,6,0,B|162:136|162:136|140:115,2,60,0|0|8,3:0|0:0|0:0,0:0:0:0:
256,192,92209,1,0,3:0:0:0:
192,248,92509,2,0,B|162:248|162:248|140:268,2,60,0|0|8,0:0|3:0|0:0,0:0:0:0:
256,304,93409,1,0,0:0:0:0:
320,248,93709,2,0,B|344:204|387:192|387:192|344:180|320:136,2,180,0|0|8,3:0|3:0|0:0,0:0:0:0:
256,192,95809,1,0,0:0:0:0:
192,248,96109,6,0,B|170:248|170:248|156:248|120:248|98:192|98:192|120:136|156:136|170:136|170:136|192:136,1,240,0|0,3:0|3:0,0:0:0:0:
256,304,97909,1,2,0:0:0:0:
320,136,98509,2,0,B|342:136|342:136|356:136|392:136|414:192|414:192|392:248|356:248|342:248|342:248|320:248,1,240,0|0,3:0|3:0,0:0:0:0:
256,80,100309,1,2,0:0:0:0:
192,248,100909,6,0,P|136:266|80:248,1,120,0|0,3:0|0:0,0:0:0:0:
16,192,101809,1,0,3:0:0:0:
80,136,102109,2,0,P|136:118|192:136,1,120,0|2,0:0|0:0,0:0:0:0:
352,192,103309,2,0,L|532:192,2,180,0|0|2,3:0|3:0|0:0,0:0:0:0:
192,136,105709,6,0,P|136:118|80:136,1,120,0|0,3:0|0:0,0:0:0:0:
16,192,106609,1,0,3:0:0:0:
80,248,106909,2,0,P|136:266|192:248,1,120,0|2,0:0|0:0,0:0:0:0:
352,192,108109,2,0,L|532:192,2,180,0|0|2,3:0|3:0|0:0,0:0:0:0:
256,52,110509,6,0,P|161:192|256:332,1,360,0|2,3:0|0:0,0:0:0:0:
352,192,112909,1,0,3:0:0:0:
352,192,115309,6,0,B|381:192|381:192|444:192|474:253|457:296,1,180,4|0,1:0|1:0,0:0:0:0:
376,324,116509,2,0,B|320:346|320:346|264:324,1,120,2|8,0:0|0:0,0:0:0:0:
160,192,117709,2,0,B|131:192|131:192|68:192|38:131|55:88,1,180,0|0,1:0|1:0,0:0:0:0:
136,60,118909,2,0,B|192:38|192:38|248:60,1,120,2|8,0:0|0:0,0:0:0:0:
352,192,120109,6,0,B|384:192|384:192|403:212,1,60,0|0,1:0|0:0,0:0:0:0:
352,276,120709,2,0,B|320:276|320:276|300:296,1,60,8|0,0:0|1:0,0:0:0:0:
352,360,121309,1,2,0:0:0:0:
160,360,121909,1,8,0:0:0:0:
160,192,122509,6,0,B|128:192|128:192|109:172,1,60,0|0,1:0|0:0,0:0:0:0:
160,108,123109,2,0,B|192:108|192:108|212:88,1,60,8|0,0:0|1:0,0:0:0:0:
160,24,123709,1,2,0:0:0:0:
352,24,124309,1,8,0:0:0:0:
352,192,124909,6,0,B|320:232|348:272|352:276|356:280|384:320|352:360,1,180,4|0,1:0|1:0,0:0:0:0:
280,320,126109,2,0,B|256:338|256:338|232:320,1,60,2|0,0:0|1:0,0:0:0:0:
160,360,126709,1,8,0:0:0:0:
160,192,127309,2,0,B|192:152|164:112|160:108|156:104|128:64|160:24,1,180,0|0,1:0|1:0,0:0:0:0:
232,64,128509,2,0,B|256:46|256:46|280:64,1,60,2|0,0:0|1:0,0:0:0:0:
351,23,129109,1,8,0:0:0:0:
352,192,129709,6,0,L|472:192,1,120,0|8,1:0|0:0,0:0:0:0:
512,268,130609,2,0,P|471:192|512:116,1,180,0|8,1:0|0:0,0:0:0:0:
348,148,132109,2,0,B|340:192|340:192|348:236,2,90,2|2|2,0:0|0:0|0:0,0:0:0:0:
312,72,133309,2,0,P|256:54|200:72,1,120,2|8,0:0|0:0,0:0:0:0:
108,300,134509,6,0,B|152:216|256:236|256:236|348:276|344:368|256:420|168:368|164:276|256:236|256:236|360:216|404:300,1,720,4|2,1:0|0:0,0:0:0:0:
108,84,139309,2,0,B|152:168|256:148|256:148|348:108|344:16|256:-36|168:16|164:108|256:148|256:148|360:168|404:84,1,720,2|2,0:0|0:0,0:0:0:0:
256,344,144109,5,2,0:0:0:0:
256,344,154009,5,2,0:0:0:0:
368,12,155209,1,2,0:0:0:0:
84,192,156409,1,2,0:0:0:0:
428,192,157609,1,2,0:0:0:0:
144,12,158809,1,2,0:0:0:0:
256,344,160009,1,2,0:0:0:0:
368,12,161209,1,2,0:0:0:0:
368,12,163309,6,0,B|397:12|397:12|460:12|490:73|473:116,1,180,4|0,1:0|1:0,0:0:0:0:
392,115,164509,2,0,P|344:146|296:115,1,120,2|8,0:0|0:0,0:0:0:0:
144,12,165709,2,0,B|115:12|115:12|52:12|22:73|39:116,1,180,0|0,1:0|1:0,0:0:0:0:
120,115,166909,2,0,P|168:146|216:115,1,120,2|8,0:0|0:0,0:0:0:0:
296,269,168109,6,0,B|296:329,1,60,0|0,1:0|0:0,0:0:0:0:
216,328,168709,2,0,B|216:268,1,60,8|0,0:0|1:0,0:0:0:0:
176,192,169309,1,2,0:0:0:0:
336,192,169909,1,8,0:0:0:0:
216,115,170509,6,0,B|216:55,1,60,0|0,1:0|0:0,0:0:0:0:
296,56,171109,2,0,B|296:116,1,60,8|0,0:0|1:0,0:0:0:0:
336,192,171709,1,2,0:0:0:0:
176,192,172309,1,8,0:0:0:0:
296,269,172909,6,0,B|344:288|384:272|404:240|404:240|461:240,1,180,4|0,1:0|1:0,0:0:0:0:
461,155,174109,2,0,B|465:125|465:125|461:95,1,60,2|0,0:0|1:0,0:0:0:0:
377,95,174709,1,8,0:0:0:0:
216,115,175309,2,0,B|168:96|128:112|108:144|108:144|50:144,1,180,0|0,1:0|1:0,0:0:0:0:
51,229,176509,2,0,B|47:259|47:259|51:289,1,60,2|0,0:0|1:0,0:0:0:0:
135,289,177109,1,8,0:0:0:0:
296,269,177709,6,0,P|351:290|406:269,1,120,0|8,1:0|0:0,0:0:0:0:
351,207,178609,2,0,B|392:148|356:88|356:88|325:44,1,180,0|8,1:0|0:0,0:0:0:0:
160,204,180109,2,0,B|144:160|160:116,2,90,2|2|2,0:0|0:0|0:0,0:0:0:0:
216,269,181309,2,0,P|161:290|106:269,1,120,2|8,0:0|0:0,0:0:0:0:
36,116,182509,6,0,B|36:32|92:0|152:8|196:28|212:88|212:88|204:52|216:24|256:0|296:24|308:52|300:88|300:88|316:28|360:8|420:0|476:32|476:116,1,720,4|2,1:0|0:0,0:0:0:0:
36,268,187309,2,0,B|36:352|92:384|152:376|196:356|212:296|212:296|204:332|216:360|256:384|296:360|308:332|300:296|300:296|316:356|360:376|420:384|476:352|476:268,1,720,2|2,0:0|0:0,0:0:0:0:
40,116,192109,6,0,B|108:48|108:48|191:48,2,180,4|0|8,1:0|1:0|0:0,0:0:0:0:
176,192,194509,2,0,P|212:272|176:352,2,180,0|0|8,1:0|1:0|0:0,0:0:0:0:
336,192,196909,2,0,P|300:272|336:352,2,180,0|0|8,1:0|1:0|0:0,0:0:0:0:
472,116,199309,2,0,B|404:48|404:48|320:48,2,180,0|0|8,1:0|1:0|0:0,0:0:0:0:
256,192,202009,12,2,205009,0:0:0:0:
