osu file format v14

[General]
AudioFilename: Lady Gaga - The Cure.mp3
AudioLeadIn: 0
PreviewTime: 163309
Countdown: 0
SampleSet: Normal
StackLeniency: 0.3
Mode: 1
LetterboxInBreaks: 0
EpilepsyWarning: 1
WidescreenStoryboard: 1

[Editor]
Bookmarks: 9709,205009
DistanceSpacing: 1.3
BeatDivisor: 4
GridSize: 32
TimelineZoom: 1.5

[Metadata]
Title:The Cure
TitleUnicode:The Cure
Artist:Lady Gaga
ArtistUnicode:Lady Gaga
Creator:Gero
Version:Inner Oni
Source:
Tags:Beren ErufenRito Xanandra mancusojuanmattos mancuso_JM_ Skubi CptSqBany English Pop Disco Dance Rock Dive Bar Tour Battered Interscope Records Billboard Hot 100 Haus of Gaga Mother Monster Stefani Joanne Angelina Germanotta Coachella DJ White Shadow Lukas Nelson Mark Nilan Nick Monson
BeatmapID:1328135
BeatmapSetID:629209

[Difficulty]
HPDrainRate:5
CircleSize:4
OverallDifficulty:5.5
ApproachRate:10
SliderMultiplier:1.4
SliderTickRate:2

[Events]
//Background and Video events
0,0,"BG.jpg",0,120
//Break Periods
//Storyboard Layer 0 (Background)
//Storyboard Layer 1 (Fail)
//Storyboard Layer 2 (Pass)
//Storyboard Layer 3 (Foreground)
//Storyboard Layer 4 (Overlay)
//Storyboard Sound Samples

[TimingPoints]
9709,600,4,1,0,60,1,0
28909,-100,4,1,0,70,0,0
45709,-100,4,1,0,30,0,0
48109,-100,4,1,0,80,0,1
67309,-100,4,1,0,80,0,0
76909,-100,4,1,0,60,0,0
96109,-100,4,1,0,70,0,0
112909,-100,4,1,0,30,0,0
115309,-100,4,1,0,80,0,1
134509,-100,4,1,0,80,0,0
142909,-100,4,1,0,70,0,0
143509,-100,4,1,0,65,0,0
144109,600,4,1,0,60,1,8
144409,600,4,1,0,50,1,0
154009,-100,4,1,0,65,0,8
161209,-100,4,1,0,40,0,8
162009,-100,4,1,0,40,0,0
162109,-99.009900990099,4,1,0,45,0,0
162209,-98.0392156862745,4,1,0,50,0,0
162309,-97.0873786407767,4,1,0,55,0,0
162409,-96.1538461538461,4,1,0,60,0,0
162509,-95.2380952380952,4,1,0,65,0,0
162609,-90.9090909090909,4,1,0,70,0,0
162709,-86.9565217391304,4,1,0,75,0,0
162809,-83.3333333333333,4,1,0,80,0,0
162909,-80,4,1,0,85,0,0
163009,-76.9230769230769,4,1,0,90,0,0
163109,-74.0740740740741,4,1,0,95,0,0
163209,-71.4285714285714,4,1,0,90,0,0
163309,600,4,1,0,80,1,1
163309,-66.6666666666667,4,1,0,80,0,1
182509,-66.6666666666667,4,1,0,80,0,0
199909,-66.6666666666667,4,1,0,80,0,0
200059,-68.9655172413793,4,1,0,80,0,0
200209,-71.4285714285714,4,1,0,80,0,0
200359,-74.0740740740741,4,1,0,80,0,0
200509,-76.9230769230769,4,1,0,80,0,0
200659,-80,4,1,0,80,0,0
200809,-83.3333333333333,4,1,0,80,0,0
200959,-86.9565217391304,4,1,0,80,0,0
201109,-90.9090909090909,4,1,0,80,0,0
201259,-95.2380952380952,4,1,0,80,0,0
201409,-96.1538461538461,4,1,0,80,0,0
201559,-97.0873786407767,4,1,0,80,0,0
201709,600,4,1,0,40,1,8
201709,-98.0392156862745,4,1,0,40,0,0
201859,-99.009900990099,4,1,0,40,0,0
202009,600,4,1,0,30,1,0

[Colours]
Combo1 : 211,120,65
Combo2 : 215,166,91
Combo3 : 107,157,199
Combo4 : 205,198,58
SliderBorder : 63,63,63

[HitObjects]
256,192,9709,5,0,0:0:0:0:
256,192,10009,1,0,0:0:0:0:
256,192,10309,1,8,0:0:0:0:
256,192,10609,1,0,0:0:0:0:
256,192,10759,1,8,0:0:0:0:
256,192,10909,1,0,0:0:0:0:
256,192,11209,1,0,0:0:0:0:
256,192,11509,1,8,0:0:0:0:
256,192,12109,1,0,0:0:0:0:
256,192,12409,1,0,0:0:0:0:
256,192,12709,1,8,0:0:0:0:
256,192,13009,1,0,0:0:0:0:
256,192,13159,1,8,0:0:0:0:
256,192,13309,1,0,0:0:0:0:
256,192,13609,1,0,0:0:0:0:
256,192,13909,1,8,0:0:0:0:
256,192,14509,1,0,0:0:0:0:
256,192,14809,1,0,0:0:0:0:
256,192,15109,1,8,0:0:0:0:
256,192,15409,1,8,0:0:0:0:
256,192,15559,1,8,0:0:0:0:
256,192,15709,1,0,0:0:0:0:
256,192,16009,1,0,0:0:0:0:
256,192,16309,1,8,0:0:0:0:
256,192,16609,1,8,0:0:0:0:
256,192,16909,1,0,0:0:0:0:
256,192,17509,1,8,0:0:0:0:
256,192,17809,1,0,0:0:0:0:
256,192,18409,1,0,0:0:0:0:
256,192,19309,1,0,0:0:0:0:
256,192,19609,1,0,0:0:0:0:
256,192,19909,1,8,0:0:0:0:
256,192,20209,1,0,0:0:0:0:
256,192,20359,1,8,0:0:0:0:
256,192,20509,1,0,0:0:0:0:
256,192,20809,1,0,0:0:0:0:
256,192,21109,1,8,0:0:0:0:
256,192,21709,1,0,0:0:0:0:
256,192,22009,1,0,0:0:0:0:
256,192,22309,1,8,0:0:0:0:
256,192,22609,1,0,0:0:0:0:
256,192,22759,1,8,0:0:0:0:
256,192,22909,1,0,0:0:0:0:
256,192,23209,1,0,0:0:0:0:
256,192,23509,1,8,0:0:0:0:
256,192,24109,1,0,0:0:0:0:
256,192,24409,1,0,0:0:0:0:
256,192,24709,1,8,0:0:0:0:
256,192,25009,1,8,0:0:0:0:
256,192,25159,1,8,0:0:0:0:
256,192,25309,1,0,0:0:0:0:
256,192,25609,1,0,0:0:0:0:
256,192,25909,1,8,0:0:0:0:
256,192,26209,1,8,0:0:0:0:
256,192,26509,1,0,0:0:0:0:
256,192,27109,1,8,0:0:0:0:
256,192,27409,1,0,0:0:0:0:
256,192,28009,1,8,0:0:0:0:
256,192,28609,1,0,0:0:0:0:
256,192,28909,1,0,0:0:0:0:
256,192,29059,1,8,0:0:0:0:
256,192,29359,1,0,0:0:0:0:
256,192,29509,1,8,0:0:0:0:
256,192,29809,1,8,0:0:0:0:
256,192,29959,1,8,0:0:0:0:
256,192,30109,1,0,0:0:0:0:
256,192,30409,1,0,0:0:0:0:
256,192,30559,1,0,0:0:0:0:
256,192,30709,1,8,0:0:0:0:
256,192,31009,1,8,0:0:0:0:
256,192,31309,1,0,0:0:0:0:
256,192,31459,1,0,0:0:0:0:
256,192,31609,1,8,0:0:0:0:
256,192,31759,1,0,0:0:0:0:
256,192,32059,1,8,0:0:0:0:
256,192,32209,1,0,0:0:0:0:
256,192,32509,1,8,0:0:0:0:
256,192,32659,1,8,0:0:0:0:
256,192,32809,1,0,0:0:0:0:
256,192,32959,1,0,0:0:0:0:
256,192,33109,1,8,0:0:0:0:
256,192,33409,1,8,0:0:0:0:
256,192,33709,1,0,0:0:0:0:
256,192,33859,1,8,0:0:0:0:
256,192,34159,1,0,0:0:0:0:
256,192,34309,1,8,0:0:0:0:
256,192,34609,1,8,0:0:0:0:
256,192,34759,1,8,0:0:0:0:
256,192,34909,1,0,0:0:0:0:
256,192,35209,1,0,0:0:0:0:
256,192,35359,1,0,0:0:0:0:
256,192,35509,1,8,0:0:0:0:
256,192,35809,1,8,0:0:0:0:
256,192,36109,1,0,0:0:0:0:
256,192,36259,1,0,0:0:0:0:
256,192,36409,1,8,0:0:0:0:
256,192,36559,1,0,0:0:0:0:
256,192,36859,1,8,0:0:0:0:
256,192,37009,1,0,0:0:0:0:
256,192,37309,1,8,0:0:0:0:
256,192,37459,1,8,0:0:0:0:
256,192,37609,1,0,0:0:0:0:
256,192,37759,1,0,0:0:0:0:
256,192,37909,1,8,0:0:0:0:
256,192,38209,1,8,0:0:0:0:
256,192,38359,1,8,0:0:0:0:
256,192,38509,1,0,0:0:0:0:
256,192,38659,1,8,0:0:0:0:
256,192,38959,1,0,0:0:0:0:
256,192,39109,1,8,0:0:0:0:
256,192,39409,1,0,0:0:0:0:
256,192,39559,1,8,0:0:0:0:
256,192,39709,1,0,0:0:0:0:
256,192,40009,1,0,0:0:0:0:
256,192,40159,1,0,0:0:0:0:
256,192,40309,1,8,0:0:0:0:
256,192,40609,1,8,0:0:0:0:
256,192,40909,1,0,0:0:0:0:
256,192,41059,1,0,0:0:0:0:
256,192,41209,1,8,0:0:0:0:
256,192,41359,1,0,0:0:0:0:
256,192,41659,1,8,0:0:0:0:
256,192,41809,1,0,0:0:0:0:
256,192,42109,1,8,0:0:0:0:
256,192,42259,1,8,0:0:0:0:
256,192,42409,1,0,0:0:0:0:
256,192,42559,1,0,0:0:0:0:
256,192,42709,1,8,0:0:0:0:
256,192,43009,1,8,0:0:0:0:
256,192,43159,1,8,0:0:0:0:
256,192,43309,1,0,0:0:0:0:
256,192,43609,1,8,0:0:0:0:
256,192,43759,1,8,0:0:0:0:
256,192,43909,1,0,0:0:0:0:
256,192,44059,1,0,0:0:0:0:
256,192,44209,1,8,0:0:0:0:
256,192,44359,1,8,0:0:0:0:
256,192,44509,1,0,0:0:0:0:
256,192,44659,1,8,0:0:0:0:
256,192,44809,1,0,0:0:0:0:
256,192,44959,1,0,0:0:0:0:
256,192,45109,1,8,0:0:0:0:
256,192,45209,1,8,0:0:0:0:
256,192,45309,1,0,0:0:0:0:
256,192,45409,1,8,0:0:0:0:
256,192,45509,1,8,0:0:0:0:
256,192,45609,1,8,0:0:0:0:
256,192,45709,1,0,0:0:0:0:
256,192,48109,1,4,0:0:0:0:
256,192,48409,1,8,0:0:0:0:
256,192,48559,1,0,0:0:0:0:
256,192,48709,1,8,0:0:0:0:
256,192,49009,1,0,0:0:0:0:
256,192,49309,1,8,0:0:0:0:
256,192,49609,1,0,0:0:0:0:
256,192,49759,1,0,0:0:0:0:
256,192,49909,1,8,0:0:0:0:
256,192,50059,1,8,0:0:0:0:
256,192,50209,1,0,0:0:0:0:
256,192,50509,1,0,0:0:0:0:
256,192,50809,1,8,0:0:0:0:
256,192,50959,1,0,0:0:0:0:
256,192,51109,1,8,0:0:0:0:
256,192,51409,1,0,0:0:0:0:
256,192,51709,1,8,0:0:0:0:
256,192,51859,1,8,0:0:0:0:
256,192,52009,1,0,0:0:0:0:
256,192,52309,1,8,0:0:0:0:
256,192,52459,1,0,0:0:0:0:
256,192,52609,1,8,0:0:0:0:
256,192,52759,1,8,0:0:0:0:
256,192,52909,1,0,0:0:0:0:
256,192,53209,1,8,0:0:0:0:
256,192,53359,1,0,0:0:0:0:
256,192,53509,1,8,0:0:0:0:
256,192,53809,1,0,0:0:0:0:
256,192,54109,1,8,0:0:0:0:
256,192,54409,1,0,0:0:0:0:
256,192,54559,1,0,0:0:0:0:
256,192,54709,1,8,0:0:0:0:
256,192,54859,1,8,0:0:0:0:
256,192,55009,1,0,0:0:0:0:
256,192,55309,1,0,0:0:0:0:
256,192,55609,1,8,0:0:0:0:
256,192,55759,1,0,0:0:0:0:
256,192,55909,1,8,0:0:0:0:
256,192,56209,1,0,0:0:0:0:
256,192,56509,1,8,0:0:0:0:
256,192,56659,1,8,0:0:0:0:
256,192,56809,1,0,0:0:0:0:
256,192,57109,1,8,0:0:0:0:
256,192,57259,1,0,0:0:0:0:
256,192,57409,1,0,0:0:0:0:
256,192,57709,1,4,0:0:0:0:
256,192,58009,1,8,0:0:0:0:
256,192,58159,1,0,0:0:0:0:
256,192,58309,1,8,0:0:0:0:
256,192,58609,1,0,0:0:0:0:
256,192,58909,1,8,0:0:0:0:
256,192,59209,1,0,0:0:0:0:
256,192,59359,1,0,0:0:0:0:
256,192,59509,1,8,0:0:0:0:
256,192,59809,1,8,0:0:0:0:
256,192,60109,1,0,0:0:0:0:
256,192,60409,1,8,0:0:0:0:
256,192,60559,1,0,0:0:0:0:
256,192,60709,1,8,0:0:0:0:
256,192,61009,1,0,0:0:0:0:
256,192,61309,1,8,0:0:0:0:
256,192,61459,1,8,0:0:0:0:
256,192,61609,1,0,0:0:0:0:
256,192,61909,1,8,0:0:0:0:
256,192,62059,1,0,0:0:0:0:
256,192,62209,1,8,0:0:0:0:
256,192,62359,1,8,0:0:0:0:
256,192,62509,1,0,0:0:0:0:
256,192,62809,1,8,0:0:0:0:
256,192,62959,1,0,0:0:0:0:
256,192,63109,1,8,0:0:0:0:
256,192,63409,1,0,0:0:0:0:
256,192,63709,1,8,0:0:0:0:
256,192,64009,1,0,0:0:0:0:
256,192,64159,1,0,0:0:0:0:
256,192,64309,1,8,0:0:0:0:
256,192,64459,1,8,0:0:0:0:
256,192,64609,1,0,0:0:0:0:
256,192,64909,1,0,0:0:0:0:
256,192,65359,1,8,0:0:0:0:
256,192,65509,1,0,0:0:0:0:
256,192,65809,1,8,0:0:0:0:
256,192,66109,1,0,0:0:0:0:
256,192,66409,1,0,0:0:0:0:
256,192,66559,1,0,0:0:0:0:
256,192,66709,1,8,0:0:0:0:
256,192,67159,1,8,0:0:0:0:
256,192,67309,1,4,0:0:0:0:
256,192,67609,1,8,0:0:0:0:
256,192,67759,1,0,0:0:0:0:
256,192,67909,1,8,0:0:0:0:
256,192,68209,1,0,0:0:0:0:
256,192,68509,1,8,0:0:0:0:
256,192,68659,1,8,0:0:0:0:
256,192,68809,1,0,0:0:0:0:
256,192,68959,1,0,0:0:0:0:
256,192,69109,1,8,0:0:0:0:
256,192,69409,1,8,0:0:0:0:
256,192,69709,1,0,0:0:0:0:
256,192,69859,1,0,0:0:0:0:
256,192,70009,1,8,0:0:0:0:
256,192,70159,1,0,0:0:0:0:
256,192,70309,1,8,0:0:0:0:
256,192,70609,1,0,0:0:0:0:
256,192,70759,1,0,0:0:0:0:
256,192,70909,1,8,0:0:0:0:
256,192,71209,1,0,0:0:0:0:
256,192,71509,1,8,0:0:0:0:
256,192,71659,1,8,0:0:0:0:
256,192,71809,1,0,0:0:0:0:
256,192,71959,1,8,0:0:0:0:
256,192,72109,1,0,0:0:0:0:
256,192,72409,1,8,0:0:0:0:
256,192,72559,1,0,0:0:0:0:
256,192,72709,1,8,0:0:0:0:
256,192,73009,1,0,0:0:0:0:
256,192,73309,1,8,0:0:0:0:
256,192,73459,1,8,0:0:0:0:
256,192,73609,1,0,0:0:0:0:
256,192,73759,1,0,0:0:0:0:
256,192,73909,1,8,0:0:0:0:
256,192,74209,1,8,0:0:0:0:
256,192,74509,1,0,0:0:0:0:
256,192,74659,1,8,0:0:0:0:
256,192,74809,1,8,0:0:0:0:
256,192,74959,1,0,0:0:0:0:
256,192,75109,1,8,0:0:0:0:
256,192,75409,1,0,0:0:0:0:
256,192,75559,1,0,0:0:0:0:
256,192,75709,1,8,0:0:0:0:
256,192,76009,1,0,0:0:0:0:
256,192,76309,1,12,0:0:0:0:
256,192,76909,1,0,0:0:0:0:
256,192,77209,1,0,0:0:0:0:
256,192,77509,1,8,0:0:0:0:
256,192,77809,1,0,0:0:0:0:
256,192,77959,1,8,0:0:0:0:
256,192,78109,1,0,0:0:0:0:
256,192,78409,1,0,0:0:0:0:
256,192,78709,1,8,0:0:0:0:
256,192,79309,1,0,0:0:0:0:
256,192,79609,1,0,0:0:0:0:
256,192,79909,1,8,0:0:0:0:
256,192,80209,1,0,0:0:0:0:
256,192,80359,1,8,0:0:0:0:
256,192,80509,1,0,0:0:0:0:
256,192,80809,1,0,0:0:0:0:
256,192,81109,1,8,0:0:0:0:
256,192,81709,1,0,0:0:0:0:
256,192,82009,1,0,0:0:0:0:
256,192,82309,1,8,0:0:0:0:
256,192,82609,1,0,0:0:0:0:
256,192,82759,1,8,0:0:0:0:
256,192,82909,1,0,0:0:0:0:
256,192,83209,1,0,0:0:0:0:
256,192,83509,1,8,0:0:0:0:
256,192,83809,1,8,0:0:0:0:
256,192,84109,1,0,0:0:0:0:
256,192,84709,1,8,0:0:0:0:
256,192,85009,1,0,0:0:0:0:
256,192,85609,1,8,0:0:0:0:
256,192,85909,1,8,0:0:0:0:
256,192,86509,1,0,0:0:0:0:
256,192,86809,1,0,0:0:0:0:
256,192,87109,1,8,0:0:0:0:
256,192,87409,1,8,0:0:0:0:
256,192,87559,1,8,0:0:0:0:
256,192,87709,1,0,0:0:0:0:
256,192,88009,1,0,0:0:0:0:
256,192,88159,1,0,0:0:0:0:
256,192,88309,1,8,0:0:0:0:
256,192,88909,1,0,0:0:0:0:
256,192,89209,1,0,0:0:0:0:
256,192,89509,1,8,0:0:0:0:
256,192,89809,1,8,0:0:0:0:
256,192,89959,1,8,0:0:0:0:
256,192,90109,1,0,0:0:0:0:
256,192,90409,1,8,0:0:0:0:
256,192,90559,1,0,0:0:0:0:
256,192,90709,1,8,0:0:0:0:
256,192,91309,1,0,0:0:0:0:
256,192,91609,1,0,0:0:0:0:
256,192,91909,1,8,0:0:0:0:
256,192,92209,1,8,0:0:0:0:
256,192,92359,1,8,0:0:0:0:
256,192,92509,1,0,0:0:0:0:
256,192,92809,1,0,0:0:0:0:
256,192,92959,1,0,0:0:0:0:
256,192,93109,1,8,0:0:0:0:
256,192,93409,1,8,0:0:0:0:
256,192,93709,1,0,0:0:0:0:
256,192,94009,1,0,0:0:0:0:
256,192,94159,1,0,0:0:0:0:
256,192,94309,1,8,0:0:0:0:
256,192,94459,1,8,0:0:0:0:
256,192,94609,1,0,0:0:0:0:
256,192,94909,1,8,0:0:0:0:
256,192,95209,1,8,0:0:0:0:
256,192,95359,1,0,0:0:0:0:
256,192,95509,1,8,0:0:0:0:
256,192,95809,1,8,0:0:0:0:
256,192,96109,1,0,0:0:0:0:
256,192,96259,1,8,0:0:0:0:
256,192,96559,1,0,0:0:0:0:
256,192,96709,1,8,0:0:0:0:
256,192,97009,1,0,0:0:0:0:
256,192,97159,1,8,0:0:0:0:
256,192,97309,1,0,0:0:0:0:
256,192,97609,1,0,0:0:0:0:
256,192,97759,1,8,0:0:0:0:
256,192,97909,1,8,0:0:0:0:
256,192,98209,1,8,0:0:0:0:
256,192,98509,1,0,0:0:0:0:
256,192,98659,1,0,0:0:0:0:
256,192,98809,1,8,0:0:0:0:
256,192,98959,1,0,0:0:0:0:
256,192,99259,1,8,0:0:0:0:
256,192,99409,1,0,0:0:0:0:
256,192,99709,1,8,0:0:0:0:
256,192,99859,1,8,0:0:0:0:
256,192,100009,1,0,0:0:0:0:
256,192,100159,1,0,0:0:0:0:
256,192,100309,1,8,0:0:0:0:
256,192,100609,1,8,0:0:0:0:
256,192,100909,1,0,0:0:0:0:
256,192,101059,1,8,0:0:0:0:
256,192,101359,1,0,0:0:0:0:
256,192,101509,1,8,0:0:0:0:
256,192,101809,1,0,0:0:0:0:
256,192,101959,1,8,0:0:0:0:
256,192,102109,1,0,0:0:0:0:
256,192,102409,1,0,0:0:0:0:
256,192,102559,1,8,0:0:0:0:
256,192,102709,1,8,0:0:0:0:
256,192,103009,1,8,0:0:0:0:
256,192,103309,1,0,0:0:0:0:
256,192,103459,1,0,0:0:0:0:
256,192,103609,1,8,0:0:0:0:
256,192,103759,1,0,0:0:0:0:
256,192,104059,1,8,0:0:0:0:
256,192,104209,1,0,0:0:0:0:
256,192,104509,1,8,0:0:0:0:
256,192,104659,1,8,0:0:0:0:
256,192,104809,1,0,0:0:0:0:
256,192,104959,1,0,0:0:0:0:
256,192,105109,1,8,0:0:0:0:
256,192,105409,1,8,0:0:0:0:
256,192,105559,1,8,0:0:0:0:
256,192,105709,1,0,0:0:0:0:
256,192,105859,1,8,0:0:0:0:
256,192,106159,1,0,0:0:0:0:
256,192,106309,1,8,0:0:0:0:
256,192,106609,1,0,0:0:0:0:
256,192,106759,1,8,0:0:0:0:
256,192,106909,1,0,0:0:0:0:
256,192,107209,1,0,0:0:0:0:
256,192,107359,1,0,0:0:0:0:
256,192,107509,1,8,0:0:0:0:
256,192,107809,1,8,0:0:0:0:
256,192,108109,1,0,0:0:0:0:
256,192,108259,1,0,0:0:0:0:
256,192,108409,1,8,0:0:0:0:
256,192,108559,1,0,0:0:0:0:
256,192,108859,1,8,0:0:0:0:
256,192,109009,1,0,0:0:0:0:
256,192,109309,1,8,0:0:0:0:
256,192,109459,1,8,0:0:0:0:
256,192,109609,1,0,0:0:0:0:
256,192,109759,1,0,0:0:0:0:
256,192,109909,1,8,0:0:0:0:
256,192,110209,1,8,0:0:0:0:
256,192,110359,1,8,0:0:0:0:
256,192,110509,1,0,0:0:0:0:
256,192,110809,1,8,0:0:0:0:
256,192,110959,1,8,0:0:0:0:
256,192,111109,1,0,0:0:0:0:
256,192,111259,1,0,0:0:0:0:
256,192,111409,1,8,0:0:0:0:
256,192,111559,1,8,0:0:0:0:
256,192,111709,1,8,0:0:0:0:
256,192,111859,1,8,0:0:0:0:
256,192,112009,1,0,0:0:0:0:
256,192,112159,1,0,0:0:0:0:
256,192,112309,1,8,0:0:0:0:
256,192,112409,1,8,0:0:0:0:
256,192,112509,1,0,0:0:0:0:
256,192,112609,1,8,0:0:0:0:
256,192,112709,1,8,0:0:0:0:
256,192,112809,1,8,0:0:0:0:
256,192,112909,1,0,0:0:0:0:
256,192,115309,1,4,0:0:0:0:
256,192,115609,1,8,0:0:0:0:
256,192,115759,1,0,0:0:0:0:
256,192,115909,1,8,0:0:0:0:
256,192,116209,1,0,0:0:0:0:
256,192,116509,1,8,0:0:0:0:
256,192,116809,1,0,0:0:0:0:
256,192,116959,1,0,0:0:0:0:
256,192,117109,1,8,0:0:0:0:
256,192,117259,1,8,0:0:0:0:
256,192,117409,1,0,0:0:0:0:
256,192,117709,1,0,0:0:0:0:
256,192,118009,1,8,0:0:0:0:
256,192,118159,1,0,0:0:0:0:
256,192,118309,1,8,0:0:0:0:
256,192,118609,1,0,0:0:0:0:
256,192,118909,1,8,0:0:0:0:
256,192,119059,1,8,0:0:0:0:
256,192,119209,1,0,0:0:0:0:
256,192,119509,1,8,0:0:0:0:
256,192,119659,1,0,0:0:0:0:
256,192,119809,1,8,0:0:0:0:
256,192,119959,1,8,0:0:0:0:
256,192,120109,1,0,0:0:0:0:
256,192,120409,1,8,0:0:0:0:
256,192,120559,1,0,0:0:0:0:
256,192,120709,1,8,0:0:0:0:
256,192,121009,1,0,0:0:0:0:
256,192,121309,1,8,0:0:0:0:
256,192,121609,1,0,0:0:0:0:
256,192,121759,1,0,0:0:0:0:
256,192,121909,1,8,0:0:0:0:
256,192,122059,1,8,0:0:0:0:
256,192,122209,1,0,0:0:0:0:
256,192,122509,1,0,0:0:0:0:
256,192,122809,1,8,0:0:0:0:
256,192,122959,1,0,0:0:0:0:
256,192,123109,1,8,0:0:0:0:
256,192,123409,1,0,0:0:0:0:
256,192,123709,1,8,0:0:0:0:
256,192,123859,1,8,0:0:0:0:
256,192,124009,1,0,0:0:0:0:
256,192,124309,1,8,0:0:0:0:
256,192,124459,1,0,0:0:0:0:
256,192,124609,1,0,0:0:0:0:
256,192,124909,1,4,0:0:0:0:
256,192,125209,1,8,0:0:0:0:
256,192,125359,1,0,0:0:0:0:
256,192,125509,1,8,0:0:0:0:
256,192,125809,1,0,0:0:0:0:
256,192,126109,1,8,0:0:0:0:
256,192,126409,1,0,0:0:0:0:
256,192,126559,1,0,0:0:0:0:
256,192,126709,1,8,0:0:0:0:
256,192,127009,1,8,0:0:0:0:
256,192,127309,1,0,0:0:0:0:
256,192,127609,1,8,0:0:0:0:
256,192,127759,1,0,0:0:0:0:
256,192,127909,1,8,0:0:0:0:
256,192,128209,1,0,0:0:0:0:
256,192,128509,1,8,0:0:0:0:
256,192,128659,1,8,0:0:0:0:
256,192,128809,1,0,0:0:0:0:
256,192,129109,1,8,0:0:0:0:
256,192,129259,1,0,0:0:0:0:
256,192,129409,1,8,0:0:0:0:
256,192,129559,1,8,0:0:0:0:
256,192,129709,1,0,0:0:0:0:
256,192,130009,1,8,0:0:0:0:
256,192,130159,1,0,0:0:0:0:
256,192,130309,1,8,0:0:0:0:
256,192,130609,1,0,0:0:0:0:
256,192,130909,1,8,0:0:0:0:
256,192,131209,1,0,0:0:0:0:
256,192,131359,1,0,0:0:0:0:
256,192,131509,1,8,0:0:0:0:
256,192,131659,1,8,0:0:0:0:
256,192,131809,1,0,0:0:0:0:
256,192,132109,1,0,0:0:0:0:
256,192,132559,1,8,0:0:0:0:
256,192,132709,1,0,0:0:0:0:
256,192,133009,1,8,0:0:0:0:
256,192,133309,1,0,0:0:0:0:
256,192,133609,1,0,0:0:0:0:
256,192,133759,1,0,0:0:0:0:
256,192,133909,1,8,0:0:0:0:
256,192,134359,1,8,0:0:0:0:
256,192,134509,1,4,0:0:0:0:
256,192,134809,1,8,0:0:0:0:
256,192,134959,1,0,0:0:0:0:
256,192,135109,1,8,0:0:0:0:
256,192,135409,1,0,0:0:0:0:
256,192,135709,1,8,0:0:0:0:
256,192,135859,1,8,0:0:0:0:
256,192,136009,1,0,0:0:0:0:
256,192,136159,1,0,0:0:0:0:
256,192,136309,1,8,0:0:0:0:
256,192,136609,1,8,0:0:0:0:
256,192,136909,1,0,0:0:0:0:
256,192,137059,1,0,0:0:0:0:
256,192,137209,1,8,0:0:0:0:
256,192,137359,1,0,0:0:0:0:
256,192,137509,1,8,0:0:0:0:
256,192,137809,1,0,0:0:0:0:
256,192,137959,1,0,0:0:0:0:
256,192,138109,1,8,0:0:0:0:
256,192,138409,1,0,0:0:0:0:
256,192,138709,1,8,0:0:0:0:
256,192,138859,1,8,0:0:0:0:
256,192,139159,1,8,0:0:0:0:
256,192,139309,1,0,0:0:0:0:
256,192,139609,1,8,0:0:0:0:
256,192,139759,1,0,0:0:0:0:
256,192,139909,1,8,0:0:0:0:
256,192,140209,1,0,0:0:0:0:
256,192,140509,1,8,0:0:0:0:
256,192,140659,1,8,0:0:0:0:
256,192,140809,1,0,0:0:0:0:
256,192,140959,1,0,0:0:0:0:
256,192,141109,1,8,0:0:0:0:
256,192,141409,1,8,0:0:0:0:
256,192,141709,1,0,0:0:0:0:
256,192,141859,1,8,0:0:0:0:
256,192,142009,1,8,0:0:0:0:
256,192,142159,1,0,0:0:0:0:
256,192,142309,1,8,0:0:0:0:
256,192,142609,1,0,0:0:0:0:
256,192,142759,1,0,0:0:0:0:
256,192,142909,1,8,0:0:0:0:
256,192,143509,1,0,0:0:0:0:
256,192,144109,1,8,0:0:0:0:
256,192,144409,1,8,0:0:0:0:
256,192,144559,1,8,0:0:0:0:
256,192,144709,1,0,0:0:0:0:
256,192,145009,1,0,0:0:0:0:
256,192,145159,1,8,0:0:0:0:
256,192,145459,1,8,0:0:0:0:
256,192,145609,1,0,0:0:0:0:
256,192,146209,1,8,0:0:0:0:
256,192,146809,1,0,0:0:0:0:
256,192,146959,1,8,0:0:0:0:
256,192,147409,1,0,0:0:0:0:
256,192,147559,1,8,0:0:0:0:
256,192,148009,1,8,0:0:0:0:
256,192,148309,1,8,0:0:0:0:
256,192,148459,1,8,0:0:0:0:
256,192,148609,1,0,0:0:0:0:
256,192,148909,1,0,0:0:0:0:
256,192,149209,1,8,0:0:0:0:
256,192,149359,1,8,0:0:0:0:
256,192,149509,1,0,0:0:0:0:
256,192,149809,1,0,0:0:0:0:
256,192,149959,1,8,0:0:0:0:
256,192,150409,1,0,0:0:0:0:
256,192,150709,1,8,0:0:0:0:
256,192,151009,1,0,0:0:0:0:
256,192,151609,1,0,0:0:0:0:
256,192,151759,1,8,0:0:0:0:
256,192,152209,1,0,0:0:0:0:
256,192,152359,1,8,0:0:0:0:
256,192,152809,1,8,0:0:0:0:
256,192,153109,1,8,0:0:0:0:
256,192,153259,1,8,0:0:0:0:
256,192,153409,1,0,0:0:0:0:
256,192,153559,1,0,0:0:0:0:
256,192,153709,1,8,0:0:0:0:
256,192,154009,1,8,0:0:0:0:
256,192,154159,1,8,0:0:0:0:
256,192,154309,1,0,0:0:0:0:
256,192,154609,1,0,0:0:0:0:
256,192,154759,1,8,0:0:0:0:
256,192,155059,1,8,0:0:0:0:
256,192,155209,1,0,0:0:0:0:
256,192,155509,1,8,0:0:0:0:
256,192,155659,1,8,0:0:0:0:
256,192,155809,1,0,0:0:0:0:
256,192,156109,1,8,0:0:0:0:
256,192,156409,1,0,0:0:0:0:
256,192,156559,1,8,0:0:0:0:
256,192,156859,1,8,0:0:0:0:
256,192,157009,1,0,0:0:0:0:
256,192,157159,1,0,0:0:0:0:
256,192,157309,1,8,0:0:0:0:
256,192,157609,1,0,0:0:0:0:
256,192,157909,1,8,0:0:0:0:
256,192,158059,1,8,0:0:0:0:
256,192,158209,1,8,0:0:0:0:
256,192,158359,1,0,0:0:0:0:
256,192,158509,1,8,0:0:0:0:
256,192,158809,1,0,0:0:0:0:
256,192,158959,1,8,0:0:0:0:
256,192,159259,1,8,0:0:0:0:
256,192,159409,1,0,0:0:0:0:
256,192,159559,1,0,0:0:0:0:
256,192,159709,1,8,0:0:0:0:
256,192,160009,1,0,0:0:0:0:
256,192,160309,1,8,0:0:0:0:
256,192,160459,1,8,0:0:0:0:
256,192,160609,1,0,0:0:0:0:
256,192,161209,1,0,0:0:0:0:
256,192,161809,1,8,0:0:0:0:
256,192,161959,1,8,0:0:0:0:
256,192,162409,1,0,0:0:0:0:
256,192,162709,1,0,0:0:0:0:
256,192,162809,1,0,0:0:0:0:
256,192,162909,1,0,0:0:0:0:
256,192,163009,1,8,0:0:0:0:
256,192,163109,1,8,0:0:0:0:
256,192,163209,1,8,0:0:0:0:
256,192,163309,1,4,0:0:0:0:
256,192,163609,1,8,0:0:0:0:
256,192,163759,1,0,0:0:0:0:
256,192,163909,1,8,0:0:0:0:
256,192,164209,1,0,0:0:0:0:
256,192,164509,1,8,0:0:0:0:
256,192,164809,1,0,0:0:0:0:
256,192,164959,1,0,0:0:0:0:
256,192,165109,1,8,0:0:0:0:
256,192,165259,1,8,0:0:0:0:
256,192,165409,1,0,0:0:0:0:
256,192,165709,1,0,0:0:0:0:
256,192,166009,1,8,0:0:0:0:
256,192,166159,1,0,0:0:0:0:
256,192,166309,1,8,0:0:0:0:
256,192,166609,1,0,0:0:0:0:
256,192,166909,1,8,0:0:0:0:
256,192,167059,1,8,0:0:0:0:
256,192,167209,1,0,0:0:0:0:
256,192,167509,1,8,0:0:0:0:
256,192,167659,1,0,0:0:0:0:
256,192,167809,1,8,0:0:0:0:
256,192,167959,1,8,0:0:0:0:
256,192,168109,1,0,0:0:0:0:
256,192,168409,1,8,0:0:0:0:
256,192,168559,1,0,0:0:0:0:
256,192,168709,1,8,0:0:0:0:
256,192,169009,1,0,0:0:0:0:
256,192,169309,1,8,0:0:0:0:
256,192,169609,1,0,0:0:0:0:
256,192,169759,1,0,0:0:0:0:
256,192,169909,1,8,0:0:0:0:
256,192,170059,1,8,0:0:0:0:
256,192,170209,1,0,0:0:0:0:
256,192,170509,1,0,0:0:0:0:
256,192,170809,1,8,0:0:0:0:
256,192,170959,1,0,0:0:0:0:
256,192,171109,1,8,0:0:0:0:
256,192,171409,1,0,0:0:0:0:
256,192,171709,1,8,0:0:0:0:
256,192,171859,1,8,0:0:0:0:
256,192,172009,1,0,0:0:0:0:
256,192,172309,1,8,0:0:0:0:
256,192,172459,1,0,0:0:0:0:
256,192,172609,1,0,0:0:0:0:
256,192,172909,1,4,0:0:0:0:
256,192,173209,1,8,0:0:0:0:
256,192,173359,1,0,0:0:0:0:
256,192,173509,1,8,0:0:0:0:
256,192,173809,1,0,0:0:0:0:
256,192,174109,1,8,0:0:0:0:
256,192,174409,1,0,0:0:0:0:
256,192,174559,1,0,0:0:0:0:
256,192,174709,1,8,0:0:0:0:
256,192,175009,1,8,0:0:0:0:
256,192,175309,1,0,0:0:0:0:
256,192,175609,1,8,0:0:0:0:
256,192,175759,1,0,0:0:0:0:
256,192,175909,1,8,0:0:0:0:
256,192,176209,1,0,0:0:0:0:
256,192,176509,1,8,0:0:0:0:
256,192,176659,1,8,0:0:0:0:
256,192,176809,1,0,0:0:0:0:
256,192,177109,1,8,0:0:0:0:
256,192,177259,1,0,0:0:0:0:
256,192,177409,1,8,0:0:0:0:
256,192,177559,1,8,0:0:0:0:
256,192,177709,1,0,0:0:0:0:
256,192,178009,1,8,0:0:0:0:
256,192,178159,1,0,0:0:0:0:
256,192,178309,1,8,0:0:0:0:
256,192,178609,1,0,0:0:0:0:
256,192,178909,1,8,0:0:0:0:
256,192,179209,1,0,0:0:0:0:
256,192,179359,1,0,0:0:0:0:
256,192,179509,1,8,0:0:0:0:
256,192,179659,1,8,0:0:0:0:
256,192,179809,1,0,0:0:0:0:
256,192,180109,1,0,0:0:0:0:
256,192,180409,1,8,0:0:0:0:
256,192,180559,1,0,0:0:0:0:
256,192,180709,1,8,0:0:0:0:
256,192,181009,1,0,0:0:0:0:
256,192,181309,1,8,0:0:0:0:
256,192,181609,1,0,0:0:0:0:
256,192,181759,1,0,0:0:0:0:
256,192,181909,1,8,0:0:0:0:
256,192,182359,1,8,0:0:0:0:
256,192,182509,1,4,0:0:0:0:
256,192,182809,1,8,0:0:0:0:
256,192,182959,1,0,0:0:0:0:
256,192,183109,1,8,0:0:0:0:
256,192,183409,1,0,0:0:0:0:
256,192,183709,1,8,0:0:0:0:
256,192,183859,1,8,0:0:0:0:
256,192,184009,1,0,0:0:0:0:
256,192,184159,1,0,0:0:0:0:
256,192,184309,1,8,0:0:0:0:
256,192,184609,1,8,0:0:0:0:
256,192,184909,1,0,0:0:0:0:
256,192,185059,1,0,0:0:0:0:
256,192,185209,1,8,0:0:0:0:
256,192,185359,1,0,0:0:0:0:
256,192,185509,1,8,0:0:0:0:
256,192,185809,1,0,0:0:0:0:
256,192,185959,1,0,0:0:0:0:
256,192,186109,1,8,0:0:0:0:
256,192,186409,1,0,0:0:0:0:
256,192,186709,1,8,0:0:0:0:
256,192,187159,1,8,0:0:0:0:
256,192,187309,1,0,0:0:0:0:
256,192,187609,1,8,0:0:0:0:
256,192,187759,1,0,0:0:0:0:
256,192,187909,1,8,0:0:0:0:
256,192,188209,1,0,0:0:0:0:
256,192,188509,1,8,0:0:0:0:
256,192,188659,1,8,0:0:0:0:
256,192,188809,1,0,0:0:0:0:
256,192,188959,1,0,0:0:0:0:
256,192,189109,1,8,0:0:0:0:
256,192,189409,1,8,0:0:0:0:
256,192,189709,1,0,0:0:0:0:
256,192,189859,1,8,0:0:0:0:
256,192,190009,1,8,0:0:0:0:
256,192,190159,1,0,0:0:0:0:
256,192,190309,1,8,0:0:0:0:
256,192,190609,1,0,0:0:0:0:
256,192,190759,1,0,0:0:0:0:
256,192,190909,1,8,0:0:0:0:
256,192,191209,1,0,0:0:0:0:
256,192,191509,1,8,0:0:0:0:
256,192,191659,1,8,0:0:0:0:
256,192,191959,1,8,0:0:0:0:
256,192,192109,1,0,0:0:0:0:
256,192,192409,1,8,0:0:0:0:
256,192,192559,1,0,0:0:0:0:
256,192,192709,1,8,0:0:0:0:
256,192,193009,1,0,0:0:0:0:
256,192,193309,1,8,0:0:0:0:
256,192,193459,1,8,0:0:0:0:
256,192,193609,1,0,0:0:0:0:
256,192,193759,1,0,0:0:0:0:
256,192,193909,1,8,0:0:0:0:
256,192,194209,1,8,0:0:0:0:
256,192,194509,1,0,0:0:0:0:
256,192,194659,1,0,0:0:0:0:
256,192,194809,1,8,0:0:0:0:
256,192,194959,1,0,0:0:0:0:
256,192,195109,1,8,0:0:0:0:
256,192,195409,1,0,0:0:0:0:
256,192,195559,1,0,0:0:0:0:
256,192,195709,1,8,0:0:0:0:
256,192,196009,1,0,0:0:0:0:
256,192,196309,1,8,0:0:0:0:
256,192,196459,1,8,0:0:0:0:
256,192,196759,1,8,0:0:0:0:
256,192,196909,1,0,0:0:0:0:
256,192,197059,1,8,0:0:0:0:
256,192,197209,1,8,0:0:0:0:
256,192,197359,1,0,0:0:0:0:
256,192,197509,1,8,0:0:0:0:
256,192,197809,1,0,0:0:0:0:
256,192,198109,1,8,0:0:0:0:
256,192,198259,1,8,0:0:0:0:
256,192,198409,1,0,0:0:0:0:
256,192,198559,1,0,0:0:0:0:
256,192,198709,1,8,0:0:0:0:
256,192,199009,1,8,0:0:0:0:
256,192,199309,1,0,0:0:0:0:
256,192,199459,1,8,0:0:0:0:
256,192,199609,1,8,0:0:0:0:
256,192,199759,1,0,0:0:0:0:
256,192,199909,1,8,0:0:0:0:
256,192,200209,1,0,0:0:0:0:
256,192,200359,1,0,0:0:0:0:
256,192,200509,1,8,0:0:0:0:
256,192,200809,1,0,0:0:0:0:
256,192,201109,1,8,0:0:0:0:
256,192,201259,1,8,0:0:0:0:
256,192,201409,1,0,0:0:0:0:
256,192,201559,1,8,0:0:0:0:
256,192,201709,1,0,0:0:0:0:
256,192,202009,1,8,0:0:0:0:
256,192,202309,1,0,0:0:0:0:
256,192,202609,1,8,0:0:0:0:
256,192,203209,1,0,0:0:0:0:
256,192,203809,1,8,0:0:0:0:
256,192,204409,1,8,0:0:0:0:
256,192,205009,1,8,0:0:0:0:
