osu file format v14

[General]
AudioFilename: Lady Gaga - The Cure.mp3
AudioLeadIn: 0
PreviewTime: 163309
Countdown: 0
SampleSet: Soft
StackLeniency: 0.3
Mode: 0
LetterboxInBreaks: 0
EpilepsyWarning: 1
WidescreenStoryboard: 1

[Editor]
Bookmarks: 9709,144409,151609,206209
DistanceSpacing: 1
BeatDivisor: 8
GridSize: 4
TimelineZoom: 1

[Metadata]
Title:The Cure
TitleUnicode:The Cure
Artist:Lady Gaga
ArtistUnicode:Lady Gaga
Creator:Gero
Version:By Your Side
Source:
Tags:Beren ErufenRito Xanandra mancusojuanmattos mancuso_JM_ Skubi CptSqBany English Pop Disco Dance Rock Dive Bar Tour Battered Interscope Records Billboard Hot 100 Haus of Gaga Mother Monster Stefani Joanne Angelina Germanotta Coachella DJ White Shadow Lukas Nelson Mark Nilan Nick Monson
BeatmapID:2344472
BeatmapSetID:629209

[Difficulty]
HPDrainRate:7
CircleSize:4
OverallDifficulty:7
ApproachRate:8.5
SliderMultiplier:1.8
SliderTickRate:2

[Events]
//Background and Video events
0,0,"BG.jpg",0,0
//Break Periods
2,45909,47434
2,113109,114634
2,144609,151609
//Storyboard Layer 0 (Background)
//Storyboard Layer 1 (Fail)
//Storyboard Layer 2 (Pass)
//Storyboard Layer 3 (Foreground)
Sprite,Foreground,Centre,"SB\1.png",320,240 F,0,9709,9859,0,1 F,0,9859,11509,1 F,0,11509,11809,1,0
Sprite,Foreground,Centre,"SB\2.png",320,240 F,0,12109,12259,0,1 F,0,12259,13909,1 F,0,13909,14209,1,0
Sprite,Foreground,Centre,"SB\3.png",320,240 F,0,14509,14659,0,1 F,0,14659,17509,1 F,0,17509,17809,1,0
Sprite,Foreground,Centre,"SB\4.png",320,240 F,0,19309,19459,0,1 F,0,19459,21109,1 F,0,21109,21409,1,0
Sprite,Foreground,Centre,"SB\5.png",320,240 F,0,21709,21859,0,1 F,0,21859,23509,1 F,0,23509,23809,1,0
Sprite,Foreground,Centre,"SB\6.png",320,240 F,0,24109,24259,0,1 F,0,24259,26809,1 F,0,26809,27109,1,0
Sprite,Foreground,Centre,"SB\7.png",320,240 F,0,29209,29359,0,1 F,0,29359,30409,1 F,0,30409,30709,1,0
Sprite,Foreground,Centre,"SB\8.png",320,240 F,0,31309,31459,0,1 F,0,31459,33409,1 F,0,33409,33709,1,0
Sprite,Foreground,Centre,"SB\7.png",320,240 F,0,34159,34309,0,1 F,0,34309,35209,1 F,0,35209,35509,1,0
Sprite,Foreground,Centre,"SB\9.png",320,240 F,0,36109,36259,0,1 F,0,36259,38209,1 F,0,38209,38509,1,0
Sprite,Foreground,Centre,"SB\7.png",320,240 F,0,38809,38959,0,1 F,0,38959,39709,1 F,0,39709,40009,1,0
Sprite,Foreground,Centre,"SB\8.png",320,240 F,0,40909,41059,0,1 F,0,41059,43009,1 F,0,43009,43309,1,0
Sprite,Foreground,Centre,"SB\11.png",320,240 M,0,45709,,320,240 F,0,45709,45859,0,1 F,0,45859,47509,1 F,0,47509,48109,1,0 S,0,47509,48109,1,1.330323
Sprite,Foreground,Centre,"SB\12.png",320,240 F,0,48259,48409,0,0.8299355 M,0,48259,52909,162.3811,137.6018,211.8193,138.4258 F,0,48409,52609,0.8299355,1 F,0,52609,52909,1,0
Sprite,Foreground,Centre,"SB\13.png",320,240 F,0,50659,50809,0,1 M,0,50659,52909,280.3613,209.4452,253.9355,208.6194 F,0,50809,52609,1 F,0,52609,52909,1,0
Sprite,Foreground,Centre,"SB\14.png",320,240 F,0,53059,53209,0,1 M,0,53059,57409,164.7484,144.2065,213.471,144.2065 F,0,53209,57109,1 F,0,57109,57409,1,0
Sprite,Foreground,Centre,"SB\13.png",320,240 F,0,55459,55609,0,1 M,0,55459,57409,267.1484,209.4452,244.8516,209.4452 F,0,55609,57109,1 F,0,57109,57409,1,0
Sprite,Foreground,Centre,"SB\15.png",320,240 F,0,57559,57709,0,0.9180957 M,0,57559,62209,169.7032,145.0323,214.2968,144.2065 F,0,57709,61909,0.9180957,1 F,0,61909,62209,1,0
Sprite,Foreground,Centre,"SB\16.png",320,240 F,0,59959,60109,0,1 M,0,59959,62209,293.5742,211.9226,265.4968,211.0968 F,0,60109,61909,1 F,0,61909,62209,1,0
Sprite,Foreground,Centre,"SB\17.png",320,240 F,0,62659,62809,0,1 M,0,62659,67909,151.5355,145.0323,194.4774,144.2064 F,0,62809,67309,1 F,0,67309,67909,1,0
Sprite,Foreground,Centre,"SB\18.png",320,240 F,0,65059,65209,0,1 M,0,65059,67909,258.0645,204.4903,227.5097,204.4903 F,0,65209,67309,1 F,0,67309,67909,1,0
Sprite,Foreground,Centre,"SB\19.png",320,240 F,0,76909,77059,0,1 F,0,77059,78709,1 F,0,78709,79009,1,0
Sprite,Foreground,Centre,"SB\21.png",320,240 F,0,79309,79459,0,1 F,0,79459,81109,1 F,0,81109,81409,1,0
Sprite,Foreground,Centre,"SB\22.png",320,240 F,0,81709,81859,0,1 F,0,81859,85909,1 F,0,85909,86209,1,0.008333334
Sprite,Foreground,Centre,"SB\23.png",320,240 F,0,86509,86659,0,1 F,0,86659,88309,1 F,0,88309,88609,1,0
Sprite,Foreground,Centre,"SB\24.png",320,240 F,0,88909,89059,0,1 F,0,89059,90709,1 F,0,90709,91009,1,0
Sprite,Foreground,Centre,"SB\25.png",320,240 F,0,91309,91459,0,1 F,0,91459,95509,1 F,0,95509,95809,1,0
Sprite,Foreground,Centre,"SB\7.png",320,240 F,0,96409,96559,0,1 F,0,96559,97609,1 F,0,97609,97909,1,0.000774231
Sprite,Foreground,Centre,"SB\8.png",320,240 F,0,98509,98659,0,1 F,0,98659,100309,1 F,0,100309,100609,1,0
Sprite,Foreground,Centre,"SB\7.png",320,240 F,0,101209,101359,0,1 F,0,101359,102409,1 F,0,102409,102709,1,0
Sprite,Foreground,Centre,"SB\9.png",320,240 F,0,103309,103459,0,1 F,0,103459,105409,1 F,0,105409,105709,1,0
Sprite,Foreground,Centre,"SB\7.png",320,240 F,0,106009,106159,0,1 F,0,106159,107209,1 F,0,107209,107509,1,0
Sprite,Foreground,Centre,"SB\8.png",320,240 F,0,108109,108259,0,1 F,0,108259,110209,1 F,0,110209,110509,1,0
Sprite,Foreground,Centre,"SB\11.png",320,240 M,0,112909,,320,240 F,0,112909,113059,0,1 F,0,113059,114709,1 F,0,114709,115309,1,0 S,0,114709,115309,1,1.330323
Sprite,Foreground,Centre,"SB\12.png",320,240 F,0,115459,115609,0,0.8299355 M,0,115459,120109,162.3811,137.6018,211.8193,138.4258 F,0,115609,119809,0.8299355,1 F,0,119809,120109,1,0
Sprite,Foreground,Centre,"SB\13.png",320,240 F,0,117859,118009,0,1 M,0,117859,120109,280.3613,209.4452,253.9355,208.6194 F,0,118009,119809,1 F,0,119809,120109,1,0
Sprite,Foreground,Centre,"SB\14.png",320,240 F,0,120259,120409,0,1 M,0,120259,124609,164.7484,144.2065,213.471,144.2065 F,0,120409,124309,1 F,0,124309,124609,1,0
Sprite,Foreground,Centre,"SB\13.png",320,240 F,0,122659,122809,0,1 M,0,122659,124609,267.1484,209.4452,244.8516,209.4452 F,0,122809,124309,1 F,0,124309,124609,1,0
Sprite,Foreground,Centre,"SB\15.png",320,240 F,0,124759,124909,0,0.9180957 M,0,124759,129409,169.7032,145.0323,214.2968,144.2065 F,0,124909,129109,0.9180957,1 F,0,129109,129409,1,0
Sprite,Foreground,Centre,"SB\16.png",320,240 F,0,127159,127309,0,1 M,0,127159,129409,293.5742,211.9226,265.4968,211.0968 F,0,127309,129109,1 F,0,129109,129409,1,0
Sprite,Foreground,Centre,"SB\17.png",320,240 F,0,129859,130009,0,1 M,0,129859,135109,151.5355,145.0323,194.4774,144.2064 F,0,130009,134509,1 F,0,134509,135109,1,0
Sprite,Foreground,Centre,"SB\18.png",320,240 F,0,132259,132409,0,1 M,0,132259,135109,258.0645,204.4903,227.5097,204.4903 F,0,132409,134509,1 F,0,134509,135109,1,0
Sprite,Foreground,Centre,"SB\13.png",320,240 M,0,144409,,320,240 F,0,144409,144709,0,1 F,0,144709,148009,1 F,0,148009,148609,1,0
Sprite,Foreground,Centre,"SB\13.png",320,240 M,0,154009,,320,240 F,0,154009,154309,0,1 F,0,154309,157609,1 F,0,157609,158209,1,0
Sprite,Foreground,Centre,"SB\12.png",320,240 F,0,163459,163609,0,0.8299355 M,0,163459,168109,162.3811,137.6018,211.8193,138.4258 F,0,163609,167809,0.8299355,1 F,0,167809,168109,1,0
Sprite,Foreground,Centre,"SB\13.png",320,240 F,0,165859,166009,0,1 M,0,165859,168109,280.3613,209.4452,253.9355,208.6194 F,0,166009,167809,1 F,0,167809,168109,1,0
Sprite,Foreground,Centre,"SB\14.png",320,240 F,0,168259,168409,0,1 M,0,168259,172609,164.7484,144.2065,213.471,144.2065 F,0,168409,172309,1 F,0,172309,172609,1,0
Sprite,Foreground,Centre,"SB\13.png",320,240 F,0,170659,170809,0,1 M,0,170659,172609,267.1484,209.4452,244.8516,209.4452 F,0,170809,172309,1 F,0,172309,172609,1,0
Sprite,Foreground,Centre,"SB\15.png",320,240 F,0,172759,172909,0,0.9180957 M,0,172759,177409,169.7032,145.0323,214.2968,144.2065 F,0,172909,177109,0.9180957,1 F,0,177109,177409,1,0
Sprite,Foreground,Centre,"SB\16.png",320,240 F,0,175159,175309,0,1 M,0,175159,177409,293.5742,211.9226,265.4968,211.0968 F,0,175309,177109,1 F,0,177109,177409,1,0
Sprite,Foreground,Centre,"SB\17.png",320,240 F,0,177859,178009,0,1 M,0,177859,183109,151.5355,145.0323,194.4774,144.2064 F,0,178009,182509,1 F,0,182509,183109,1,0
Sprite,Foreground,Centre,"SB\18.png",320,240 F,0,180259,180409,0,1 M,0,180259,183109,258.0645,204.4903,227.5097,204.4903 F,0,180409,182509,1 F,0,182509,183109,1,0
Sprite,Foreground,Centre,"SB\18.png",320,240 F,0,190009,190159,0,1 F,0,190159,192709,1 F,0,192709,193309,1,0
Sprite,Foreground,Centre,"SB\13.png",320,240 M,0,202009,,320,240 F,0,202009,202309,0,1 F,0,202309,205009,1 F,0,205009,206209,1,0
//Storyboard Layer 4 (Overlay)
//Storyboard Sound Samples

[TimingPoints]
9709,600,4,2,1,50,1,0
28909,-66.6666666666667,4,2,1,50,0,0
45709,-100,4,2,1,40,0,0
48109,-66.6666666666667,4,2,2,70,0,1
57559,-66.6666666666667,4,2,2,70,0,0
57709,-66.6666666666667,4,2,2,70,0,1
64909,-83.3333333333333,4,2,2,70,0,1
67309,-66.6666666666667,4,2,2,70,0,0
75709,-66.6666666666667,4,2,2,50,0,0
76909,-100,4,2,1,60,0,0
86509,-83.3333333333333,4,2,1,60,0,0
96109,-66.6666666666667,4,2,1,60,0,0
112909,-100,4,2,1,40,0,0
115309,-66.6666666666667,4,2,2,70,0,1
124759,-66.6666666666667,4,2,2,70,0,0
124909,-66.6666666666667,4,2,2,70,0,1
132109,-83.3333333333333,4,2,2,70,0,1
134509,-66.6666666666667,4,2,2,70,0,0
142909,-200,4,2,2,50,0,0
144109,600,4,2,1,50,1,8
144409,600,4,2,1,50,1,0
154009,-100,4,2,1,50,0,0
161209,-125,4,2,1,20,0,0
163009,-100,4,2,1,30,0,0
163309,600,4,2,2,70,1,1
163309,-50,4,2,2,70,0,1
172759,-50,4,2,2,70,0,0
172909,-50,4,2,2,70,0,1
180109,-66.6666666666667,4,2,2,70,0,1
182509,-50,4,2,2,70,0,0
201709,600,4,2,1,70,1,8
202009,600,4,2,1,35,1,0
202609,-100,4,2,1,35,0,0
203209,-100,4,2,1,30,0,0
203809,-100,4,2,1,25,0,0
204409,-100,4,2,1,20,0,0
205009,-100,4,2,1,10,0,0
206209,-100,4,2,1,5,0,0

[Colours]
Combo1 : 130,130,130
Combo2 : 71,131,131
Combo3 : 92,150,105
Combo4 : 168,157,96
Combo5 : 0,155,155
Combo6 : 56,137,68
Combo7 : 124,116,69
Combo8 : 192,192,192

[HitObjects]
310,340,9709,6,0,P|353:352|396:340,1,90,0|0,3:0|0:0,0:0:0:0:
202,340,10309,2,0,P|159:352|116:340,1,90,8|0,0:0|3:0,0:0:0:0:
159,250,10909,1,0,0:0:0:0:
256,250,11209,1,0,3:0:0:0:
353,250,11509,1,8,0:0:0:0:
202,44,12109,6,0,P|159:32|116:44,1,90,0|0,3:0|0:0,0:0:0:0:
310,44,12709,2,0,P|353:32|396:44,1,90,8|0,0:0|3:0,0:0:0:0:
353,134,13309,1,0,0:0:0:0:
256,134,13609,1,0,3:0:0:0:
159,134,13909,1,8,0:0:0:0:
310,340,14509,6,0,B|352:340|352:340|385:373,1,90,0|0,3:0|0:0,0:0:0:0:
202,340,15109,2,0,B|160:340|160:340|126:373,1,90,8|0,0:0|3:0,0:0:0:0:
256,252,15709,1,0,0:0:0:0:
310,340,16009,1,0,3:0:0:0:
256,252,16309,1,8,0:0:0:0:
202,340,16609,1,0,0:0:0:0:
256,252,16909,6,0,B|296:220|336:248|340:252|344:256|384:284|424:252,1,180,0|8,3:0|0:0,0:0:0:0:
468,340,17809,2,0,L|389:178,1,180,0|0,3:0|3:0,0:0:0:0:
44,340,19309,5,0,3:0:0:0:
102,259,19609,1,0,0:0:0:0:
198,259,19909,1,8,0:0:0:0:
256,340,20209,1,0,3:0:0:0:
314,259,20509,1,0,0:0:0:0:
410,259,20809,1,0,3:0:0:0:
468,340,21109,1,8,0:0:0:0:
468,44,21709,5,0,3:0:0:0:
410,125,22009,1,0,0:0:0:0:
314,125,22309,1,8,0:0:0:0:
256,44,22609,1,0,3:0:0:0:
198,125,22909,1,0,0:0:0:0:
102,125,23209,1,0,3:0:0:0:
44,44,23509,1,8,0:0:0:0:
44,340,24109,5,0,3:0:0:0:
102,259,24409,1,0,0:0:0:0:
150,340,24709,1,8,0:0:0:0:
198,259,25009,1,0,3:0:0:0:
256,340,25309,5,0,0:0:0:0:
314,259,25609,1,0,3:0:0:0:
362,340,25909,1,8,0:0:0:0:
410,259,26209,1,0,0:0:0:0:
468,340,26509,6,0,P|501:259|468:178,1,180,0|8,3:0|0:0,0:0:0:0:
410,97,27409,2,0,P|377:178|410:259,2,180,0|2|2,3:0|3:0|0:0,0:0:0:0:
315,97,28909,5,2,0:0:0:0:
315,97,29059,2,0,B|256:64|256:64|197:97,1,135.000005149842,0|2,0:0|0:0,0:0:0:0:
102,97,29509,1,0,0:0:0:0:
102,192,29659,1,0,0:0:0:0:
197,192,29809,2,0,P|205:224|197:256,1,67.5000025749208,2|0,0:0|0:0,0:0:0:0:
256,332,30109,5,0,0:0:0:0:
315,256,30259,1,2,0:0:0:0:
256,332,30409,2,0,B|238:344|238:344|214:344|214:344|196:332,1,67.5000025749208,0|0,0:0|0:0,0:0:0:0:
315,256,30709,2,0,B|333:244|333:244|357:244|357:244|375:256,1,67.5000025749208,2|0,0:0|0:0,0:0:0:0:
448,192,31009,1,0,0:0:0:0:
448,192,31309,6,0,B|459:160|459:160|448:128,1,67.5000025749208,2|0,0:0|0:0,0:0:0:0:
375,64,31609,1,0,0:0:0:0:
302,129,31759,2,0,P|256:88|210:129,1,135.000005149842,2|0,0:0|0:0,0:0:0:0:
137,64,32209,2,0,B|105:54|105:54|73:64,1,67.5000025749208,2|0,0:0|0:0,0:0:0:0:
0,129,32509,6,0,B|0:172|20:192|20:192|0:212|0:255,1,135.000005149842,2|2,0:0|0:0,0:0:0:0:
73,320,32959,1,0,0:0:0:0:
146,255,33109,2,0,P|166:192|146:129,1,135.000005149842,2|0,0:0|0:0,0:0:0:0:
366,255,33709,5,2,0:0:0:0:
366,255,33859,2,0,P|346:192|366:129,1,135.000005149842,0|2,0:0|0:0,0:0:0:0:
439,64,34309,1,0,0:0:0:0:
512,129,34459,1,0,0:0:0:0:
439,64,34609,2,0,P|431:32|439:0,1,67.5000025749208,2|0,0:0|0:0,0:0:0:0:
366,129,34909,5,0,0:0:0:0:
293,64,35059,1,2,0:0:0:0:
220,129,35209,2,0,B|186:129|186:129|158:109,1,67.5000025749208,0|0,0:0|0:0,0:0:0:0:
76,160,35509,2,0,P|68:192|76:224,1,67.5000025749208,2|0,0:0|0:0,0:0:0:0:
158,274,35809,1,0,0:0:0:0:
158,274,36109,6,0,L|183:335,1,67.5000025749208,2|0,0:0|0:0,0:0:0:0:
256,274,36409,1,0,0:0:0:0:
328,336,36559,2,0,P|380:372|432:336,1,135.000005149842,2|0,0:0|0:0,0:0:0:0:
504,274,37009,2,0,L|445:239,1,67.5000025749208,2|0,0:0|0:0,0:0:0:0:
504,110,37309,2,0,L|445:144,1,67.5000025749208,2|0,0:0|0:0,0:0:0:0:
500,280,37609,6,0,L|441:245,1,67.5000025749208,2|0,0:0|0:0,0:0:0:0:
500,104,37909,2,0,L|441:138,1,67.5000025749208,2|0,0:0|0:0,0:0:0:0:
364,192,38209,1,0,0:0:0:0:
148,192,38509,5,0,3:0:0:0:
148,192,38659,2,0,B|140:158|111:138|111:138|140:118|148:84,1,135.000005149842,0|0,0:0|3:0,0:0:0:0:
208,12,39109,1,0,0:0:0:0:
304,12,39259,1,0,0:0:0:0:
364,83,39409,2,0,L|431:83,1,67.5000025749208,0|0,3:0|0:0,0:0:0:0:
304,155,39709,5,0,0:0:0:0:
208,155,39859,1,0,0:0:0:0:
147,83,40009,2,0,L|80:83,1,67.5000025749208,0|0,3:0|0:0,0:0:0:0:
18,159,40309,2,0,B|12:192|12:192|18:225,1,67.5000025749208,2|0,0:0|0:0,0:0:0:0:
79,301,40609,1,0,0:0:0:0:
79,301,40909,6,0,P|87:333|79:365,1,67.5000025749208,0|0,3:0|0:0,0:0:0:0:
141,225,41209,1,0,0:0:0:0:
141,225,41359,2,0,B|201:225|201:225|209:229|209:229|217:233|217:233|274:233,1,135.000005149842,0|0,3:0|0:0,0:0:0:0:
360,192,41809,2,0,L|427:192,1,67.5000025749208,0|0,3:0|0:0,0:0:0:0:
274,151,42109,6,0,L|322:103,1,67.5000025749208,0|0,0:0|0:0,0:0:0:0:
274,233,42409,2,0,L|322:281,1,67.5000025749208,0|0,0:0|0:0,0:0:0:0:
189,192,42709,2,0,L|121:192,1,67.5000025749208,2|0,0:0|0:0,0:0:0:0:
28,192,43009,2,0,L|4:215,2,33.7500012874604,0|0|0,0:0|0:0|0:0,0:0:0:0:
75,108,43309,6,0,B|91:48|147:48|147:48|179:48,1,135.000005149842,0|0,3:0|0:0,0:0:0:0:
256,108,43759,1,0,3:0:0:0:
332,48,43909,6,0,L|365:48,3,33.7500012874604,0|0|0|0,0:0|0:0|0:0|0:0,0:0:0:0:
413,48,44209,2,0,L|445:48,3,33.7500012874604,0|0|0|0,3:0|0:0|0:0|0:0,0:0:0:0:
491,48,44509,6,0,L|491:115,1,67.5000025749208,0|0,0:0|0:0,0:0:0:0:
440,192,44809,2,0,B|440:228|440:228|462:250,1,67.5000025749208,0|0,3:0|0:0,0:0:0:0:
418,334,45109,6,0,L|385:334,3,33.7500012874604,2|0|0|0,0:0|0:0|0:0|0:0,0:0:0:0:
337,334,45409,2,0,L|305:334,3,33.7500012874604,0|0|0|0,0:0|0:0|0:0|0:0,0:0:0:0:
256,334,45709,5,0,3:0:0:0:
256,334,48109,6,0,B|201:334|201:334|193:330|193:330|193:338|193:338|185:334|185:334|130:334,1,135.000005149842,4|0,1:0|0:0,0:0:0:0:
62,282,48559,1,0,1:0:0:0:
62,282,48709,2,0,L|14:234,1,67.5000025749208,8|0,0:0|0:0,0:0:0:0:
14,149,49009,2,0,L|62:102,1,67.5000025749208,0|0,1:0|0:0,0:0:0:0:
130,50,49309,6,0,B|164:36|196:64|196:100|196:100|196:137,1,135.000005149842,0|0,0:0|1:0,0:0:0:0:
381,50,49909,2,0,B|348:36|316:64|316:100|316:100|316:137,1,135.000005149842,8|0,0:0|0:0,0:0:0:0:
256,334,50509,6,0,B|311:334|311:334|319:330|319:330|319:338|319:338|327:334|327:334|382:334,1,135.000005149842,0|0,1:0|0:0,0:0:0:0:
450,282,50959,1,0,1:0:0:0:
450,282,51109,2,0,L|497:234,1,67.5000025749208,8|0,0:0|0:0,0:0:0:0:
497,149,51409,2,0,L|450:102,1,67.5000025749208,0|0,1:0|0:0,0:0:0:0:
381,50,51709,5,0,0:0:0:0:
256,192,52009,1,0,1:0:0:0:
130,50,52309,1,8,0:0:0:0:
130,50,52459,1,0,0:0:0:0:
130,50,52609,1,0,0:0:0:0:
316,121,52909,6,0,P|256:95|196:121,1,135.000005149842,0|0,1:0|0:0,0:0:0:0:
256,192,53359,1,0,1:0:0:0:
196,263,53509,2,0,B|212:292|212:292|212:326,1,67.5000025749208,8|0,0:0|0:0,0:0:0:0:
300,326,53809,2,0,B|300:292|300:292|316:263,1,67.5000025749208,0|0,1:0|0:0,0:0:0:0:
256,192,54109,5,0,0:0:0:0:
124,326,54409,1,0,1:0:0:0:
388,326,54709,1,8,0:0:0:0:
388,326,54859,1,0,0:0:0:0:
388,326,55009,1,0,0:0:0:0:
256,192,55309,6,0,B|236:160|252:132|256:128|260:124|276:96|256:64,1,135.000005149842,0|0,1:0|0:0,0:0:0:0:
180,16,55759,1,0,1:0:0:0:
180,16,55909,2,0,B|180:48|180:48|164:79,1,67.5000025749208,8|0,0:0|0:0,0:0:0:0:
332,16,56209,2,0,B|332:48|332:48|347:79,1,67.5000025749208,0|0,1:0|0:0,0:0:0:0:
432,108,56509,5,0,0:0:0:0:
256,108,56809,1,0,1:0:0:0:
80,108,57109,1,8,0:0:0:0:
80,108,57259,1,0,1:0:0:0:
80,108,57409,2,0,P|48:100|16:108,1,67.5000025749208,0|0,1:0|0:0,0:0:0:0:
48,188,57709,6,0,P|67:252|48:316,1,135.000005149842,4|0,1:0|0:0,0:0:0:0:
110,377,58159,1,0,1:0:0:0:
171,316,58309,2,0,P|185:285|211:264,1,67.5000025749208,8|0,0:0|0:0,0:0:0:0:
300,264,58609,2,0,P|326:285|340:316,1,67.5000025749208,0|0,1:0|0:0,0:0:0:0:
402,377,58909,5,2,0:0:0:0:
256,192,59209,1,0,1:0:0:0:
402,7,59509,1,8,0:0:0:0:
402,7,59659,1,0,0:0:0:0:
402,7,59809,1,0,0:0:0:0:
256,192,60109,6,0,B|236:168|236:168|164:168|164:168|144:192,1,135.000005149842,0|0,1:0|0:0,0:0:0:0:
200,260,60559,1,0,1:0:0:0:
200,260,60709,2,0,B|220:284|220:284|256:284,1,67.5000025749208,8|0,0:0|0:0,0:0:0:0:
318,346,61009,2,0,L|385:346,1,67.5000025749208,0|0,1:0|0:0,0:0:0:0:
448,284,61309,5,2,0:0:0:0:
385,222,61459,1,0,0:0:0:0:
448,284,61609,2,0,L|515:284,1,67.5000025749208,0|0,1:0|0:0,0:0:0:0:
385,222,61909,2,0,L|317:222,1,67.5000025749208,8|0,0:0|0:0,0:0:0:0:
256,156,62209,1,0,0:0:0:0:
194,222,62359,1,0,0:0:0:0:
256,288,62509,6,0,B|218:288|194:310|194:310|170:288|132:288,1,135.000005149842,0|0,1:0|0:0,0:0:0:0:
70,222,62959,1,0,1:0:0:0:
132,156,63109,2,0,B|114:128|138:80|178:80|178:80|206:80,1,135.000005149842,8|0,0:0|1:0,0:0:0:0:
256,288,63709,6,0,B|294:288|318:310|318:310|342:288|380:288,1,135.000005149842,0|0,0:0|1:0,0:0:0:0:
442,222,64159,1,0,0:0:0:0:
380,156,64309,2,0,B|398:128|374:80|334:80|334:80|305:80,1,135.000005149842,8|0,0:0|0:0,0:0:0:0:
256,288,64909,6,0,L|305:192,1,107.999996704102,2|0,0:0|0:0,0:0:0:0:
207,192,65359,2,0,L|256:288,1,107.999996704102,2|0,0:0|0:0,0:0:0:0:
344,288,65809,1,2,0:0:0:0:
168,288,66109,1,0,0:0:0:0:
344,373,66409,1,2,0:0:0:0:
168,373,66709,5,8,0:0:0:0:
168,373,66859,1,0,0:0:0:0:
168,373,67009,2,0,L|142:373,2,26.9999991760254
168,288,67309,6,0,B|168:263|168:263|164:259|164:259|172:259|172:259|168:255|168:255|168:230,1,67.5000025749208,4|0,1:0|0:0,0:0:0:0:
256,288,67609,1,0,0:0:0:0:
256,288,67759,2,0,B|256:263|256:263|252:259|252:259|260:259|260:259|256:255|256:255|256:230,1,67.5000025749208,0|8,1:0|0:0,0:0:0:0:
344,288,68059,1,0,0:0:0:0:
344,288,68209,2,0,B|344:263|344:263|348:259|348:259|340:259|340:259|344:255|344:255|344:230,1,67.5000025749208,0|0,1:0|0:0,0:0:0:0:
344,144,68509,6,0,B|344:119|344:119|348:115|348:115|340:115|340:115|344:111|344:111|344:86,1,67.5000025749208,0|0,0:0|0:0,0:0:0:0:
256,144,68809,2,0,B|256:119|256:119|252:115|252:115|260:115|260:115|256:111|256:111|256:86,1,67.5000025749208,0|0,1:0|0:0,0:0:0:0:
168,144,69109,2,0,B|144:104|96:104|96:104|48:104,1,135.000005149842,8|0,0:0|0:0,0:0:0:0:
47,192,69559,1,0,0:0:0:0:
48,280,69709,6,0,B|80:280|80:280|110:298,1,67.5000025749208,0|0,1:0|0:0,0:0:0:0:
200,298,70009,1,0,0:0:0:0:
200,298,70159,2,0,L|200:365,1,67.5000025749208,0|8,1:0|0:0,0:0:0:0:
312,298,70459,1,0,0:0:0:0:
312,298,70609,2,0,L|312:365,1,67.5000025749208,0|0,1:0|0:0,0:0:0:0:
400,300,70909,6,0,P|456:268|512:300,2,135.000005149842,0|0|8,0:0|1:0|0:0,0:0:0:0:
312,298,71659,2,0,P|256:330|200:298,1,135.000005149842,2|0,3:0|0:0,0:0:0:0:
110,298,72109,6,0,P|78:290|46:298,1,67.5000025749208,0|0,1:0|0:0,0:0:0:0:
14,192,72409,1,0,0:0:0:0:
14,192,72559,2,0,L|81:192,1,67.5000025749208,0|8,1:0|0:0,0:0:0:0:
110,86,72859,1,0,0:0:0:0:
110,86,73009,2,0,P|78:94|46:86,1,67.5000025749208,0|0,1:0|0:0,0:0:0:0:
176,22,73309,6,0,L|200:86,1,67.5000025749208,0|0,0:0|0:0,0:0:0:0:
335,22,73609,2,0,L|312:86,1,67.5000025749208,0|0,1:0|0:0,0:0:0:0:
256,226,73909,1,8,0:0:0:0:
256,226,74059,1,0,0:0:0:0:
256,226,74209,2,0,L|256:158,1,67.5000025749208,0|0,0:0|0:0,0:0:0:0:
312,298,74509,6,0,L|335:361,1,67.5000025749208,0|0,1:0|0:0,0:0:0:0:
200,298,74809,2,0,L|176:361,1,67.5000025749208,0|0,0:0|1:0,0:0:0:0:
312,298,75109,6,0,B|376:276|376:276|440:298,1,135.000005149842,8|0,0:0|1:0,0:0:0:0:
200,298,75709,2,0,B|136:276|136:276|72:298,1,135.000005149842,0|0,0:0|1:0,0:0:0:0:
312,298,76309,1,8,0:0:0:0:
312,298,76459,1,0,0:0:0:0:
312,298,76609,1,0,0:0:0:0:
200,298,76909,5,0,3:0:0:0:
144,192,77209,1,0,0:0:0:0:
200,86,77509,1,8,0:0:0:0:
312,86,77809,1,0,3:0:0:0:
368,192,78109,1,0,0:0:0:0:
312,298,78409,1,0,3:0:0:0:
200,298,78709,1,8,0:0:0:0:
200,298,79309,5,0,3:0:0:0:
312,298,79609,1,0,0:0:0:0:
368,192,79909,1,8,0:0:0:0:
312,86,80209,1,0,3:0:0:0:
200,86,80509,1,0,0:0:0:0:
144,192,80809,1,2,3:0:0:0:
200,298,81109,1,8,0:0:0:0:
200,298,81709,5,0,3:0:0:0:
312,298,82009,1,0,0:0:0:0:
256,192,82309,1,8,0:0:0:0:
312,86,82609,1,0,3:0:0:0:
200,86,82909,1,0,0:0:0:0:
256,192,83209,1,0,3:0:0:0:
200,298,83509,1,8,0:0:0:0:
312,298,83809,1,0,0:0:0:0:
200,298,84109,6,0,B|131:298|131:298|71:298|40:244,1,180,0|8,3:0|0:0,0:0:0:0:
40,140,85009,2,0,B|71:86|131:86|131:86|200:86,1,180,0|2,3:0|3:0,0:0:0:0:
256,192,85909,1,8,0:0:0:0:
256,192,86509,6,0,P|272:243|256:294,1,107.999996704102,2|0,3:0|0:0,0:0:0:0:
358,192,87109,1,8,0:0:0:0:
307,133,87259,2,0,P|358:117|409:133,1,107.999996704102,2|2,3:0|3:0,0:0:0:0:
460,192,87709,1,2,0:0:0:0:
409,43,88009,1,2,3:0:0:0:
409,43,88159,1,0,0:0:0:0:
409,43,88309,2,0,B|358:26|358:26|307:43,1,107.999996704102,8|0,0:0|0:0,0:0:0:0:
256,192,88909,6,0,P|240:243|256:294,1,107.999996704102,2|0,3:0|0:0,0:0:0:0:
154,192,89509,1,8,0:0:0:0:
205,133,89659,2,0,P|154:117|103:133,1,107.999996704102,2|2,3:0|3:0,0:0:0:0:
52,192,90109,1,2,0:0:0:0:
103,43,90409,1,2,3:0:0:0:
103,43,90559,1,0,0:0:0:0:
103,43,90709,2,0,B|154:26|154:26|205:43,1,107.999996704102,8|0,0:0|0:0,0:0:0:0:
256,192,91309,6,0,P|272:243|256:294,1,107.999996704102,2|0,3:0|0:0,0:0:0:0:
358,192,91909,1,8,0:0:0:0:
307,133,92059,2,0,P|358:117|409:133,1,107.999996704102,2|2,3:0|3:0,0:0:0:0:
460,192,92509,1,2,0:0:0:0:
409,43,92809,1,2,3:0:0:0:
409,43,92959,1,0,0:0:0:0:
409,43,93109,2,0,B|358:26|358:26|307:43,1,107.999996704102,8|0,0:0|0:0,0:0:0:0:
256,192,93709,5,2,3:0:0:0:
197,287,94009,1,0,0:0:0:0:
226,303,94159,1,2,3:0:0:0:
255,319,94309,1,8,0:0:0:0:
285,303,94459,1,0,0:0:0:0:
314,287,94609,1,2,3:0:0:0:
256,192,94909,5,0,0:0:0:0:
315,97,95209,1,2,3:0:0:0:
315,97,95359,1,0,0:0:0:0:
315,97,95509,1,8,0:0:0:0:
197,97,95809,1,2,0:0:0:0:
197,287,96109,5,0,3:0:0:0:
197,287,96259,2,0,B|230:312|230:312|282:312|282:312|315:287,1,135.000005149842,0|0,0:0|3:0,0:0:0:0:
410,287,96709,1,0,0:0:0:0:
410,192,96859,1,0,0:0:0:0:
315,192,97009,2,0,B|304:160|304:160|315:128,1,67.5000025749208,0|0,3:0|0:0,0:0:0:0:
256,52,97309,5,0,0:0:0:0:
197,128,97459,1,0,0:0:0:0:
256,52,97609,2,0,P|286:39|316:52,1,67.5000025749208,0|0,3:0|0:0,0:0:0:0:
197,128,97909,2,0,P|167:141|137:128,1,67.5000025749208,2|0,0:0|0:0,0:0:0:0:
64,192,98209,1,0,0:0:0:0:
64,192,98509,6,0,B|56:208|56:208|56:240|56:240|64:256,1,67.5000025749208,0|0,3:0|0:0,0:0:0:0:
137,320,98809,1,0,0:0:0:0:
210,255,98959,2,0,B|240:264|256:301|256:301|272:264|302:255,1,135.000005149842,0|0,3:0|0:0,0:0:0:0:
375,320,99409,2,0,B|391:328|391:328|423:328|423:328|439:320,1,67.5000025749208,0|0,3:0|0:0,0:0:0:0:
512,255,99709,6,0,P|492:192|512:129,1,135.000005149842,0|0,0:0|0:0,0:0:0:0:
439,64,100159,1,0,0:0:0:0:
366,129,100309,2,0,B|342:192|342:192|366:255,1,135.000005149842,2|0,0:0|0:0,0:0:0:0:
146,129,100909,5,0,3:0:0:0:
146,129,101059,2,0,B|170:192|170:192|146:255,1,135.000005149842,0|0,0:0|3:0,0:0:0:0:
73,320,101509,1,0,0:0:0:0:
0,255,101659,1,0,0:0:0:0:
73,320,101809,2,0,B|73:340|83:352|83:352|73:364|73:384,1,67.5000025749208,0|0,3:0|0:0,0:0:0:0:
146,255,102109,5,0,0:0:0:0:
219,320,102259,1,0,0:0:0:0:
292,255,102409,2,0,B|326:255|326:255|354:275,1,67.5000025749208,0|0,3:0|0:0,0:0:0:0:
436,224,102709,2,0,P|444:192|436:160,1,67.5000025749208,2|0,0:0|0:0,0:0:0:0:
354,110,103009,1,0,0:0:0:0:
354,110,103309,6,0,L|328:48,1,67.5000025749208,0|0,3:0|0:0,0:0:0:0:
256,110,103609,1,0,0:0:0:0:
184,48,103759,2,0,B|170:22|170:22|94:22|94:22|80:48,1,135.000005149842,0|0,3:0|0:0,0:0:0:0:
8,110,104209,2,0,L|67:145,1,67.5000025749208,0|0,3:0|0:0,0:0:0:0:
8,274,104509,2,0,L|67:240,1,67.5000025749208,0|0,0:0|0:0,0:0:0:0:
40,104,104809,6,0,L|99:139,1,67.5000025749208,0|0,0:0|0:0,0:0:0:0:
40,280,105109,2,0,L|99:245,1,67.5000025749208,2|0,0:0|0:0,0:0:0:0:
256,192,105409,2,0,L|188:192,1,67.5000025749208,2|2,3:0|3:0,0:0:0:0:
364,192,105709,5,2,3:0:0:0:
364,192,105859,2,0,B|393:210|401:246|401:246|393:282|364:300,1,135.000005149842,0|2,0:0|3:0,0:0:0:0:
304,372,106309,1,0,0:0:0:0:
208,372,106459,1,0,0:0:0:0:
148,301,106609,2,0,L|81:301,1,67.5000025749208,2|0,3:0|0:0,0:0:0:0:
208,229,106909,5,0,0:0:0:0:
304,229,107059,1,2,0:3:0:0:
365,301,107209,2,0,L|432:301,1,67.5000025749208,2|0,3:0|0:0,0:0:0:0:
494,225,107509,2,0,B|504:192|494:159,1,67.5000025749208,2|0,0:0|0:0,0:0:0:0:
433,83,107809,1,0,0:0:0:0:
433,83,108109,6,0,B|423:51|423:51|433:19,1,67.5000025749208,2|0,3:0|0:0,0:0:0:0:
371,159,108409,1,0,0:0:0:0:
371,159,108559,2,0,B|311:159|311:159|303:155|303:155|295:151|295:151|238:151,1,135.000005149842,2|0,3:0|0:0,0:0:0:0:
152,192,109009,2,0,L|85:192,1,67.5000025749208,2|0,3:0|0:0,0:0:0:0:
238,233,109309,6,0,L|190:281,1,67.5000025749208,0|2,0:0|0:3,0:0:0:0:
238,151,109609,2,0,L|190:103,1,67.5000025749208,2|0,0:0|0:0,0:0:0:0:
323,192,109909,2,0,L|391:192,1,67.5000025749208,2|0,0:0|0:0,0:0:0:0:
484,208,110209,2,0,L|468:238,3,33.7500012874604,2|2|2|2,0:3|0:3|0:3|3:0,0:0:0:0:
437,276,110509,6,0,B|379:276|365:336|365:336|333:336,1,135.000005149842,0|2,3:0|0:3,0:0:0:0:
256,276,110959,1,2,3:0:0:0:
180,336,111109,6,0,L|147:336,3,33.7500012874604,2|0|2|0,3:0|0:0|3:0|0:0,0:0:0:0:
99,336,111409,2,0,L|67:336,3,33.7500012874604,2|0|2|0,3:0|0:0|3:0|0:0,0:0:0:0:
21,336,111709,6,0,L|21:269,1,67.5000025749208,2|2,3:0|3:0,0:0:0:0:
72,192,112009,2,0,B|72:156|72:156|50:134,1,67.5000025749208,2|2,3:0|3:0,0:0:0:0:
94,50,112309,6,0,L|127:50,3,33.7500012874604,2|2|2|2,0:0|0:0|0:0|0:0,0:0:0:0:
175,50,112609,2,0,L|207:50,3,33.7500012874604,2|2|2|2,0:0|0:0|0:0|0:0,0:0:0:0:
256,50,112909,5,0,3:0:0:0:
256,50,115309,6,0,B|311:50|311:50|319:40|319:40|327:50|327:50|382:50,1,135.000005149842,4|0,1:0|0:0,0:0:0:0:
450,102,115759,1,0,1:0:0:0:
450,102,115909,2,0,B|476:120|476:120|497:148,1,67.5000025749208,8|0,0:0|0:0,0:0:0:0:
497,235,116209,2,0,B|476:264|476:264|450:282,1,67.5000025749208,0|0,1:0|0:0,0:0:0:0:
382,334,116509,6,0,P|316:300|316:247,1,135.000005149842,0|0,0:0|1:0,0:0:0:0:
130,334,117109,2,0,P|196:300|196:247,1,135.000005149842,8|0,0:0|0:0,0:0:0:0:
256,50,117709,6,0,B|201:50|201:50|193:40|193:40|185:50|185:50|130:50,1,135.000005149842,0|0,1:0|0:0,0:0:0:0:
62,102,118159,1,0,1:0:0:0:
62,102,118309,2,0,B|36:120|36:120|14:148,1,67.5000025749208,8|0,0:0|0:0,0:0:0:0:
14,235,118609,2,0,B|36:264|36:264|62:282,1,67.5000025749208,0|0,1:0|0:0,0:0:0:0:
131,334,118909,5,0,0:0:0:0:
256,192,119209,1,0,1:0:0:0:
382,334,119509,1,8,0:0:0:0:
382,334,119659,1,0,0:0:0:0:
382,334,119809,1,0,0:0:0:0:
196,263,120109,6,0,B|234:263|256:289|256:289|278:263|316:263,1,135.000005149842,0|0,1:0|0:0,0:0:0:0:
256,192,120559,1,0,1:0:0:0:
316,121,120709,2,0,B|316:88|316:88|300:58,1,67.5000025749208,8|0,0:0|0:0,0:0:0:0:
212,58,121009,2,0,B|196:88|196:88|196:121,1,67.5000025749208,0|0,1:0|0:0,0:0:0:0:
256,192,121309,5,0,0:0:0:0:
388,58,121609,1,0,1:0:0:0:
124,58,121909,1,8,0:0:0:0:
124,58,122059,1,0,0:0:0:0:
124,58,122209,1,0,0:0:0:0:
256,192,122509,6,0,B|276:224|260:252|256:256|252:260|236:288|256:320,1,135.000005149842,0|0,1:0|0:0,0:0:0:0:
332,368,122959,1,0,1:0:0:0:
332,368,123109,2,0,B|348:340|348:340|348:305,1,67.5000025749208,8|0,0:0|0:0,0:0:0:0:
180,368,123409,2,0,B|164:340|164:340|164:305,1,67.5000025749208,0|0,1:0|0:0,0:0:0:0:
80,276,123709,5,0,0:0:0:0:
256,276,124009,1,0,1:0:0:0:
432,276,124309,1,8,0:0:0:0:
432,276,124459,1,0,1:0:0:0:
432,276,124609,2,0,P|464:284|496:276,1,67.5000025749208,0|0,1:0|0:0,0:0:0:0:
464,196,124909,6,0,B|443:132|443:132|464:68,1,135.000005149842,4|0,1:0|0:0,0:0:0:0:
402,7,125359,1,0,1:0:0:0:
340,68,125509,2,0,P|315:89|301:119,1,67.5000025749208,8|0,0:0|0:0,0:0:0:0:
210,119,125809,2,0,P|196:89|171:68,1,67.5000025749208,0|0,1:0|0:0,0:0:0:0:
110,7,126109,5,2,0:0:0:0:
256,192,126409,1,0,1:0:0:0:
110,377,126709,1,8,0:0:0:0:
110,377,126859,1,0,0:0:0:0:
110,377,127009,1,0,0:0:0:0:
256,192,127309,6,0,B|276:216|312:228|312:228|348:216|368:192,1,135.000005149842,0|0,1:0|0:0,0:0:0:0:
312,124,127759,1,0,1:0:0:0:
312,124,127909,2,0,B|292:100|292:100|256:100,1,67.5000025749208,8|0,0:0|0:0,0:0:0:0:
194,38,128209,2,0,L|127:38,1,67.5000025749208,0|0,1:0|0:0,0:0:0:0:
64,100,128509,5,2,0:0:0:0:
127,162,128659,1,0,0:0:0:0:
64,100,128809,2,0,L|-3:100,1,67.5000025749208,0|0,1:0|0:0,0:0:0:0:
127,162,129109,2,0,L|195:162,1,67.5000025749208,8|0,0:0|0:0,0:0:0:0:
256,228,129409,1,0,0:0:0:0:
318,162,129559,1,0,0:0:0:0:
256,96,129709,6,0,B|282:78|282:78|354:78|354:78|380:96,1,135.000005149842,0|0,1:0|0:0,0:0:0:0:
442,162,130159,1,0,1:0:0:0:
380,228,130309,2,0,B|380:284|380:284|376:292|376:292|372:300|372:300|372:361,1,135.000005149842,8|0,0:0|1:0,0:0:0:0:
256,96,130909,6,0,B|230:78|230:78|158:78|158:78|132:96,1,135.000005149842,0|0,0:0|1:0,0:0:0:0:
70,162,131359,1,0,0:0:0:0:
132,228,131509,2,0,B|132:284|132:284|136:292|136:292|140:300|140:300|140:361,1,135.000005149842,8|0,0:0|0:0,0:0:0:0:
256,96,132109,6,0,L|207:192,1,107.999996704102,2|0,0:0|0:0,0:0:0:0:
305,192,132559,2,0,L|256:96,1,107.999996704102,2|0,0:0|0:0,0:0:0:0:
168,96,133009,1,2,0:0:0:0:
344,96,133309,1,0,0:0:0:0:
168,11,133609,1,2,0:0:0:0:
344,11,133909,5,8,0:0:0:0:
344,11,134059,1,0,0:0:0:0:
344,11,134209,2,0,L|370:11,2,26.9999991760254
344,96,134509,6,0,B|344:121|344:121|348:125|348:125|340:125|340:125|344:129|344:129|344:154,1,67.5000025749208,4|0,1:0|0:0,0:0:0:0:
256,96,134809,1,0,0:0:0:0:
256,96,134959,2,0,B|256:121|256:121|260:125|260:125|252:125|252:125|256:129|256:129|256:154,1,67.5000025749208,0|8,1:0|0:0,0:0:0:0:
168,96,135259,1,0,0:0:0:0:
168,96,135409,2,0,B|168:121|168:121|164:125|164:125|172:125|172:125|168:129|168:129|168:154,1,67.5000025749208,0|0,1:0|0:0,0:0:0:0:
168,240,135709,6,0,B|168:265|168:265|164:269|164:269|172:269|172:269|168:273|168:273|168:298,1,67.5000025749208,0|0,0:0|0:0,0:0:0:0:
256,240,136009,2,0,B|256:265|256:265|260:269|260:269|252:269|252:269|256:273|256:273|256:298,1,67.5000025749208,0|0,1:0|0:0,0:0:0:0:
344,240,136309,2,0,B|392:240|416:280|416:280|464:280,1,135.000005149842,8|0,0:0|0:0,0:0:0:0:
465,192,136759,1,0,0:0:0:0:
464,104,136909,6,0,B|432:104|432:104|402:86,1,67.5000025749208,0|0,1:0|0:0,0:0:0:0:
312,86,137209,1,0,0:0:0:0:
312,86,137359,2,0,P|321:54|312:22,1,67.5000025749208,0|8,1:0|0:0,0:0:0:0:
200,86,137659,1,0,0:0:0:0:
200,86,137809,2,0,P|191:54|200:22,1,67.5000025749208,0|0,1:0|0:0,0:0:0:0:
112,84,138109,6,0,B|56:121|56:121|0:84,2,135.000005149842,0|0|8,0:0|1:0|0:0,0:0:0:0:
200,86,138859,2,0,B|256:49|256:49|312:86,1,135.000005149842,2|0,3:0|0:0,0:0:0:0:
402,86,139309,6,0,B|434:96|434:96|466:86,1,67.5000025749208,0|0,1:0|0:0,0:0:0:0:
498,192,139609,1,0,0:0:0:0:
498,192,139759,2,0,L|431:192,1,67.5000025749208,0|8,1:0|0:0,0:0:0:0:
402,298,140059,1,0,0:0:0:0:
402,298,140209,2,0,B|434:288|434:288|466:298,1,67.5000025749208,0|0,1:0|0:0,0:0:0:0:
336,362,140509,6,0,L|312:298,1,67.5000025749208,0|0,0:0|0:0,0:0:0:0:
177,362,140809,2,0,L|200:298,1,67.5000025749208,0|0,1:0|0:0,0:0:0:0:
256,158,141109,1,8,0:0:0:0:
256,158,141259,1,0,0:0:0:0:
256,158,141409,2,0,L|256:226,1,67.5000025749208,0|0,0:0|0:0,0:0:0:0:
200,86,141709,6,0,L|177:23,1,67.5000025749208,0|0,1:0|0:0,0:0:0:0:
312,86,142009,2,0,L|336:23,1,67.5000025749208,0|0,0:0|1:0,0:0:0:0:
200,86,142309,2,0,P|256:118|312:86,1,135.000005149842,8|0,0:0|1:0,0:0:0:0:
200,230,142909,6,0,B|224:256|224:256|288:256|288:256|312:230,1,135,2|0,0:0|0:0,0:0:0:0:
256,158,144109,1,2,0:0:0:0:
200,230,144409,5,2,0:3:0:0:
200,230,154009,6,0,B|156:230|156:230|123:262,1,90,2|8,0:0|0:0,0:0:0:0:
312,230,154609,1,2,0:0:0:0:
312,230,154759,2,0,B|356:230|356:230|388:262,1,90,2|0,0:3|0:0,0:0:0:0:
328,300,155209,1,2,0:0:0:0:
184,300,155509,1,8,0:0:0:0:
256,176,155809,2,0,L|256:86,1,90,2|0,0:0|0:0,0:0:0:0:
376,8,156409,6,0,B|376:52|376:52|343:85,1,90,2|8,0:0|0:0,0:0:0:0:
168,85,157009,1,2,0:0:0:0:
168,85,157159,2,0,B|136:52|136:52|136:8,1,90,2|0,0:3|0:0,0:0:0:0:
64,8,157609,2,0,L|64:53,1,45,2|0,0:0|0:0,0:0:0:0:
64,125,157909,1,8,0:0:0:0:
64,125,158059,2,0,B|56:192|56:192|64:259,1,135,2|2,0:3|0:0,0:0:0:0:
64,331,158659,1,0,0:0:0:0:
64,331,158809,6,0,L|154:331,1,90,2|8,0:0|0:0,0:0:0:0:
256,228,159409,2,0,L|211:228,2,45,2|2|0,0:0|0:3|0:0,0:0:0:0:
320,192,159859,1,0,0:0:0:0:
320,192,160009,2,0,B|410:192,1,90,2|8,0:0|0:0,0:0:0:0:
472,228,160459,1,0,0:0:0:0:
472,156,160609,1,2,0:0:0:0:
472,156,161209,5,2,0:0:0:0:
472,156,161809,5,2,0:3:0:0:
410,192,161959,1,2,0:0:0:0:
410,192,162409,5,2,0:0:0:0:
410,192,162709,5,2,0:3:0:0:
472,228,162859,1,2,0:0:0:0:
410,264,163009,6,0,L|384:264,3,22.5
316,264,163309,6,0,B|304:312|256:324|256:324|208:312|196:264,1,180,4|0,1:0|0:0,0:0:0:0:
256,192,163759,1,0,1:0:0:0:
196,120,163909,2,0,P|185:77|196:34,1,90,8|0,0:0|0:0,0:0:0:0:
316,34,164209,2,0,P|327:77|316:120,1,90,0|0,1:0|0:0,0:0:0:0:
136,192,164509,6,0,B|84:160|32:192|32:192|28:184|28:184|24:192|24:192|-27:192,1,180,0|0,0:0|1:0,0:0:0:0:
376,192,165109,2,0,B|428:160|480:192|480:192|484:184|484:184|488:192|488:192|539:192,1,180,8|0,0:0|0:0,0:0:0:0:
340,363,165709,6,0,B|296:391|256:363|256:363|216:391|172:363,1,180,0|0,1:0|0:0,0:0:0:0:
108,299,166159,1,0,1:0:0:0:
172,235,166309,2,0,B|208:212|208:212|208:164,1,90,8|0,0:0|0:0,0:0:0:0:
304,164,166609,2,0,B|304:212|304:212|340:235,1,90,0|0,1:0|0:0,0:0:0:0:
404,299,166909,5,0,0:0:0:0:
256,88,167209,1,0,1:0:0:0:
108,299,167509,1,8,0:0:0:0:
108,299,167659,1,0,0:0:0:0:
108,299,167809,1,0,0:0:0:0:
166,88,168109,6,0,L|346:88,1,180,0|0,1:0|0:0,0:0:0:0:
420,140,168559,1,0,1:0:0:0:
346,192,168709,2,0,B|256:192,1,90,8|0,0:0|0:0,0:0:0:0:
420,140,169009,2,0,B|510:140,1,90,0|0,1:0|0:0,0:0:0:0:
346,88,169309,5,0,0:0:0:0:
116,192,169609,1,0,1:0:0:0:
346,296,169909,1,8,0:0:0:0:
346,296,170059,1,0,0:0:0:0:
346,296,170209,1,0,0:0:0:0:
116,192,170509,6,0,B|88:148|112:88|168:88|168:88|204:88,1,180,0|0,1:0|0:0,0:0:0:0:
256,12,170959,1,0,1:0:0:0:
308,88,171109,2,0,B|318:132|318:132|308:176,1,90,8|0,0:0|0:0,0:0:0:0:
204,88,171409,2,0,B|194:132|194:132|204:176,1,90,0|0,1:0|0:0,0:0:0:0:
308,88,171709,5,0,0:0:0:0:
256,296,172009,1,0,1:0:0:0:
204,88,172309,1,8,0:0:0:0:
204,88,172459,1,0,1:0:0:0:
204,88,172609,2,0,P|160:80|116:88,1,90,0|0,1:0|0:0,0:0:0:0:
68,12,172909,6,0,P|27:88|68:164,1,180,4|0,1:0|0:0,0:0:0:0:
116,240,173359,1,0,1:0:0:0:
69,316,173509,2,0,B|45:308|37:287|37:287|29:308|5:316,1,90,8|0,0:0|0:0,0:0:0:0:
116,240,173809,2,0,B|140:248|148:269|148:269|156:248|180:240,1,90,0|0,1:0|0:0,0:0:0:0:
68,164,174109,5,2,0:0:0:0:
256,164,174409,1,0,1:0:0:0:
444,164,174709,1,8,0:0:0:0:
444,164,174859,1,0,0:0:0:0:
444,164,175009,1,0,0:0:0:0:
308,88,175309,6,0,B|308:52|308:52|256:76|204:52|204:52|204:88,1,180,0|0,1:0|0:0,0:0:0:0:
256,164,175759,1,0,1:0:0:0:
308,88,175909,2,0,B|354:10,1,90,8|0,0:0|0:0,0:0:0:0:
204,88,176209,2,0,B|157:10,1,90,0|0,1:0|0:0,0:0:0:0:
256,164,176509,5,2,0:0:0:0:
308,240,176659,1,0,0:0:0:0:
204,240,176809,2,0,L|114:240,1,90,0|0,1:0|0:0,0:0:0:0:
308,240,177109,2,0,L|398:240,1,90,8|0,0:0|0:0,0:0:0:0:
256,316,177409,1,0,0:0:0:0:
204,240,177559,1,0,0:0:0:0:
152,316,177709,6,0,B|156:364|204:383|204:383|252:364|256:316,1,180,0|0,1:0|0:0,0:0:0:0:
308,240,178159,1,0,1:0:0:0:
360,316,178309,2,0,B|356:364|308:383|308:383|260:364|256:316,1,180,8|0,0:0|1:0,0:0:0:0:
151,68,178909,6,0,B|155:20|203:1|203:1|251:20|255:68,1,180,0|0,0:0|1:0,0:0:0:0:
308,144,179359,1,0,0:0:0:0:
360,68,179509,2,0,B|356:20|308:1|308:1|260:20|256:68,1,180,8|0,0:0|0:0,0:0:0:0:
152,316,180109,6,0,L|207:192,1,135.000005149842,2|0,0:0|0:0,0:0:0:0:
360,316,180559,2,0,L|305:192,1,135.000005149842,2|0,0:0|0:0,0:0:0:0:
256,68,181009,1,2,0:0:0:0:
152,316,181309,1,0,0:0:0:0:
360,316,181609,1,2,0:0:0:0:
256,68,181909,5,8,0:0:0:0:
256,68,182059,1,0,0:0:0:0:
256,68,182209,2,0,L|256:34,2,33.7500012874604
204,144,182509,6,0,B|172:144|172:144|164:134|164:134|156:144|156:144|124:144,1,90,4|0,1:0|0:0,0:0:0:0:
48,192,182809,1,0,0:0:0:0:
124,240,182959,2,0,B|156:240|156:240|164:250|164:250|172:240|172:240|204:240,1,90,0|8,1:0|0:0,0:0:0:0:
256,316,183259,1,0,0:0:0:0:
308,240,183409,2,0,B|340:240|340:240|348:250|348:250|356:240|356:240|388:240,1,90,0|2,1:0|0:3,0:0:0:0:
464,192,183709,6,0,P|482:152|464:112,1,90
388,240,184009,2,0,P|370:280|388:320,1,90,0|0,1:0|0:0,0:0:0:0:
464,192,184309,2,0,P|388:151|312:192,1,180,8|0,0:0|0:0,0:0:0:0:
256,120,184759,1,0,0:0:0:0:
200,192,184909,6,0,B|200:236|200:236|177:276,1,90,0|0,1:0|0:0,0:0:0:0:
312,192,185209,1,0,0:0:0:0:
312,192,185359,2,0,B|312:236|312:236|334:276,1,90,0|8,1:0|0:0,0:0:0:0:
256,120,185659,1,0,0:0:0:0:
256,120,185809,2,0,L|256:30,1,90,0|0,1:0|0:0,0:0:0:0:
166,30,186109,6,0,L|346:30,2,180,0|0|8,0:0|1:0|0:0,0:0:0:0:
346,120,186859,2,0,L|166:120,1,180,2|0,3:0|0:0,0:0:0:0:
212,196,187309,6,0,B|256:188|256:188|300:196,1,90,0|0,1:0|0:0,0:0:0:0:
344,276,187609,1,0,0:0:0:0:
300,356,187759,2,0,B|256:364|256:364|212:356,1,90,0|8,1:0|0:0,0:0:0:0:
168,276,188059,1,0,0:0:0:0:
256,276,188209,1,0,1:0:0:0:
344,276,188359,1,2,0:3:0:0:
300,196,188509,6,0,L|363:132,1,90
300,68,188809,2,0,P|256:60|212:68,1,90,0|0,1:0|0:0,0:0:0:0:
148,132,189109,1,8,0:0:0:0:
148,132,189259,1,0,0:0:0:0:
148,132,189409,2,0,L|212:196,1,90
168,276,189709,6,0,L|168:366,1,90,0|0,1:0|0:0,0:0:0:0:
344,276,190009,2,0,L|344:366,1,90,0|0,0:0|1:0,0:0:0:0:
300,196,190309,6,0,B|384:196|384:196|438:276,1,180,8|0,0:0|1:0,0:0:0:0:
212,196,190909,2,0,B|128:196|128:196|74:276,1,180,0|0,0:0|1:0,0:0:0:0:
256,116,191509,1,8,0:0:0:0:
256,116,191659,1,0,1:0:0:0:
256,116,191809,1,0,1:0:0:0:
438,276,192109,6,0,B|446:320|446:320|438:364,1,90,4|0,1:0|0:0,0:0:0:0:
344,276,192409,1,0,0:0:0:0:
344,276,192559,2,0,B|352:320|352:320|344:364,1,90,0|8,1:0|0:0,0:0:0:0:
255,276,192859,1,0,0:0:0:0:
168,364,193009,2,0,B|160:320|160:320|168:276,1,90,0|2,1:0|0:3,0:0:0:0:
74,364,193309,6,0,B|66:320|66:320|74:276,1,90
168,187,193609,2,0,B|176:231|176:231|168:275,1,90,0|0,1:0|0:0,0:0:0:0:
74,186,193909,2,0,B|183:43,1,180,8|0,0:0|0:0,0:0:0:0:
256,96,194359,1,0,0:0:0:0:
328,43,194509,6,0,P|368:25|408:43,1,90,0|0,1:0|0:0,0:0:0:0:
300,192,194809,1,0,0:0:0:0:
300,192,194959,2,0,B|256:200|256:200|212:192,1,90,0|8,1:0|0:0,0:0:0:0:
104,43,195259,1,0,0:0:0:0:
104,43,195409,2,0,P|144:25|184:43,1,90,0|0,1:0|0:0,0:0:0:0:
300,192,195709,6,0,B|256:270|256:270|212:192,2,180,0|0|8,0:0|1:0|0:0,0:0:0:0:
166,270,196459,2,0,L|346:270,1,180,2|0,3:0|0:0,0:0:0:0:
212,348,196909,6,0,B|168:348|168:348|135:380,1,90,0|0,1:0|0:0,0:0:0:0:
300,348,197209,1,0,0:0:0:0:
300,348,197359,2,0,B|344:348|344:348|376:380,1,90,0|8,1:0|0:0,0:0:0:0:
256,270,197659,1,0,0:0:0:0:
256,270,197809,2,0,B|256:180,1,90,0|2,1:0|0:3,0:0:0:0:
216,100,198109,6,0,L|126:100,1,90
296,100,198409,2,0,L|386:100,1,90,0|0,1:0|0:0,0:0:0:0:
256,20,198709,1,8,0:0:0:0:
216,100,198859,1,0,0:0:0:0:
256,180,199009,2,0,B|256:270,1,90
300,348,199309,6,0,B|344:348|344:348|376:380,1,90,0|0,1:0|0:0,0:0:0:0:
212,348,199609,2,0,B|168:348|168:348|136:380,1,90,0|0,0:0|1:0,0:0:0:0:
166,270,199909,2,0,L|346:270,1,180,8|0,0:0|1:0,0:0:0:0:
346,180,200359,2,0,L|166:180,1,180
166,90,200809,6,0,L|212:13,1,90,0|0,1:0|0:0,0:0:0:0:
346,90,201109,1,8,0:0:0:0:
346,90,201259,1,0,1:0:0:0:
346,90,201409,2,0,L|299:13,1,90,0|0,1:0|0:0,0:0:0:0:
299,13,202009,5,2,0:0:0:0:
256,192,202609,1,2,0:0:0:0:
213,371,203209,1,2,0:0:0:0:
256,192,203809,1,2,0:0:0:0:
299,13,204409,1,2,0:0:0:0:
256,192,205009,12,0,206209,0:0:0:0:
