osu file format v14

[General]
AudioFilename: audio.mp3
AudioLeadIn: 0
PreviewTime: -1
Countdown: 1
SampleSet: None
StackLeniency: 0.7
Mode: 0
LetterboxInBreaks: 0
WidescreenStoryboard: 0

[Editor]
DistanceSpacing: 1.4
BeatDivisor: 2
GridSize: 32
TimelineZoom: 1.4

[Metadata]
Title:Paledjanko
TitleUnicode:Paledjanko
Artist:Lady Gaga
ArtistUnicode:Lady Gaga
Creator:Rubiha
Version:Insane
Source:
Tags:
BeatmapID:1764296
BeatmapSetID:843248

[Difficulty]
HPDrainRate:5
CircleSize:4.3
OverallDifficulty:5
ApproachRate:8
SliderMultiplier:2.2
SliderTickRate:1

[Events]
//Background and Video events
0,0,"6cc26efe9e8a50248f792f19c1713214.jpg",0,0
//Break Periods
//Storyboard Layer 0 (Background)
//Storyboard Layer 1 (Fail)
//Storyboard Layer 2 (Pass)
//Storyboard Layer 3 (Foreground)
//Storyboard Sound Samples

[TimingPoints]
701,606.060606060606,4,2,0,60,1,0

[HitObjects]
137,127,1307,6,0,L|153:248,1,110,2|8,0:0|0:0,0:0:0:0:
279,322,1913,1,4,0:0:0:0:
285,168,2216,1,0,0:0:0:0:
407,75,2519,2,0,P|440:179|357:299,1,220,2|4,0:0|0:0,0:0:0:0:
247,319,3428,5,2,0:0:0:0:
93,310,3731,1,2,0:0:0:0:
78,156,4034,2,0,P|142:166|181:231,1,110,8|4,0:0|0:0,0:0:0:0:
209,346,4640,1,2,0:0:0:0:
329,249,4943,1,2,0:0:0:0:
172,275,5246,5,8,0:0:0:0:
398,326,5549,1,4,0:0:0:0:
449,183,5852,1,0,0:0:0:0:
350,64,6155,2,0,P|301:107|304:182,1,110,2|8,0:0|0:0,0:0:0:0:
311,302,6761,1,4,0:0:0:0:
378,144,7064,1,2,0:0:0:0:
244,220,7367,2,0,P|226:114|286:25,1,220,2|4,0:0|0:0,0:0:0:0:
143,80,8276,5,2,0:0:0:0:
394,36,8579,1,2,0:0:0:0:
492,154,8882,2,0,L|454:269,1,110,8|4,0:0|0:0,0:0:0:0:
346,364,9488,1,2,0:0:0:0:
496,330,9791,1,2,0:0:0:0:
377,181,10094,5,8,0:0:0:0:
160,283,10397,1,4,0:0:0:0:
314,272,10701,1,2,0:0:0:0:
274,123,11004,2,0,P|221:134|186:175,1,110,2|8,0:0|0:0,0:0:0:0:
160,326,11610,1,4,0:0:0:0:
285,236,11913,1,2,0:0:0:0:
154,153,12216,2,0,P|189:111|242:100,1,110,2|8,0:0|0:0,0:0:0:0:
387,152,12822,5,4,0:0:0:0:
364,304,13125,1,2,0:0:0:0:
495,128,13428,1,2,0:0:0:0:
472,346,13731,1,8,0:0:0:0:
378,135,14034,1,4,0:0:0:0:
274,248,14337,2,0,L|147:263,1,110,2|2,0:0|0:0,0:0:0:0:
63,145,14943,5,8,0:0:0:0:
93,295,15246,1,4,0:0:0:0:
181,169,15549,1,2,0:0:0:0:
209,320,15852,2,0,P|244:361|297:372,1,110,2|8,0:0|0:0,0:0:0:0:
445,330,16458,1,4,0:0:0:0:
301,273,16761,1,2,0:0:0:0:
362,131,17064,2,0,P|397:89|450:78,1,110,2|8,0:0|0:0,0:0:0:0:
484,229,17670,5,4,0:0:0:0:
330,244,17973,1,2,0:0:0:0:
189,181,18276,1,2,0:0:0:0:
332,125,18579,1,8,0:0:0:0:
143,72,18882,2,0,P|83:161|101:266,1,220,4|2,0:0|0:0,0:0:0:0:
234,343,19791,1,8,0:0:0:0:
376,283,20094,1,4,0:0:0:0:
224,256,20397,5,2,0:0:0:0:
406,369,20700,1,2,0:0:0:0:
310,203,21004,2,0,L|326:90,1,110,8|4,0:0|0:0,0:0:0:0:
471,44,21610,1,2,0:0:0:0:
428,192,21913,1,2,0:0:0:0:
291,120,22216,2,0,L|280:250,1,110,8|4,0:0|0:0,0:0:0:0:
189,353,22822,5,2,0:0:0:0:
94,231,23125,1,2,0:0:0:0:
134,82,23428,1,8,0:0:0:0:
184,227,23731,2,0,B|155:352,1,110,4|2,0:0|0:0,0:0:0:0:
19,269,24337,1,2,0:0:0:0:
59,120,24640,1,8,0:0:0:0:
109,265,24943,2,0,B|80:390,1,110,4|2,0:0|0:0,0:0:0:0:
225,310,25549,6,0,L|281:314,1,55,2|0,0:0|0:0,0:0:0:0:
289,237,25852,2,0,L|345:241,1,55,8|0,0:0|0:0,0:0:0:0:
420,250,26155,2,0,L|478:363,1,110,4|2,0:0|0:0,0:0:0:0:
331,281,26761,2,0,L|275:285,1,55,2|0,0:0|0:0,0:0:0:0:
267,208,27064,2,0,L|211:212,1,55,8|0,0:0|0:0,0:0:0:0:
136,221,27367,2,0,L|78:334,1,110,4|0,0:0|0:0,0:0:0:0:
230,372,27973,1,2,0:0:0:0:
240,218,28276,1,8,0:0:0:0:
179,76,28579,6,0,L|71:164,1,110,4|2,0:0|0:0,0:0:0:0:
12,276,29185,1,2,0:0:0:0:
157,224,29488,1,8,0:0:0:0:
310,235,29791,2,0,L|449:232,1,110,4|2,0:0|0:0,0:0:0:0:
392,81,30397,5,2,0:0:0:0:
419,232,30700,2,0,L|393:352,1,110,8|4,0:0|0:0,0:0:0:0:
241,344,31307,1,2,0:0:0:0:
387,295,31610,1,2,0:0:0:0:
251,221,31913,2,0,P|278:174|328:155,1,110,8|4,0:0|0:0,0:0:0:0:
475,202,32519,5,2,0:0:0:0:
419,345,32822,1,2,0:0:0:0:
192,278,33125,1,8,0:0:0:0:
339,233,33428,2,0,P|290:276|293:351,1,110,4|2,0:0|0:0,0:0:0:0:
429,269,34034,1,2,0:0:0:0:
247,192,34337,1,8,0:0:0:0:
398,125,34640,2,0,L|361:244,1,110,4|2,0:0|0:0,0:0:0:0:
251,126,35246,6,0,L|224:175,1,55,2|0,0:0|0:0,0:0:0:0:
155,142,35549,2,0,L|128:191,1,55,8|0,0:0|0:0,0:0:0:0:
97,260,35852,2,0,L|162:369,1,110,4|2,0:0|0:0,0:0:0:0:
232,222,36458,2,0,L|288:226,1,55,2|0,0:0|0:0,0:0:0:0:
296,149,36761,2,0,L|352:153,1,55,8|0,0:0|0:0,0:0:0:0:
427,162,37064,2,0,L|485:275,1,110,4|2,0:0|0:0,0:0:0:0:
349,345,37670,5,2,0:0:0:0:
502,347,37973,1,8,0:0:0:0:
336,252,38276,2,0,B|198:236|199:236,1,110,4|2,0:0|0:0,0:0:0:0:
110,339,38882,1,2,0:0:0:0:
10,232,39185,1,8,0:0:0:0:
161,207,39488,2,0,B|269:293|269:292,1,110,4|0,0:0|0:0,0:0:0:0:
