osu file format v14

[General]
AudioFilename: audio.mp3
AudioLeadIn: 0
PreviewTime: 41093
Countdown: 0
SampleSet: Normal
StackLeniency: 0.7
Mode: 1
LetterboxInBreaks: 0
WidescreenStoryboard: 0

[Editor]
Bookmarks: 11352
DistanceSpacing: 0.8
BeatDivisor: 4
GridSize: 32
TimelineZoom: 1.3

[Metadata]
Title:John Wayne
TitleUnicode:John Wayne
Artist:Lady Gaga
ArtistUnicode:Lady Gaga
Creator:Kazaze
Version:Muzukashii
Source:
Tags:English Pop Stefani Germanotta Joanne Country Funk Cowboy Josh Homme Mark Ronson Bloodpop
BeatmapID:1491697
BeatmapSetID:705075

[Difficulty]
HPDrainRate:6
CircleSize:2
OverallDifficulty:4
ApproachRate:5
SliderMultiplier:1.4
SliderTickRate:1

[Events]
//Background and Video events
0,0,"JohnWayneBG.jpg",0,85
//Break Periods
//Storyboard Layer 0 (Background)
//Storyboard Layer 1 (Fail)
//Storyboard Layer 2 (Pass)
//Storyboard Layer 3 (Foreground)
//Storyboard Layer 4 (Overlay)
//Storyboard Sound Samples

[TimingPoints]
1506,618.556701030928,4,1,0,70,1,0
41093,-100,4,1,0,80,0,1
60887,-100,4,1,0,70,0,0
90578,-100,4,1,0,80,0,1
110371,-100,4,1,0,70,0,0
130165,-100,4,1,0,80,0,1
149959,-100,4,1,0,70,0,0
151042,-100,4,1,0,80,0,0
151351,-100,4,1,0,70,0,0
152279,-100,4,1,0,80,0,0
152588,-100,4,1,0,70,0,0
160938,-100,4,1,0,80,0,0
161248,-100,4,1,0,70,0,0
162176,-100,4,1,0,80,0,0
162485,-100,4,1,0,70,0,0
169753,-100,4,1,0,50,0,0
172227,-100,4,1,0,10,0,0

[HitObjects]
158,255,11402,5,0,0:0:0:0:
222,255,11712,1,2,0:0:0:0:
222,255,12021,1,0,0:0:0:0:
222,255,12640,1,0,0:0:0:0:
222,255,13258,1,2,0:0:0:0:
222,255,13567,1,0,0:0:0:0:
222,255,14186,1,2,0:0:0:0:
222,255,14495,1,0,0:0:0:0:
222,255,14650,1,0,0:0:0:0:
222,255,15114,1,2,0:0:0:0:
95,221,15423,1,0,0:0:0:0:
310,182,15732,1,2,0:0:0:0:
382,191,16042,1,0,0:0:0:0:
350,255,16660,1,2,0:0:0:0:
350,255,16969,1,0,0:0:0:0:
350,255,17279,1,2,0:0:0:0:
350,255,17897,1,0,0:0:0:0:
350,255,18207,1,2,0:0:0:0:
350,255,18516,1,0,0:0:0:0:
350,191,19134,1,0,0:0:0:0:
318,191,19444,1,2,0:0:0:0:
318,255,20062,1,0,0:0:0:0:
318,255,20217,1,0,0:0:0:0:
318,255,20371,1,0,0:0:0:0:
318,255,20681,1,0,0:0:0:0:
318,255,20990,1,2,0:0:0:0:
190,191,21609,1,2,0:0:0:0:
190,191,21918,1,0,0:0:0:0:
254,191,22536,1,0,0:0:0:0:
350,223,22846,1,0,0:0:0:0:
318,223,23155,1,2,0:0:0:0:
318,223,23464,1,0,0:0:0:0:
318,223,24083,1,2,0:0:0:0:
318,223,24392,1,0,0:0:0:0:
382,255,25011,1,2,0:0:0:0:
382,255,25165,1,2,0:0:0:0:
382,255,25320,1,2,0:0:0:0:
382,191,25629,1,2,0:0:0:0:
382,191,25938,1,0,0:0:0:0:
254,287,26557,1,2,0:0:0:0:
254,223,26866,1,0,0:0:0:0:
254,223,27176,1,2,0:0:0:0:
254,255,27794,1,0,0:0:0:0:
254,255,28103,1,2,0:0:0:0:
254,255,28413,1,0,0:0:0:0:
286,255,29031,1,0,0:0:0:0:
286,255,29341,1,2,0:0:0:0:
254,255,29959,1,0,0:0:0:0:
286,255,30268,1,2,0:0:0:0:
286,255,30423,1,0,0:0:0:0:
190,255,30887,1,2,0:0:0:0:
318,255,31196,1,2,0:0:0:0:
382,223,32124,1,0,0:0:0:0:
414,223,32433,1,2,0:0:0:0:
414,223,32743,1,0,0:0:0:0:
414,223,33052,1,0,0:0:0:0:
286,191,33670,1,2,0:0:0:0:
158,223,33980,1,0,0:0:0:0:
150,198,34598,1,2,0:0:0:0:
158,223,34908,1,0,0:0:0:0:
158,223,35217,1,0,0:0:0:0:
158,223,35526,1,2,0:0:0:0:
318,159,36145,1,2,0:0:0:0:
318,159,36454,1,2,0:0:0:0:
318,159,37073,1,2,0:0:0:0:
318,159,37382,1,0,0:0:0:0:
318,159,38000,1,2,0:0:0:0:
318,159,38619,1,2,0:0:0:0:
318,159,38928,1,0,0:0:0:0:
318,159,39237,1,0,0:0:0:0:
350,223,39856,1,0,0:0:0:0:
350,223,40011,1,0,0:0:0:0:
350,223,40165,1,0,0:0:0:0:
382,191,40475,1,2,0:0:0:0:
382,191,40629,1,2,0:0:0:0:
382,191,40784,1,2,0:0:0:0:
382,191,41093,1,4,0:0:0:0:
286,223,41402,1,2,0:0:0:0:
254,159,41557,1,2,0:0:0:0:
190,191,41866,1,0,0:0:0:0:
318,159,42330,1,2,0:0:0:0:
318,159,42640,1,0,0:0:0:0:
318,159,42794,1,0,0:0:0:0:
120,216,43103,1,2,0:0:0:0:
318,159,43567,1,0,0:0:0:0:
318,159,43877,1,2,0:0:0:0:
318,159,44031,1,2,0:0:0:0:
318,159,44341,1,0,0:0:0:0:
318,159,44804,1,0,0:0:0:0:
318,159,45114,1,2,0:0:0:0:
99,180,45423,1,0,0:0:0:0:
222,255,46042,1,0,0:0:0:0:
222,159,46506,1,2,0:0:0:0:
286,223,46969,1,2,0:0:0:0:
286,223,47588,1,0,0:0:0:0:
222,223,47897,1,2,0:0:0:0:
254,95,48516,1,0,0:0:0:0:
254,287,49134,1,0,0:0:0:0:
190,255,49444,1,2,0:0:0:0:
318,223,49753,1,0,0:0:0:0:
318,191,49908,1,0,0:0:0:0:
318,191,50062,1,0,0:0:0:0:
318,191,50371,1,2,0:0:0:0:
101,277,50526,1,2,0:0:0:0:
101,277,50681,1,2,0:0:0:0:
318,191,50990,1,4,0:0:0:0:
286,223,51299,1,2,0:0:0:0:
254,159,51454,1,2,0:0:0:0:
190,191,51763,1,0,0:0:0:0:
318,159,52227,1,2,0:0:0:0:
318,159,52536,1,0,0:0:0:0:
318,159,52691,1,0,0:0:0:0:
318,159,53000,1,2,0:0:0:0:
318,159,53464,1,0,0:0:0:0:
318,159,53774,1,2,0:0:0:0:
318,159,53928,1,2,0:0:0:0:
318,159,54237,1,0,0:0:0:0:
318,159,54701,1,0,0:0:0:0:
318,159,55011,1,2,0:0:0:0:
81,205,55320,1,0,0:0:0:0:
222,255,55938,1,0,0:0:0:0:
222,159,56402,1,2,0:0:0:0:
286,223,56866,1,2,0:0:0:0:
286,223,57485,1,0,0:0:0:0:
222,223,57794,1,2,0:0:0:0:
254,95,58413,1,0,0:0:0:0:
254,287,59031,1,0,0:0:0:0:
190,255,59341,1,2,0:0:0:0:
318,223,59650,1,0,0:0:0:0:
318,191,59804,1,0,0:0:0:0:
318,191,59959,1,0,0:0:0:0:
318,191,60268,1,2,0:0:0:0:
94,191,60423,1,2,0:0:0:0:
94,191,60578,1,2,0:0:0:0:
158,255,60887,5,0,0:0:0:0:
222,255,61506,1,2,0:0:0:0:
222,255,61815,1,0,0:0:0:0:
222,255,62124,1,0,0:0:0:0:
222,255,62743,1,2,0:0:0:0:
222,255,63052,1,0,0:0:0:0:
222,255,63670,1,2,0:0:0:0:
222,255,63980,1,0,0:0:0:0:
222,255,64134,1,0,0:0:0:0:
224,270,64289,1,0,0:0:0:0:
222,255,64598,1,0,0:0:0:0:
117,163,64908,1,2,0:0:0:0:
382,191,65217,1,2,0:0:0:0:
382,191,65526,1,0,0:0:0:0:
350,255,66145,1,2,0:0:0:0:
350,255,66454,1,0,0:0:0:0:
350,255,66763,1,2,0:0:0:0:
350,255,67382,1,0,0:0:0:0:
350,255,67691,1,2,0:0:0:0:
350,255,68000,1,0,0:0:0:0:
350,191,68619,1,0,0:0:0:0:
318,191,68928,1,2,0:0:0:0:
318,255,69547,1,0,0:0:0:0:
318,255,69701,1,0,0:0:0:0:
318,255,69856,1,0,0:0:0:0:
318,255,70165,1,0,0:0:0:0:
318,255,70475,1,2,0:0:0:0:
190,191,71093,1,2,0:0:0:0:
190,191,71402,1,0,0:0:0:0:
350,223,71712,1,0,0:0:0:0:
254,191,72021,1,2,0:0:0:0:
318,223,72640,1,0,0:0:0:0:
318,223,72949,1,0,0:0:0:0:
318,223,73567,1,2,0:0:0:0:
318,223,73877,1,0,0:0:0:0:
382,255,74186,1,0,0:0:0:0:
382,255,74341,1,0,0:0:0:0:
382,255,74495,1,0,0:0:0:0:
382,191,75114,1,2,0:0:0:0:
382,191,75423,1,0,0:0:0:0:
254,287,76042,1,2,0:0:0:0:
254,223,76351,1,0,0:0:0:0:
254,223,76660,1,2,0:0:0:0:
254,255,77279,1,0,0:0:0:0:
254,255,77588,1,2,0:0:0:0:
254,255,77897,1,0,0:0:0:0:
286,255,78516,1,0,0:0:0:0:
286,255,78825,1,2,0:0:0:0:
254,255,79444,1,0,0:0:0:0:
286,255,79598,1,0,0:0:0:0:
286,255,79753,1,0,0:0:0:0:
94,95,80062,1,0,0:0:0:0:
190,255,80371,1,2,0:0:0:0:
318,255,80681,1,2,0:0:0:0:
382,223,81609,1,0,0:0:0:0:
414,223,81918,1,2,0:0:0:0:
414,223,82227,1,0,0:0:0:0:
414,223,82536,1,0,0:0:0:0:
286,191,83155,1,2,0:0:0:0:
158,223,83464,1,0,0:0:0:0:
228,198,84083,1,2,0:0:0:0:
158,223,84392,1,0,0:0:0:0:
158,223,84701,1,0,0:0:0:0:
158,223,85011,1,2,0:0:0:0:
318,159,85629,1,2,0:0:0:0:
318,159,85938,1,2,0:0:0:0:
318,159,86557,1,2,0:0:0:0:
318,159,86866,1,0,0:0:0:0:
318,159,87485,1,2,0:0:0:0:
318,159,88103,1,2,0:0:0:0:
318,159,88413,1,0,0:0:0:0:
318,159,88722,1,0,0:0:0:0:
350,223,89341,1,0,0:0:0:0:
350,223,89495,1,0,0:0:0:0:
350,223,89650,1,0,0:0:0:0:
382,191,89959,1,2,0:0:0:0:
382,191,90114,1,2,0:0:0:0:
382,191,90578,1,4,0:0:0:0:
286,223,90887,1,2,0:0:0:0:
254,159,91042,1,2,0:0:0:0:
190,191,91351,1,0,0:0:0:0:
318,159,91815,1,2,0:0:0:0:
318,159,92124,1,0,0:0:0:0:
318,159,92279,1,0,0:0:0:0:
318,159,92588,1,2,0:0:0:0:
318,159,93052,1,0,0:0:0:0:
318,159,93361,1,2,0:0:0:0:
318,159,93516,1,2,0:0:0:0:
318,159,93825,1,0,0:0:0:0:
318,159,94289,1,0,0:0:0:0:
318,159,94598,1,2,0:0:0:0:
125,251,94908,1,0,0:0:0:0:
222,255,95526,1,0,0:0:0:0:
222,159,95990,1,2,0:0:0:0:
286,223,96454,1,2,0:0:0:0:
286,223,97073,1,0,0:0:0:0:
222,223,97382,1,2,0:0:0:0:
254,95,98000,1,0,0:0:0:0:
254,287,98619,1,0,0:0:0:0:
190,255,98928,1,2,0:0:0:0:
318,223,99237,1,0,0:0:0:0:
318,191,99392,1,0,0:0:0:0:
318,191,99547,1,0,0:0:0:0:
318,191,99856,1,2,0:0:0:0:
81,276,100011,1,2,0:0:0:0:
123,229,100165,1,2,0:0:0:0:
318,191,100475,1,4,0:0:0:0:
286,223,100784,1,2,0:0:0:0:
254,159,100938,1,2,0:0:0:0:
190,191,101248,1,0,0:0:0:0:
318,159,101712,1,2,0:0:0:0:
318,159,102021,1,0,0:0:0:0:
318,159,102176,1,0,0:0:0:0:
318,159,102485,1,2,0:0:0:0:
318,159,102949,1,0,0:0:0:0:
318,159,103258,1,2,0:0:0:0:
318,159,103413,1,2,0:0:0:0:
318,159,103722,1,0,0:0:0:0:
318,159,104186,1,0,0:0:0:0:
318,159,104495,1,2,0:0:0:0:
79,248,104804,1,0,0:0:0:0:
222,255,105423,1,0,0:0:0:0:
222,159,105887,1,2,0:0:0:0:
286,223,106351,1,2,0:0:0:0:
286,223,106969,1,0,0:0:0:0:
222,223,107279,1,2,0:0:0:0:
254,95,107897,1,0,0:0:0:0:
254,287,108516,1,0,0:0:0:0:
190,255,108825,1,2,0:0:0:0:
318,223,109134,1,0,0:0:0:0:
318,191,109289,1,0,0:0:0:0:
318,191,109444,1,0,0:0:0:0:
318,191,109753,1,2,0:0:0:0:
94,191,109908,1,2,0:0:0:0:
94,191,110062,1,2,0:0:0:0:
158,255,110371,5,0,0:0:0:0:
254,223,110835,1,2,0:0:0:0:
254,223,111299,1,2,0:0:0:0:
286,223,111918,1,2,0:0:0:0:
286,223,112227,1,0,0:0:0:0:
318,223,112691,1,0,0:0:0:0:
318,223,112846,1,0,0:0:0:0:
190,63,113310,1,2,0:0:0:0:
190,63,113774,1,2,0:0:0:0:
190,63,114392,1,0,0:0:0:0:
350,159,114701,1,2,0:0:0:0:
254,255,115165,1,0,0:0:0:0:
350,159,115320,1,0,0:0:0:0:
318,287,115784,1,2,0:0:0:0:
318,287,116248,1,2,0:0:0:0:
254,255,116866,1,2,0:0:0:0:
254,191,117176,1,0,0:0:0:0:
190,255,117794,1,2,0:0:0:0:
446,223,118413,1,0,0:0:0:0:
446,223,118722,1,2,0:0:0:0:
254,159,119341,1,2,0:0:0:0:
187,174,119650,1,0,0:0:0:0:
158,255,120268,5,0,0:0:0:0:
254,223,120732,1,2,0:0:0:0:
254,223,121196,1,2,0:0:0:0:
286,223,121815,1,0,0:0:0:0:
286,223,122124,1,2,0:0:0:0:
318,223,122588,1,0,0:0:0:0:
318,223,122743,1,0,0:0:0:0:
190,63,123207,1,2,0:0:0:0:
190,63,123670,1,2,0:0:0:0:
190,63,124289,1,0,0:0:0:0:
350,159,124598,1,2,0:0:0:0:
287,216,124908,1,2,0:0:0:0:
350,159,125217,1,0,0:0:0:0:
318,287,125681,1,2,0:0:0:0:
318,287,126145,1,2,0:0:0:0:
414,255,126609,1,0,0:0:0:0:
254,255,126763,1,0,0:0:0:0:
254,191,127073,1,0,0:0:0:0:
190,255,127691,1,2,0:0:0:0:
446,223,128310,1,0,0:0:0:0:
446,223,128619,1,2,0:0:0:0:
286,191,128928,1,0,0:0:0:0:
286,191,129083,1,0,0:0:0:0:
286,191,129237,1,0,0:0:0:0:
350,191,129547,1,2,0:0:0:0:
350,191,129701,1,2,0:0:0:0:
350,191,129856,1,2,0:0:0:0:
350,191,130165,1,4,0:0:0:0:
286,223,130475,1,2,0:0:0:0:
254,159,130629,1,2,0:0:0:0:
190,191,130938,1,0,0:0:0:0:
318,159,131402,1,2,0:0:0:0:
318,159,131712,1,0,0:0:0:0:
318,159,131866,1,0,0:0:0:0:
318,159,132176,1,2,0:0:0:0:
318,159,132640,1,0,0:0:0:0:
318,159,132949,1,2,0:0:0:0:
318,159,133103,1,2,0:0:0:0:
318,159,133413,1,0,0:0:0:0:
318,159,133877,1,0,0:0:0:0:
318,159,134186,1,2,0:0:0:0:
79,248,134495,1,0,0:0:0:0:
222,255,135114,1,0,0:0:0:0:
222,159,135578,1,2,0:0:0:0:
286,223,136042,1,2,0:0:0:0:
286,223,136660,1,0,0:0:0:0:
222,223,136969,1,2,0:0:0:0:
254,95,137588,1,0,0:0:0:0:
254,287,138207,1,0,0:0:0:0:
190,255,138516,1,2,0:0:0:0:
318,223,138825,1,0,0:0:0:0:
318,191,138980,1,0,0:0:0:0:
318,191,139134,1,0,0:0:0:0:
318,191,139444,1,2,0:0:0:0:
175,189,139598,1,2,0:0:0:0:
175,189,139753,1,2,0:0:0:0:
318,191,140062,1,4,0:0:0:0:
286,223,140371,1,2,0:0:0:0:
254,159,140526,1,2,0:0:0:0:
190,191,140835,1,0,0:0:0:0:
318,159,141299,1,2,0:0:0:0:
318,159,141609,1,0,0:0:0:0:
318,159,141763,1,0,0:0:0:0:
318,159,142073,1,2,0:0:0:0:
318,159,142536,1,0,0:0:0:0:
318,159,142846,1,2,0:0:0:0:
318,159,143000,1,2,0:0:0:0:
318,159,143310,1,0,0:0:0:0:
318,159,143774,1,0,0:0:0:0:
318,159,144083,1,2,0:0:0:0:
79,248,144392,1,0,0:0:0:0:
222,255,145011,1,0,0:0:0:0:
222,159,145475,1,2,0:0:0:0:
286,223,145938,1,2,0:0:0:0:
286,223,146557,1,0,0:0:0:0:
222,223,146866,1,2,0:0:0:0:
254,95,147485,1,0,0:0:0:0:
254,287,148103,1,0,0:0:0:0:
190,255,148413,1,2,0:0:0:0:
318,223,148722,1,0,0:0:0:0:
318,191,148877,1,0,0:0:0:0:
318,191,149031,1,0,0:0:0:0:
318,191,149341,1,2,0:0:0:0:
94,191,149495,1,2,0:0:0:0:
94,191,149650,1,2,0:0:0:0:
446,223,149959,1,0,0:0:0:0:
446,223,150578,1,0,0:0:0:0:
446,223,150732,1,0,0:0:0:0:
446,223,150887,1,0,0:0:0:0:
222,159,151196,1,4,0:0:0:0:
222,159,151815,1,2,0:0:0:0:
222,159,151969,1,2,0:0:0:0:
222,159,152124,1,2,0:0:0:0:
254,159,152433,1,4,0:0:0:0:
318,159,152743,1,0,0:0:0:0:
318,159,152897,1,0,0:0:0:0:
318,159,153052,1,0,0:0:0:0:
222,191,153670,1,0,0:0:0:0:
318,127,153980,1,2,0:0:0:0:
318,127,154134,1,2,0:0:0:0:
318,127,154289,1,2,0:0:0:0:
158,95,154598,1,0,0:0:0:0:
190,159,155217,1,2,0:0:0:0:
190,159,155526,1,2,0:0:0:0:
286,159,156145,1,0,0:0:0:0:
286,159,156763,1,2,0:0:0:0:
318,159,157073,1,0,0:0:0:0:
286,159,157382,1,0,0:0:0:0:
254,191,158000,1,0,0:0:0:0:
286,159,158310,1,2,0:0:0:0:
318,191,158619,1,0,0:0:0:0:
318,191,158774,1,2,0:0:0:0:
318,191,158928,1,2,0:0:0:0:
318,191,159237,1,2,0:0:0:0:
350,159,159392,1,2,0:0:0:0:
254,159,159547,1,2,0:0:0:0:
345,101,159856,1,0,0:0:0:0:
446,223,160475,1,0,0:0:0:0:
446,223,160629,1,0,0:0:0:0:
446,223,160784,1,0,0:0:0:0:
222,159,161093,1,4,0:0:0:0:
222,159,161712,1,2,0:0:0:0:
222,159,161866,1,2,0:0:0:0:
222,159,162021,1,2,0:0:0:0:
254,159,162330,1,4,0:0:0:0:
318,159,162640,1,0,0:0:0:0:
318,159,162794,1,0,0:0:0:0:
318,159,162949,1,0,0:0:0:0:
222,191,163567,1,0,0:0:0:0:
318,127,163877,1,2,0:0:0:0:
318,127,164031,1,2,0:0:0:0:
318,127,164186,1,2,0:0:0:0:
158,95,164495,1,0,0:0:0:0:
190,159,165114,1,2,0:0:0:0:
190,159,165423,1,2,0:0:0:0:
286,159,166042,1,0,0:0:0:0:
286,159,166660,1,2,0:0:0:0:
318,159,166969,1,0,0:0:0:0:
286,159,167279,5,0,0:0:0:0:
254,191,167897,1,0,0:0:0:0:
286,159,168207,1,2,0:0:0:0:
190,159,168516,1,0,0:0:0:0:
190,159,168670,1,2,0:0:0:0:
190,159,168825,1,2,0:0:0:0:
190,159,169134,1,2,0:0:0:0:
190,159,169289,1,2,0:0:0:0:
190,159,169444,1,2,0:0:0:0:
256,192,169753,12,0,172227,0:0:0:0:
