osu file format v14

[General]
AudioFilename: audio.mp3
AudioLeadIn: 0
PreviewTime: 41093
Countdown: 0
SampleSet: Normal
StackLeniency: 0.7
Mode: 1
LetterboxInBreaks: 0
WidescreenStoryboard: 0

[Editor]
DistanceSpacing: 0.8
BeatDivisor: 4
GridSize: 4
TimelineZoom: 1.3

[Metadata]
Title:John Wayne
TitleUnicode:John Wayne
Artist:Lady Gaga
ArtistUnicode:Lady Gaga
Creator:Kazaze
Version:Kantan
Source:
Tags:English Pop Stefani Germanotta Joanne Country Funk Cowboy Josh Homme Mark Ronson Bloodpop
BeatmapID:1850993
BeatmapSetID:705075

[Difficulty]
HPDrainRate:8
CircleSize:2
OverallDifficulty:2
ApproachRate:5
SliderMultiplier:1.4
SliderTickRate:1

[Events]
//Background and Video events
0,0,"JohnWayneBG.jpg",0,85
//Break Periods
//Storyboard Layer 0 (Background)
//Storyboard Layer 1 (Fail)
//Storyboard Layer 2 (Pass)
//Storyboard Layer 3 (Foreground)
//Storyboard Layer 4 (Overlay)
//Storyboard Sound Samples

[TimingPoints]
1506,618.556701030928,4,1,0,70,1,0
41093,-100,4,1,0,80,0,1
60887,-100,4,1,0,70,0,0
90578,-100,4,1,0,80,0,1
110371,-100,4,1,0,70,0,0
130165,-100,4,1,0,80,0,1
149959,-100,4,1,0,70,0,0
151042,-100,4,1,0,80,0,0
151351,-100,4,1,0,70,0,0
152279,-100,4,1,0,80,0,0
152588,-100,4,1,0,70,0,0
160938,-100,4,1,0,80,0,0
161248,-100,4,1,0,70,0,0
162176,-100,4,1,0,80,0,0
162485,-100,4,1,0,70,0,0
169753,-100,4,1,0,50,0,0
172227,-100,4,1,0,10,0,0

[HitObjects]
223,313,11402,5,0,0:0:0:0:
223,313,12640,1,0,0:0:0:0:
223,313,13258,1,2,0:0:0:0:
274,223,14495,1,0,0:0:0:0:
223,313,15114,1,2,0:0:0:0:
274,223,15732,1,2,0:0:0:0:
276,291,16969,1,0,0:0:0:0:
275,217,18207,1,2,0:0:0:0:
330,204,19444,1,2,0:0:0:0:
189,292,20062,1,0,0:0:0:0:
360,193,20681,1,0,0:0:0:0:
269,241,21918,1,0,0:0:0:0:
360,193,22536,1,0,0:0:0:0:
360,193,23155,1,2,0:0:0:0:
209,234,24392,1,0,0:0:0:0:
235,233,25011,1,2,0:0:0:0:
357,186,25629,1,2,0:0:0:0:
312,224,26866,1,0,0:0:0:0:
257,191,28103,1,2,0:0:0:0:
274,273,29341,1,2,0:0:0:0:
257,191,29959,1,0,0:0:0:0:
257,191,30578,1,0,0:0:0:0:
257,191,31196,1,2,0:0:0:0:
148,249,32433,1,2,0:0:0:0:
247,209,33052,1,0,0:0:0:0:
148,248,33670,1,2,0:0:0:0:
148,248,34908,1,0,0:0:0:0:
254,208,35526,1,2,0:0:0:0:
148,248,36145,1,2,0:0:0:0:
148,248,37382,1,0,0:0:0:0:
265,231,38000,1,2,0:0:0:0:
148,248,38619,1,2,0:0:0:0:
148,248,39856,1,0,0:0:0:0:
148,248,40475,1,2,0:0:0:0:
148,248,41093,1,4,0:0:0:0:
286,235,41712,1,2,0:0:0:0:
148,248,42949,1,0,0:0:0:0:
148,248,43567,1,2,0:0:0:0:
269,223,44186,1,0,0:0:0:0:
252,201,44804,1,0,0:0:0:0:
252,201,45423,1,2,0:0:0:0:
148,248,46042,1,0,0:0:0:0:
148,248,46969,1,2,0:0:0:0:
257,206,47897,1,0,0:0:0:0:
148,248,48516,1,2,0:0:0:0:
148,248,49753,1,0,0:0:0:0:
148,248,50371,1,2,0:0:0:0:
148,248,50990,1,4,0:0:0:0:
286,235,51609,1,2,0:0:0:0:
148,248,52846,1,0,0:0:0:0:
148,248,53464,1,2,0:0:0:0:
237,171,54083,1,0,0:0:0:0:
252,201,54701,1,0,0:0:0:0:
252,201,55320,1,2,0:0:0:0:
148,248,55938,1,0,0:0:0:0:
148,248,56866,1,2,0:0:0:0:
148,248,57794,1,2,0:0:0:0:
146,238,58413,1,0,0:0:0:0:
148,248,59650,1,0,0:0:0:0:
148,248,60268,5,2,0:0:0:0:
288,358,60887,5,0,0:0:0:0:
288,358,62124,1,0,0:0:0:0:
288,358,62743,1,2,0:0:0:0:
339,268,63980,1,0,0:0:0:0:
288,358,64598,1,0,0:0:0:0:
339,268,65217,1,2,0:0:0:0:
208,131,66454,1,0,0:0:0:0:
340,262,67691,1,2,0:0:0:0:
395,249,68928,1,2,0:0:0:0:
199,267,69547,1,0,0:0:0:0:
280,82,70165,1,0,0:0:0:0:
334,286,71402,1,0,0:0:0:0:
425,238,72021,1,2,0:0:0:0:
425,238,72640,1,0,0:0:0:0:
274,279,73877,1,0,0:0:0:0:
300,278,74495,1,0,0:0:0:0:
422,231,75114,1,2,0:0:0:0:
315,256,76351,1,0,0:0:0:0:
281,233,77588,1,2,0:0:0:0:
339,318,78825,1,2,0:0:0:0:
322,236,79444,1,0,0:0:0:0:
322,236,80062,1,0,0:0:0:0:
322,236,80681,1,2,0:0:0:0:
213,294,81918,1,2,0:0:0:0:
312,254,82536,1,0,0:0:0:0:
213,293,83155,1,2,0:0:0:0:
213,293,84392,1,0,0:0:0:0:
319,253,85011,1,2,0:0:0:0:
213,293,85629,1,2,0:0:0:0:
213,293,86866,1,0,0:0:0:0:
179,173,87485,1,2,0:0:0:0:
32,116,88103,1,2,0:0:0:0:
213,293,89341,1,0,0:0:0:0:
213,293,89959,1,2,0:0:0:0:
148,248,90578,1,4,0:0:0:0:
286,235,91196,1,2,0:0:0:0:
148,248,92433,1,0,0:0:0:0:
148,248,93052,1,2,0:0:0:0:
155,150,93670,1,0,0:0:0:0:
252,201,94289,1,0,0:0:0:0:
252,201,94908,1,2,0:0:0:0:
148,248,95526,1,0,0:0:0:0:
148,248,96454,1,2,0:0:0:0:
148,248,97382,1,2,0:0:0:0:
257,206,98000,1,0,0:0:0:0:
148,248,99237,1,0,0:0:0:0:
148,248,99856,1,2,0:0:0:0:
148,248,100475,1,4,0:0:0:0:
286,235,101093,1,2,0:0:0:0:
148,248,102330,1,0,0:0:0:0:
148,248,102949,1,2,0:0:0:0:
221,188,103567,1,0,0:0:0:0:
252,201,104186,1,0,0:0:0:0:
252,201,104804,1,2,0:0:0:0:
148,248,105423,1,0,0:0:0:0:
148,248,106351,1,2,0:0:0:0:
148,248,107279,1,2,0:0:0:0:
146,238,107897,1,0,0:0:0:0:
148,248,109134,1,0,0:0:0:0:
148,248,109753,5,2,0:0:0:0:
288,358,110371,5,0,0:0:0:0:
237,240,111299,1,2,0:0:0:0:
205,155,112227,5,0,0:0:0:0:
205,155,112846,1,0,0:0:0:0:
222,308,113774,1,2,0:0:0:0:
205,155,114701,1,2,0:0:0:0:
205,155,115320,1,0,0:0:0:0:
317,211,116248,1,2,0:0:0:0:
211,109,117176,1,0,0:0:0:0:
205,155,117794,1,2,0:0:0:0:
317,211,118722,1,2,0:0:0:0:
206,160,119650,1,0,0:0:0:0:
272,108,120268,1,0,0:0:0:0:
317,211,121196,1,2,0:0:0:0:
272,108,122124,1,2,0:0:0:0:
272,108,122743,1,0,0:0:0:0:
317,210,123670,1,2,0:0:0:0:
272,108,124598,1,2,0:0:0:0:
272,108,125217,1,0,0:0:0:0:
317,210,126145,1,2,0:0:0:0:
215,184,127073,1,0,0:0:0:0:
272,108,127691,1,2,0:0:0:0:
272,108,128928,1,0,0:0:0:0:
272,108,129547,1,2,0:0:0:0:
148,248,130165,1,4,0:0:0:0:
286,235,130784,1,2,0:0:0:0:
148,248,132021,1,0,0:0:0:0:
148,248,132640,1,2,0:0:0:0:
270,173,133258,1,0,0:0:0:0:
252,201,133877,1,0,0:0:0:0:
252,201,134495,1,2,0:0:0:0:
148,248,135114,1,0,0:0:0:0:
148,248,136042,1,2,0:0:0:0:
148,248,136969,1,2,0:0:0:0:
257,206,137588,1,0,0:0:0:0:
148,248,138825,1,0,0:0:0:0:
148,248,139444,1,2,0:0:0:0:
148,248,140062,1,4,0:0:0:0:
286,235,140681,1,2,0:0:0:0:
148,248,141918,1,0,0:0:0:0:
148,248,142536,1,2,0:0:0:0:
313,282,143155,1,0,0:0:0:0:
252,201,143774,1,0,0:0:0:0:
252,201,144392,1,2,0:0:0:0:
148,248,145011,1,0,0:0:0:0:
148,248,145938,1,2,0:0:0:0:
148,248,146866,1,2,0:0:0:0:
146,238,147485,1,0,0:0:0:0:
148,248,148722,1,0,0:0:0:0:
148,248,149341,5,2,0:0:0:0:
288,358,149959,5,0,0:0:0:0:
292,208,150578,1,2,0:0:0:0:
187,216,151196,5,4,0:0:0:0:
276,254,152433,1,4,0:0:0:0:
277,210,153052,1,2,0:0:0:0:
215,179,153670,1,0,0:0:0:0:
215,179,154289,1,2,0:0:0:0:
296,222,155526,1,2,0:0:0:0:
264,199,156763,1,2,0:0:0:0:
264,199,157382,1,0,0:0:0:0:
264,199,158619,1,0,0:0:0:0:
264,199,159237,1,2,0:0:0:0:
264,199,159856,1,0,0:0:0:0:
179,80,160475,1,2,0:0:0:0:
81,193,161093,1,4,0:0:0:0:
243,182,162330,1,4,0:0:0:0:
345,175,162949,1,2,0:0:0:0:
345,175,163567,1,0,0:0:0:0:
345,175,164186,1,2,0:0:0:0:
345,175,165423,1,2,0:0:0:0:
345,175,166660,1,2,0:0:0:0:
345,175,167279,1,0,0:0:0:0:
232,237,168516,1,0,0:0:0:0:
232,237,169134,1,2,0:0:0:0:
256,192,169753,12,0,172227,0:0:0:0:
