osu file format v14

[General]
AudioFilename: 14 Gypsy.mp3
AudioLeadIn: 0
PreviewTime: 57191
Countdown: 0
SampleSet: Normal
StackLeniency: 0.7
Mode: 1
LetterboxInBreaks: 0
WidescreenStoryboard: 0

[Editor]
DistanceSpacing: 0.7
BeatDivisor: 4
GridSize: 32
TimelineZoom: 1.4

[Metadata]
Title:Gypsy
TitleUnicode:Gypsy
Artist:Lady Gaga
ArtistUnicode:Lady Gaga
Creator:Kazaze
Version:Oni
Source:
Tags:Stefani Germanotta Travelling Journey Piano Guitar Art Pop Artpop Electropop Europop Redone Madeon DJ White Shadow
BeatmapID:979902
BeatmapSetID:457321

[Difficulty]
HPDrainRate:5
CircleSize:2
OverallDifficulty:5
ApproachRate:7
SliderMultiplier:1.6
SliderTickRate:1

[Events]
//Background and Video events
0,0,"BGbyTiikay.jpg",0,32
//Break Periods
//Storyboard Layer 0 (Background)
//Storyboard Layer 1 (Fail)
//Storyboard Layer 2 (Pass)
//Storyboard Layer 3 (Foreground)
//Storyboard Sound Samples

[TimingPoints]
326,447.761194029851,4,1,0,40,1,0
326,-133.333333333333,4,1,0,40,0,0
28534,-125,4,1,0,50,0,0
43087,-117.647058823529,4,1,0,50,0,0
43311,-111.111111111111,4,1,0,50,0,0
50475,-100,4,1,0,60,0,0
57191,-90.9090909090909,4,1,0,70,0,0
57639,-90.9090909090909,4,1,0,70,0,1
71520,-95.2380952380952,4,1,0,65,0,1
71967,-100,4,1,0,60,0,0
99281,-105.263157894737,4,1,0,60,0,0
99728,-111.111111111111,4,1,0,55,0,0
100176,-117.647058823529,4,1,0,50,0,0
100624,-125,4,1,0,50,0,0
106333,-125,4,1,0,25,0,0
107340,-125,4,1,0,60,0,0
113049,-125,4,1,0,25,0,0
114505,-100,4,1,0,60,0,0
127378,-133.333333333333,4,1,0,25,0,0
128833,-83.3333333333333,4,1,0,60,0,0
129281,-83.3333333333333,4,1,0,70,0,1
157937,-100,4,1,0,60,0,0
202266,-83.3333333333333,4,1,0,70,0,0
202714,-83.3333333333333,4,1,0,70,0,1
231370,-100,4,1,0,40,0,0

[HitObjects]
224,224,326,5,0,0:0:0:0:
256,224,3908,1,2,0:0:0:0:
256,256,7490,1,0,0:0:0:0:
256,256,11072,1,2,0:0:0:0:
256,256,12415,1,0,0:0:0:0:
352,160,14206,1,2,0:0:0:0:
352,160,14430,1,0,0:0:0:0:
352,160,14654,1,2,0:0:0:0:
160,160,17564,1,2,0:0:0:0:
160,160,17788,1,0,0:0:0:0:
160,160,18236,1,0,0:0:0:0:
288,192,21818,1,0,0:0:0:0:
480,224,25400,1,2,0:0:0:0:
480,256,26743,1,0,0:0:0:0:
160,160,28534,1,0,0:0:0:0:
352,256,28982,1,6,0:0:0:0:
320,256,29430,1,0,0:0:0:0:
320,256,29654,1,0,0:0:0:0:
256,224,30102,1,0,0:0:0:0:
320,256,30326,1,2,0:0:0:0:
320,256,30773,1,0,0:0:0:0:
320,256,31221,1,0,0:0:0:0:
320,256,31445,1,2,0:0:0:0:
224,192,31893,1,0,0:0:0:0:
224,192,32340,1,0,0:0:0:0:
224,192,32564,1,2,0:0:0:0:
320,192,33012,1,2,0:0:0:0:
224,160,33460,1,0,0:0:0:0:
224,160,33908,1,0,0:0:0:0:
320,256,34131,1,2,0:0:0:0:
160,160,35699,1,0,0:0:0:0:
352,256,36147,1,6,0:0:0:0:
320,256,36595,1,0,0:0:0:0:
320,256,36819,1,0,0:0:0:0:
256,224,37267,1,0,0:0:0:0:
320,256,37491,1,2,0:0:0:0:
320,256,37938,1,0,0:0:0:0:
320,256,38386,1,0,0:0:0:0:
320,256,38610,1,2,0:0:0:0:
224,192,39058,1,0,0:0:0:0:
224,192,39505,1,0,0:0:0:0:
224,192,39729,1,2,0:0:0:0:
320,192,40177,1,2,0:0:0:0:
224,160,40625,1,0,0:0:0:0:
224,160,41073,1,2,0:0:0:0:
320,256,41296,1,0,0:0:0:0:
224,256,41520,1,2,0:0:0:0:
224,256,41967,1,2,0:0:0:0:
224,256,42415,1,2,0:0:0:0:
320,192,42863,5,2,0:0:0:0:
384,224,43087,1,0,0:0:0:0:
384,224,43311,1,4,0:0:0:0:
352,192,43758,1,2,0:0:0:0:
320,192,43982,1,0,0:0:0:0:
320,192,44430,1,0,0:0:0:0:
352,224,44654,1,4,0:0:0:0:
320,224,45102,1,4,0:0:0:0:
256,160,45549,1,2,0:0:0:0:
224,224,45773,1,0,0:0:0:0:
320,192,45997,1,2,0:0:0:0:
320,224,46445,1,0,0:0:0:0:
224,192,46893,1,2,0:0:0:0:
320,192,47340,1,2,0:0:0:0:
288,224,47564,1,2,0:0:0:0:
224,160,47788,1,0,0:0:0:0:
224,160,48236,1,2,0:0:0:0:
320,256,48460,1,0,0:0:0:0:
160,160,48684,1,0,0:0:0:0:
320,256,49131,1,0,0:0:0:0:
320,256,49355,1,2,0:0:0:0:
320,256,49803,1,0,0:0:0:0:
320,256,50027,1,2,0:0:0:0:
352,192,50475,1,4,0:0:0:0:
320,256,50699,1,0,0:0:0:0:
320,256,50923,1,2,0:0:0:0:
320,256,51146,1,0,0:0:0:0:
320,256,51370,1,0,0:0:0:0:
320,256,51594,1,0,0:0:0:0:
320,256,51818,1,2,0:0:0:0:
320,256,52042,1,0,0:0:0:0:
320,256,52266,1,0,0:0:0:0:
320,224,52490,1,0,0:0:0:0:
320,224,52602,1,0,0:0:0:0:
320,224,52714,1,2,0:0:0:0:
384,224,52937,5,0,0:0:0:0:
384,224,53161,1,2,0:0:0:0:
320,224,53273,1,0,0:0:0:0:
352,224,53385,1,0,0:0:0:0:
352,224,53497,1,0,0:0:0:0:
384,224,53609,1,2,0:0:0:0:
224,192,53833,1,0,0:0:0:0:
224,224,54057,5,4,0:0:0:0:
352,192,57191,1,2,0:0:0:0:
224,224,57415,1,0,0:0:0:0:
224,224,57639,1,4,0:0:0:0:
224,224,58087,1,2,0:0:0:0:
224,224,58534,1,0,0:0:0:0:
256,160,58758,1,2,0:0:0:0:
352,224,58870,1,0,0:0:0:0:
256,256,58982,1,0,0:0:0:0:
352,192,59206,1,2,0:0:0:0:
320,224,59654,1,0,0:0:0:0:
320,224,59878,1,2,0:0:0:0:
64,160,60102,1,0,0:0:0:0:
224,256,60326,1,0,0:0:0:0:
352,224,60549,1,0,0:0:0:0:
256,224,60661,1,0,0:0:0:0:
352,192,60773,1,2,0:0:0:0:
320,224,60997,1,2,0:0:0:0:
352,224,61221,1,0,0:0:0:0:
320,224,61669,1,2,0:0:0:0:
320,224,61894,1,0,0:0:0:0:
224,128,62005,1,0,0:0:0:0:
288,224,62117,1,0,0:0:0:0:
320,224,62341,1,0,0:0:0:0:
192,192,62564,1,0,0:0:0:0:
352,192,62788,1,2,0:0:0:0:
352,192,63236,1,2,0:0:0:0:
352,192,63684,1,2,0:0:0:0:
352,192,64131,1,2,0:0:0:0:
352,192,64355,1,2,0:0:0:0:
224,224,64579,1,0,0:0:0:0:
224,224,64803,1,4,0:0:0:0:
224,224,65251,1,2,0:0:0:0:
224,224,65698,1,0,0:0:0:0:
256,160,65922,1,2,0:0:0:0:
352,224,66034,1,0,0:0:0:0:
256,256,66146,1,0,0:0:0:0:
352,192,66370,1,2,0:0:0:0:
320,224,66818,1,0,0:0:0:0:
320,224,67042,1,2,0:0:0:0:
64,160,67266,1,0,0:0:0:0:
224,256,67490,1,0,0:0:0:0:
352,224,67713,1,0,0:0:0:0:
256,224,67825,1,0,0:0:0:0:
352,192,67937,1,2,0:0:0:0:
320,224,68161,1,2,0:0:0:0:
352,224,68385,1,0,0:0:0:0:
320,224,68833,1,2,0:0:0:0:
320,224,69058,1,0,0:0:0:0:
224,128,69169,1,0,0:0:0:0:
288,224,69281,1,0,0:0:0:0:
320,224,69505,1,2,0:0:0:0:
192,192,69728,1,0,0:0:0:0:
352,192,69952,1,0,0:0:0:0:
256,96,70176,1,2,0:0:0:0:
256,96,70288,1,2,0:0:0:0:
352,192,70400,1,0,0:0:0:0:
384,224,70512,1,0,0:0:0:0:
352,192,70624,1,2,0:0:0:0:
256,96,70848,1,2,0:0:0:0:
256,96,70960,1,2,0:0:0:0:
384,224,71072,1,0,0:0:0:0:
352,224,71296,1,2,0:0:0:0:
384,192,71520,1,2,0:0:0:0:
352,224,71631,1,2,0:0:0:0:
224,224,71743,1,0,0:0:0:0:
224,224,71967,1,6,0:0:0:0:
320,192,72415,1,2,0:0:0:0:
416,256,72639,1,0,0:0:0:0:
416,256,72863,1,2,0:0:0:0:
416,256,73311,1,2,0:0:0:0:
416,256,73534,1,0,0:0:0:0:
416,256,73758,1,0,0:0:0:0:
320,160,74094,1,0,0:0:0:0:
320,160,74206,1,2,0:0:0:0:
416,256,74430,1,0,0:0:0:0:
416,128,74654,1,0,0:0:0:0:
416,192,74878,1,2,0:0:0:0:
448,192,74990,1,2,0:0:0:0:
448,192,75102,1,0,0:0:0:0:
448,192,75326,1,2,0:0:0:0:
320,128,75549,1,0,0:0:0:0:
288,192,75997,1,2,0:0:0:0:
384,192,76333,1,2,0:0:0:0:
256,224,76445,1,0,0:0:0:0:
416,256,76669,1,0,0:0:0:0:
384,192,76893,1,2,0:0:0:0:
352,160,77117,1,0,0:0:0:0:
288,256,77564,1,0,0:0:0:0:
288,256,77788,1,2,0:0:0:0:
224,192,78012,1,2,0:0:0:0:
384,160,78236,1,0,0:0:0:0:
288,256,78684,1,2,0:0:0:0:
320,160,78908,1,0,0:0:0:0:
320,160,79131,1,6,0:0:0:0:
288,160,79579,1,2,0:0:0:0:
320,224,80027,1,0,0:0:0:0:
416,224,80251,1,0,0:0:0:0:
320,288,80475,1,2,0:0:0:0:
416,256,80699,1,2,0:0:0:0:
416,224,80923,1,0,0:0:0:0:
384,224,81370,1,2,0:0:0:0:
416,224,81594,1,0,0:0:0:0:
256,224,82042,1,2,0:0:0:0:
352,224,82266,1,0,0:0:0:0:
416,256,82490,1,2,0:0:0:0:
320,192,82714,1,2,0:0:0:0:
352,224,82937,1,0,0:0:0:0:
256,224,83161,1,2,0:0:0:0:
320,224,83609,1,0,0:0:0:0:
320,288,84057,1,2,0:0:0:0:
352,224,84281,1,0,0:0:0:0:
288,160,84505,1,0,0:0:0:0:
192,160,84952,1,2,0:0:0:0:
320,224,85400,5,4,0:0:0:0:
320,224,85848,1,4,0:0:0:0:
320,224,86072,1,2,0:0:0:0:
320,224,86296,1,6,0:0:0:0:
256,224,86743,1,2,0:0:0:0:
320,192,86967,1,0,0:0:0:0:
320,192,87079,1,0,0:0:0:0:
320,192,87191,1,2,0:0:0:0:
320,192,87415,1,0,0:0:0:0:
256,192,87639,1,2,0:0:0:0:
320,256,87863,1,0,0:0:0:0:
256,160,88087,1,0,0:0:0:0:
320,192,88311,1,2,0:0:0:0:
256,96,88758,1,0,0:0:0:0:
288,96,89206,5,2,0:0:0:0:
384,192,89430,1,2,0:0:0:0:
288,160,89654,1,0,0:0:0:0:
288,192,89878,1,6,0:0:0:0:
480,320,90326,1,2,0:0:0:0:
480,320,90549,1,0,0:0:0:0:
480,320,90773,1,0,0:0:0:0:
192,192,90997,1,2,0:0:0:0:
480,320,91221,1,2,0:0:0:0:
480,320,91445,1,0,0:0:0:0:
192,128,91557,1,0,0:0:0:0:
480,320,91669,1,2,0:0:0:0:
480,320,91893,1,2,0:0:0:0:
480,320,92340,1,2,0:0:0:0:
384,224,92564,1,0,0:0:0:0:
352,160,93012,1,2,0:0:0:0:
256,224,93236,1,0,0:0:0:0:
256,160,93460,1,6,0:0:0:0:
384,128,93908,1,2,0:0:0:0:
256,192,94355,1,0,0:0:0:0:
320,224,94579,1,0,0:0:0:0:
320,224,94803,1,6,0:0:0:0:
320,224,95027,1,6,0:0:0:0:
320,224,95251,1,4,0:0:0:0:
320,224,95699,1,0,0:0:0:0:
320,224,95923,1,2,0:0:0:0:
256,64,96370,1,0,0:0:0:0:
352,160,96594,1,2,0:0:0:0:
288,256,96818,1,0,0:0:0:0:
320,192,97042,1,0,0:0:0:0:
416,128,97266,1,2,0:0:0:0:
320,160,97490,1,2,0:0:0:0:
320,160,97937,1,0,0:0:0:0:
384,192,98161,1,0,0:0:0:0:
256,160,98273,1,0,0:0:0:0:
320,160,98385,1,2,0:0:0:0:
352,192,98609,1,2,0:0:0:0:
320,128,98833,1,0,0:0:0:0:
320,192,99281,1,2,0:0:0:0:
320,192,99728,1,4,0:0:0:0:
320,192,100176,1,2,0:0:0:0:
256,224,100624,1,6,0:0:0:0:
320,256,101072,1,0,0:0:0:0:
320,256,101968,1,2,0:0:0:0:
320,256,102415,1,0,0:0:0:0:
320,256,102863,1,0,0:0:0:0:
320,256,103087,1,2,0:0:0:0:
224,192,103535,1,0,0:0:0:0:
224,192,103982,1,0,0:0:0:0:
224,192,104206,1,2,0:0:0:0:
320,192,104654,1,2,0:0:0:0:
224,160,105102,1,0,0:0:0:0:
224,160,105550,1,0,0:0:0:0:
320,256,105773,1,2,0:0:0:0:
256,256,106445,1,2,0:0:0:0:
256,256,106893,1,2,0:0:0:0:
256,224,107340,1,0,0:0:0:0:
256,192,107788,1,6,0:0:0:0:
320,256,108236,1,0,0:0:0:0:
320,256,109132,1,2,0:0:0:0:
320,256,109579,1,0,0:0:0:0:
320,256,110027,1,0,0:0:0:0:
320,256,110251,1,2,0:0:0:0:
224,192,110699,1,0,0:0:0:0:
224,192,111146,1,0,0:0:0:0:
224,192,111370,1,2,0:0:0:0:
320,192,111818,1,2,0:0:0:0:
224,160,112266,1,0,0:0:0:0:
224,160,112714,1,2,0:0:0:0:
320,256,112937,1,0,0:0:0:0:
192,224,113161,1,2,0:0:0:0:
160,160,113609,1,2,0:0:0:0:
288,224,114057,1,2,0:0:0:0:
224,256,114505,1,2,0:0:0:0:
256,256,114728,1,0,0:0:0:0:
256,256,114952,1,4,0:0:0:0:
320,256,115400,1,2,0:0:0:0:
224,192,115848,1,0,0:0:0:0:
256,224,116072,1,0,0:0:0:0:
320,256,116296,1,2,0:0:0:0:
320,256,116743,1,0,0:0:0:0:
320,256,117191,1,2,0:0:0:0:
320,256,117415,1,0,0:0:0:0:
160,128,117639,1,0,0:0:0:0:
224,192,118087,1,2,0:0:0:0:
224,192,118534,1,0,0:0:0:0:
320,192,118982,1,2,0:0:0:0:
256,192,119206,1,0,0:0:0:0:
224,160,119430,1,0,0:0:0:0:
224,160,119878,1,2,0:0:0:0:
320,256,120101,1,0,0:0:0:0:
192,64,120326,1,2,0:0:0:0:
288,192,120773,1,0,0:0:0:0:
288,192,120997,1,2,0:0:0:0:
128,128,121445,1,2,0:0:0:0:
256,192,121669,1,0,0:0:0:0:
256,288,122117,1,6,0:0:0:0:
320,256,122564,1,2,0:0:0:0:
224,192,123012,1,0,0:0:0:0:
256,224,123236,1,0,0:0:0:0:
320,256,123460,1,2,0:0:0:0:
320,256,123907,1,0,0:0:0:0:
320,256,124355,1,2,0:0:0:0:
320,256,124579,1,0,0:0:0:0:
160,128,124803,1,0,0:0:0:0:
224,192,125251,1,0,0:0:0:0:
224,160,125475,1,2,0:0:0:0:
192,96,125699,1,0,0:0:0:0:
352,224,127490,5,2,0:0:0:0:
352,224,127937,1,2,0:0:0:0:
352,224,128385,1,2,0:0:0:0:
352,192,128833,1,2,0:0:0:0:
224,224,129057,1,0,0:0:0:0:
224,224,129281,1,4,0:0:0:0:
224,224,129729,1,2,0:0:0:0:
224,224,130176,1,0,0:0:0:0:
256,160,130400,1,2,0:0:0:0:
352,224,130512,1,0,0:0:0:0:
256,256,130624,1,0,0:0:0:0:
352,192,130848,1,2,0:0:0:0:
320,224,131296,1,0,0:0:0:0:
320,224,131520,1,2,0:0:0:0:
64,160,131744,1,0,0:0:0:0:
224,256,131968,1,0,0:0:0:0:
352,224,132191,1,0,0:0:0:0:
256,224,132303,1,0,0:0:0:0:
352,192,132415,1,2,0:0:0:0:
320,224,132639,1,2,0:0:0:0:
352,224,132863,1,0,0:0:0:0:
320,224,133311,1,2,0:0:0:0:
320,224,133534,1,0,0:0:0:0:
224,128,133647,1,0,0:0:0:0:
288,224,133759,1,0,0:0:0:0:
320,224,133983,1,0,0:0:0:0:
192,192,134206,1,0,0:0:0:0:
352,192,134430,1,2,0:0:0:0:
352,192,134878,1,2,0:0:0:0:
352,192,135326,1,2,0:0:0:0:
352,192,135773,1,2,0:0:0:0:
352,192,135997,1,2,0:0:0:0:
224,224,136221,1,0,0:0:0:0:
224,224,136445,1,4,0:0:0:0:
224,224,136893,1,2,0:0:0:0:
224,224,137340,1,0,0:0:0:0:
256,160,137564,1,2,0:0:0:0:
352,224,137676,1,0,0:0:0:0:
256,256,137788,1,0,0:0:0:0:
352,192,138012,1,2,0:0:0:0:
320,224,138460,1,0,0:0:0:0:
320,224,138684,1,2,0:0:0:0:
64,160,138908,1,0,0:0:0:0:
224,256,139132,1,0,0:0:0:0:
352,224,139355,1,0,0:0:0:0:
256,224,139467,1,0,0:0:0:0:
352,192,139579,1,2,0:0:0:0:
320,224,139803,1,2,0:0:0:0:
352,224,140027,1,0,0:0:0:0:
320,224,140475,1,2,0:0:0:0:
320,224,140700,1,0,0:0:0:0:
224,128,140811,1,0,0:0:0:0:
288,224,140923,1,0,0:0:0:0:
320,224,141147,1,0,0:0:0:0:
192,192,141370,1,0,0:0:0:0:
352,192,141594,1,2,0:0:0:0:
352,192,142042,1,2,0:0:0:0:
352,192,142490,5,2,0:0:0:0:
352,192,142937,1,2,0:0:0:0:
384,224,143161,5,4,0:0:0:0:
416,256,143385,1,0,0:0:0:0:
320,256,143497,1,0,0:0:0:0:
416,256,143609,1,2,0:0:0:0:
416,256,143833,1,0,0:0:0:0:
384,192,144057,1,0,0:0:0:0:
416,256,144393,1,2,0:0:0:0:
288,192,144505,1,0,0:0:0:0:
416,256,144728,1,0,0:0:0:0:
416,256,144952,1,2,0:0:0:0:
320,224,145288,1,0,0:0:0:0:
416,256,145400,1,2,0:0:0:0:
192,192,145624,1,0,0:0:0:0:
96,192,145736,1,0,0:0:0:0:
416,256,145848,1,2,0:0:0:0:
384,256,146072,1,0,0:0:0:0:
192,224,146184,1,0,0:0:0:0:
256,224,146296,1,2,0:0:0:0:
256,192,146520,1,2,0:0:0:0:
416,256,146743,1,0,0:0:0:0:
320,256,147079,1,0,0:0:0:0:
352,224,147191,1,2,0:0:0:0:
416,256,147415,1,2,0:0:0:0:
416,256,147639,1,0,0:0:0:0:
416,256,147975,1,2,0:0:0:0:
224,224,148087,1,0,0:0:0:0:
416,256,148311,1,0,0:0:0:0:
416,256,148534,1,2,0:0:0:0:
416,256,148870,1,0,0:0:0:0:
416,256,148982,1,2,0:0:0:0:
416,256,149206,1,2,0:0:0:0:
320,224,149318,1,2,0:0:0:0:
416,256,149430,1,0,0:0:0:0:
416,256,149654,1,2,0:0:0:0:
320,224,149766,1,2,0:0:0:0:
416,256,149878,1,0,0:0:0:0:
416,256,150102,1,2,0:0:0:0:
416,256,150326,1,0,0:0:0:0:
416,256,150773,1,2,0:0:0:0:
416,256,150997,1,0,0:0:0:0:
416,256,151221,1,0,0:0:0:0:
352,192,151557,1,2,0:0:0:0:
256,192,151669,1,0,0:0:0:0:
416,256,151892,1,0,0:0:0:0:
416,256,152116,1,2,0:0:0:0:
384,256,152452,1,0,0:0:0:0:
416,256,152564,1,2,0:0:0:0:
192,160,152788,1,0,0:0:0:0:
352,224,152900,1,0,0:0:0:0:
416,256,153012,1,2,0:0:0:0:
160,192,153236,1,0,0:0:0:0:
192,160,153348,1,0,0:0:0:0:
416,256,153460,1,2,0:0:0:0:
352,256,153684,1,2,0:0:0:0:
320,224,153908,1,0,0:0:0:0:
320,256,154355,1,2,0:0:0:0:
416,256,154579,1,0,0:0:0:0:
416,256,154803,1,0,0:0:0:0:
416,256,155139,1,2,0:0:0:0:
160,224,155251,1,0,0:0:0:0:
416,256,155475,1,2,0:0:0:0:
416,256,155698,1,0,0:0:0:0:
416,256,156146,1,2,0:0:0:0:
416,256,156370,1,2,0:0:0:0:
224,224,156482,1,2,0:0:0:0:
416,256,156594,1,0,0:0:0:0:
416,256,156818,1,0,0:0:0:0:
416,256,157042,1,2,0:0:0:0:
416,256,157266,1,2,0:0:0:0:
416,256,157490,1,0,0:0:0:0:
384,224,157937,1,6,0:0:0:0:
352,192,159281,1,0,0:0:0:0:
352,192,159728,1,0,0:0:0:0:
416,224,161520,1,2,0:0:0:0:
288,224,162415,1,0,0:0:0:0:
416,160,163087,1,0,0:0:0:0:
352,160,165102,1,2,0:0:0:0:
416,192,166445,1,2,0:0:0:0:
416,192,166893,1,0,0:0:0:0:
352,224,168684,1,2,0:0:0:0:
352,224,169579,1,0,0:0:0:0:
352,224,170251,1,0,0:0:0:0:
160,224,171818,1,0,0:0:0:0:
256,256,172266,1,6,0:0:0:0:
320,256,172714,1,0,0:0:0:0:
320,256,172938,1,0,0:0:0:0:
256,224,173386,1,0,0:0:0:0:
320,256,173610,1,2,0:0:0:0:
320,256,174057,1,0,0:0:0:0:
320,256,174505,1,0,0:0:0:0:
320,256,174729,1,2,0:0:0:0:
224,192,175177,1,0,0:0:0:0:
224,192,175624,1,0,0:0:0:0:
224,192,175848,1,2,0:0:0:0:
320,192,176296,1,2,0:0:0:0:
224,160,176744,1,0,0:0:0:0:
224,160,177192,1,0,0:0:0:0:
320,256,177415,1,2,0:0:0:0:
256,160,179430,1,6,0:0:0:0:
320,256,179878,1,0,0:0:0:0:
320,256,180102,1,0,0:0:0:0:
256,224,180550,1,0,0:0:0:0:
320,256,180774,1,2,0:0:0:0:
320,256,181221,1,0,0:0:0:0:
320,256,181669,1,0,0:0:0:0:
320,256,181893,5,2,0:0:0:0:
224,192,182341,1,0,0:0:0:0:
224,192,182788,1,0,0:0:0:0:
288,160,183012,1,2,0:0:0:0:
192,256,183348,1,0,0:0:0:0:
256,192,183684,1,2,0:0:0:0:
352,160,183908,1,0,0:0:0:0:
384,160,184355,1,0,0:0:0:0:
288,192,184579,1,2,0:0:0:0:
384,256,185027,1,0,0:0:0:0:
352,96,185251,1,2,0:0:0:0:
320,160,185699,1,0,0:0:0:0:
320,160,186146,1,2,0:0:0:0:
320,160,186594,1,6,0:0:0:0:
320,256,187042,1,0,0:0:0:0:
320,256,187266,1,0,0:0:0:0:
224,160,187714,1,0,0:0:0:0:
320,256,187938,1,2,0:0:0:0:
320,256,188385,1,0,0:0:0:0:
192,96,188833,1,2,0:0:0:0:
320,256,189281,5,0,0:0:0:0:
224,192,189505,1,0,0:0:0:0:
320,256,189728,1,2,0:0:0:0:
320,192,190176,1,0,0:0:0:0:
352,192,190624,1,2,0:0:0:0:
352,192,190848,1,0,0:0:0:0:
352,192,191072,1,2,0:0:0:0:
224,192,191408,1,0,0:0:0:0:
320,192,191743,1,2,0:0:0:0:
320,160,191967,1,0,0:0:0:0:
320,128,192303,1,2,0:0:0:0:
320,192,192639,1,0,0:0:0:0:
320,192,192863,1,0,0:0:0:0:
320,192,193311,1,2,0:0:0:0:
320,160,193758,1,4,0:0:0:0:
384,192,194206,1,2,0:0:0:0:
352,192,194430,1,4,0:0:0:0:
192,224,194654,1,2,0:0:0:0:
320,192,195102,1,0,0:0:0:0:
320,192,195549,1,4,0:0:0:0:
224,128,195997,1,2,0:0:0:0:
352,160,196221,1,4,0:0:0:0:
160,224,196445,1,2,0:0:0:0:
352,192,196893,1,0,0:0:0:0:
320,128,197340,1,4,0:0:0:0:
256,160,197564,1,0,0:0:0:0:
320,128,197788,1,2,0:0:0:0:
384,192,198012,1,0,0:0:0:0:
352,160,198236,1,4,0:0:0:0:
224,192,198460,1,0,0:0:0:0:
416,160,198684,1,2,0:0:0:0:
192,192,198908,1,0,0:0:0:0:
352,160,199131,1,0,0:0:0:0:
352,192,199243,1,0,0:0:0:0:
352,192,199355,1,0,0:0:0:0:
352,192,199467,1,0,0:0:0:0:
288,192,199579,1,2,0:0:0:0:
320,128,199691,1,2,0:0:0:0:
352,192,199803,1,2,0:0:0:0:
352,192,199915,1,2,0:0:0:0:
352,192,200027,1,0,0:0:0:0:
288,192,200139,1,0,0:0:0:0:
352,160,200251,1,0,0:0:0:0:
352,192,200363,1,0,0:0:0:0:
288,160,200475,1,2,0:0:0:0:
352,128,200587,1,2,0:0:0:0:
384,128,200699,1,2,0:0:0:0:
352,192,200811,1,2,0:0:0:0:
416,160,200923,1,0,0:0:0:0:
320,256,201370,1,2,0:0:0:0:
320,256,201818,1,0,0:0:0:0:
352,192,202266,1,2,0:0:0:0:
224,224,202490,1,0,0:0:0:0:
224,224,202714,1,4,0:0:0:0:
224,224,203162,1,2,0:0:0:0:
384,256,203497,1,2,0:0:0:0:
224,224,203609,1,0,0:0:0:0:
256,160,203833,1,2,0:0:0:0:
352,224,203945,1,0,0:0:0:0:
256,256,204057,1,0,0:0:0:0:
352,192,204281,1,2,0:0:0:0:
320,224,204729,1,0,0:0:0:0:
320,224,204953,1,2,0:0:0:0:
64,160,205177,1,0,0:0:0:0:
384,256,205288,1,2,0:0:0:0:
224,256,205401,1,0,0:0:0:0:
352,224,205624,1,0,0:0:0:0:
256,224,205736,1,0,0:0:0:0:
352,192,205848,1,2,0:0:0:0:
320,224,206072,1,2,0:0:0:0:
352,224,206296,1,0,0:0:0:0:
320,224,206744,1,2,0:0:0:0:
320,224,206967,1,0,0:0:0:0:
224,128,207080,1,0,0:0:0:0:
288,224,207192,1,0,0:0:0:0:
320,224,207416,1,0,0:0:0:0:
192,192,207639,1,0,0:0:0:0:
352,192,207863,1,2,0:0:0:0:
352,192,208311,1,2,0:0:0:0:
352,192,208759,1,2,0:0:0:0:
352,192,209206,1,2,0:0:0:0:
352,192,209430,1,2,0:0:0:0:
224,224,209654,1,0,0:0:0:0:
224,224,209878,1,4,0:0:0:0:
224,224,210326,1,2,0:0:0:0:
384,256,210661,1,2,0:0:0:0:
224,224,210773,1,0,0:0:0:0:
256,160,210997,1,2,0:0:0:0:
352,224,211109,1,0,0:0:0:0:
256,256,211221,1,0,0:0:0:0:
352,192,211445,1,2,0:0:0:0:
320,224,211893,1,0,0:0:0:0:
320,224,212117,1,2,0:0:0:0:
224,256,212565,1,0,0:0:0:0:
352,224,212788,1,0,0:0:0:0:
256,224,212900,1,0,0:0:0:0:
352,192,213012,1,2,0:0:0:0:
320,224,213236,1,2,0:0:0:0:
352,224,213460,1,0,0:0:0:0:
320,224,213908,1,2,0:0:0:0:
320,224,214131,1,0,0:0:0:0:
224,128,214244,1,0,0:0:0:0:
288,224,214356,1,0,0:0:0:0:
320,224,214580,1,0,0:0:0:0:
192,192,214803,1,0,0:0:0:0:
352,192,215027,1,2,0:0:0:0:
352,192,215475,5,2,0:0:0:0:
352,192,215923,1,2,0:0:0:0:
384,128,216146,5,0,0:0:0:0:
352,192,216370,1,2,0:0:0:0:
384,192,216482,1,2,0:0:0:0:
384,160,216594,1,0,0:0:0:0:
416,256,216818,1,0,0:0:0:0:
416,256,217042,1,2,0:0:0:0:
416,256,217266,1,0,0:0:0:0:
416,256,217490,1,0,0:0:0:0:
416,256,217826,1,2,0:0:0:0:
288,224,217937,1,0,0:0:0:0:
416,256,218161,1,0,0:0:0:0:
416,256,218385,1,2,0:0:0:0:
320,192,218721,1,0,0:0:0:0:
416,256,218833,1,2,0:0:0:0:
288,256,219057,1,0,0:0:0:0:
224,128,219169,1,0,0:0:0:0:
416,256,219281,1,2,0:0:0:0:
288,256,219505,1,0,0:0:0:0:
224,128,219617,1,0,0:0:0:0:
416,256,219729,1,2,0:0:0:0:
416,256,219953,1,2,0:0:0:0:
416,256,220176,1,0,0:0:0:0:
320,160,220512,1,0,0:0:0:0:
384,192,220624,1,2,0:0:0:0:
416,256,220848,1,2,0:0:0:0:
416,256,221072,1,0,0:0:0:0:
416,256,221408,1,2,0:0:0:0:
256,192,221520,1,0,0:0:0:0:
416,256,221744,1,0,0:0:0:0:
416,256,221967,1,2,0:0:0:0:
416,256,222303,1,0,0:0:0:0:
416,256,222415,1,2,0:0:0:0:
416,256,222639,1,2,0:0:0:0:
256,192,222751,1,2,0:0:0:0:
416,256,222863,1,0,0:0:0:0:
416,256,223087,1,2,0:0:0:0:
256,192,223199,1,2,0:0:0:0:
416,256,223311,1,0,0:0:0:0:
416,256,223535,1,2,0:0:0:0:
416,256,223759,1,0,0:0:0:0:
352,256,224206,1,0,0:0:0:0:
352,160,224430,1,0,0:0:0:0:
352,160,224542,1,0,0:0:0:0:
384,160,224654,1,2,0:0:0:0:
352,192,224878,1,2,0:0:0:0:
320,160,225102,1,0,0:0:0:0:
384,160,225326,1,2,0:0:0:0:
448,160,225549,1,0,0:0:0:0:
288,160,225885,1,0,0:0:0:0:
288,160,225997,1,2,0:0:0:0:
192,192,226221,1,2,0:0:0:0:
288,128,226333,1,0,0:0:0:0:
320,160,226669,1,2,0:0:0:0:
320,160,226893,1,2,0:0:0:0:
288,192,227117,1,0,0:0:0:0:
352,128,227340,1,0,0:0:0:0:
384,224,227788,1,0,0:0:0:0:
384,224,228012,1,2,0:0:0:0:
320,288,228236,1,0,0:0:0:0:
256,96,228460,1,2,0:0:0:0:
384,160,228572,1,2,0:0:0:0:
320,128,228684,1,2,0:0:0:0:
320,160,228908,1,0,0:0:0:0:
320,160,229131,1,2,0:0:0:0:
416,192,229579,1,2,0:0:0:0:
352,160,229803,1,2,0:0:0:0:
160,192,229915,1,2,0:0:0:0:
416,192,230027,1,0,0:0:0:0:
384,192,230251,1,2,0:0:0:0:
160,192,230363,1,2,0:0:0:0:
416,192,230475,1,0,0:0:0:0:
416,192,230699,1,2,0:0:0:0:
288,128,230923,1,4,0:0:0:0:
416,160,231370,1,6,0:0:0:0:
352,160,231818,1,0,0:0:0:0:
352,128,232042,1,0,0:0:0:0:
352,160,232490,1,0,0:0:0:0:
416,160,232714,1,2,0:0:0:0:
320,128,233161,1,0,0:0:0:0:
320,128,233609,1,2,0:0:0:0:
288,192,233833,1,2,0:0:0:0:
384,128,234057,1,0,0:0:0:0:
320,128,234505,1,2,0:0:0:0:
352,160,234952,1,0,0:0:0:0:
352,160,235400,1,0,0:0:0:0:
384,64,235624,1,0,0:0:0:0:
416,128,236072,1,0,0:0:0:0:
416,160,236296,1,2,0:0:0:0:
416,160,236631,1,0,0:0:0:0:
416,160,236743,1,2,0:0:0:0:
320,224,236967,1,2,0:0:0:0:
224,192,237079,1,0,0:0:0:0:
160,192,237415,1,0,0:0:0:0:
384,192,237639,1,2,0:0:0:0:
416,192,238087,1,4,0:0:0:0:
352,192,238534,1,2,0:0:0:0:
320,192,238758,1,0,0:0:0:0:
352,160,238982,1,0,0:0:0:0:
352,160,239206,1,2,0:0:0:0:
480,128,239654,1,0,0:0:0:0:
480,128,239878,1,2,0:0:0:0:
320,192,240326,1,2,0:0:0:0:
256,64,240549,1,0,0:0:0:0:
320,224,240773,1,0,0:0:0:0:
256,160,241221,1,0,0:0:0:0:
320,224,241669,1,2,0:0:0:0:
352,96,242117,1,6,0:0:0:0:
384,128,242340,1,0,0:0:0:0:
384,128,242564,1,0,0:0:0:0:
256,192,243012,1,0,0:0:0:0:
352,160,243236,1,2,0:0:0:0:
256,224,243348,1,2,0:0:0:0:
256,160,243908,1,0,0:0:0:0:
416,224,244131,1,2,0:0:0:0:
416,224,244579,1,2,0:0:0:0:
416,224,244803,1,0,0:0:0:0:
320,160,245027,1,2,0:0:0:0:
352,160,245251,1,4,0:0:0:0:
