osu file format v14

[General]
AudioFilename: 14 Gypsy.mp3
AudioLeadIn: 0
PreviewTime: 57191
Countdown: 0
SampleSet: Normal
StackLeniency: 0.7
Mode: 1
LetterboxInBreaks: 0
WidescreenStoryboard: 0

[Editor]
DistanceSpacing: 0.7
BeatDivisor: 2
GridSize: 32
TimelineZoom: 1

[Metadata]
Title:Gypsy
TitleUnicode:Gypsy
Artist:Lady Gaga
ArtistUnicode:Lady Gaga
Creator:Kazaze
Version:Kantan
Source:
Tags:Stefani Germanotta Travelling Journey Piano Guitar Art Pop Artpop Electropop Europop Redone Madeon DJ White Shadow
BeatmapID:979900
BeatmapSetID:457321

[Difficulty]
HPDrainRate:8
CircleSize:2
OverallDifficulty:3
ApproachRate:4
SliderMultiplier:1.4
SliderTickRate:1

[Events]
//Background and Video events
0,0,"BGbyTiikay.jpg",0,32
//Break Periods
//Storyboard Layer 0 (Background)
//Storyboard Layer 1 (Fail)
//Storyboard Layer 2 (Pass)
//Storyboard Layer 3 (Foreground)
//Storyboard Sound Samples

[TimingPoints]
326,447.761194029851,4,1,0,40,1,0
57639,-100,4,1,0,70,0,1
71967,-100,4,1,0,60,0,0
127490,-100,4,1,0,25,0,0
128833,-100,4,1,0,70,0,0
129281,-100,4,1,0,70,0,1
157937,-100,4,1,0,60,0,0
202714,-100,4,1,0,70,0,1
231370,-100,4,1,0,40,0,0

[HitObjects]
192,256,326,5,0,0:0:0:0:
212,238,3908,1,2,0:0:0:0:
212,238,7490,1,0,0:0:0:0:
246,231,11072,1,2,0:0:0:0:
320,160,12415,1,0,0:0:0:0:
274,264,14206,1,2,0:0:0:0:
274,231,14654,1,0,0:0:0:0:
168,226,17564,1,2,0:0:0:0:
343,243,18236,1,0,0:0:0:0:
277,218,21818,1,0,0:0:0:0:
336,234,25400,1,2,0:0:0:0:
336,234,26743,1,0,0:0:0:0:
384,256,28534,1,4,0:0:0:0:
336,234,28982,1,2,0:0:0:0:
288,224,30326,1,2,0:0:0:0:
255,191,30773,1,0,0:0:0:0:
238,244,32564,1,2,0:0:0:0:
320,192,33460,1,0,0:0:0:0:
238,244,34131,1,2,0:0:0:0:
273,137,36146,1,6,0:0:0:0:
256,160,37490,1,2,0:0:0:0:
202,251,37937,1,0,0:0:0:0:
202,251,39728,1,2,0:0:0:0:
352,224,40624,1,0,0:0:0:0:
202,251,41296,1,2,0:0:0:0:
264,229,43311,1,4,0:0:0:0:
128,192,44654,1,0,0:0:0:0:
306,200,45102,1,0,0:0:0:0:
384,224,45997,1,2,0:0:0:0:
352,224,46445,1,0,0:0:0:0:
265,189,46893,1,0,0:0:0:0:
224,160,47788,1,0,0:0:0:0:
265,189,48684,1,2,0:0:0:0:
320,192,50027,1,0,0:0:0:0:
268,173,50475,1,4,0:0:0:0:
416,224,51370,1,0,0:0:0:0:
224,192,51818,1,2,0:0:0:0:
268,173,52266,1,0,0:0:0:0:
268,173,53161,1,2,0:0:0:0:
288,128,53609,1,0,0:0:0:0:
268,173,54057,1,4,0:0:0:0:
224,32,57191,1,2,0:0:0:0:
274,228,57639,1,4,0:0:0:0:
357,201,58534,1,0,0:0:0:0:
181,169,59430,1,2,0:0:0:0:
224,224,60326,1,2,0:0:0:0:
224,224,60773,1,0,0:0:0:0:
181,169,61221,1,0,0:0:0:0:
256,160,62117,1,0,0:0:0:0:
181,169,63012,1,2,0:0:0:0:
224,224,63908,1,2,0:0:0:0:
302,171,64803,1,4,0:0:0:0:
139,192,65699,1,0,0:0:0:0:
302,171,66594,1,2,0:0:0:0:
288,160,67490,1,2,0:0:0:0:
352,224,67937,1,0,0:0:0:0:
294,194,68385,1,0,0:0:0:0:
224,224,69281,1,0,0:0:0:0:
294,194,70176,1,2,0:0:0:0:
448,320,70848,1,2,0:0:0:0:
320,96,71520,1,2,0:0:0:0:
339,196,71967,1,6,0:0:0:0:
448,288,72863,1,0,0:0:0:0:
448,256,73758,1,0,0:0:0:0:
352,256,74654,1,0,0:0:0:0:
230,221,75101,1,2,0:0:0:0:
480,224,75549,1,0,0:0:0:0:
416,192,76445,1,0,0:0:0:0:
287,189,77340,1,0,0:0:0:0:
320,192,78236,1,2,0:0:0:0:
192,224,78684,1,0,0:0:0:0:
287,189,79131,1,2,0:0:0:0:
342,194,80923,1,2,0:0:0:0:
256,224,81818,1,0,0:0:0:0:
305,243,82714,1,0,0:0:0:0:
160,224,83161,1,2,0:0:0:0:
256,224,83609,1,0,0:0:0:0:
352,192,84505,1,0,0:0:0:0:
305,243,85400,1,0,0:0:0:0:
320,192,85848,1,0,0:0:0:0:
305,243,86296,1,6,0:0:0:0:
448,288,87191,1,0,0:0:0:0:
448,256,88086,1,0,0:0:0:0:
352,256,88982,1,0,0:0:0:0:
320,256,89430,1,2,0:0:0:0:
312,211,89878,1,0,0:0:0:0:
416,192,90773,1,0,0:0:0:0:
287,189,91668,1,0,0:0:0:0:
320,192,92564,1,2,0:0:0:0:
480,224,93012,1,0,0:0:0:0:
335,184,93460,1,6,0:0:0:0:
342,194,94803,1,6,0:0:0:0:
371,279,95251,1,4,0:0:0:0:
288,160,96146,1,0,0:0:0:0:
256,192,96594,1,2,0:0:0:0:
305,243,97042,1,0,0:0:0:0:
256,224,97937,1,2,0:0:0:0:
256,224,98833,1,0,0:0:0:0:
352,192,99281,1,2,0:0:0:0:
397,193,99728,1,4,0:0:0:0:
305,243,100624,1,6,0:0:0:0:
361,192,101967,1,2,0:0:0:0:
320,160,102415,1,0,0:0:0:0:
374,193,104206,1,2,0:0:0:0:
320,128,105102,1,0,0:0:0:0:
346,222,105773,1,2,0:0:0:0:
352,160,107340,1,0,0:0:0:0:
321,218,107788,1,6,0:0:0:0:
320,160,109131,1,2,0:0:0:0:
375,213,109579,1,0,0:0:0:0:
375,213,111370,1,2,0:0:0:0:
288,192,112266,1,0,0:0:0:0:
386,217,112937,1,2,0:0:0:0:
256,224,114505,1,2,0:0:0:0:
305,243,114952,1,4,0:0:0:0:
320,160,116296,1,2,0:0:0:0:
361,192,116743,1,0,0:0:0:0:
288,224,117639,1,0,0:0:0:0:
316,228,118534,1,2,0:0:0:0:
160,192,119430,1,0,0:0:0:0:
192,224,119878,1,0,0:0:0:0:
306,160,120326,1,2,0:0:0:0:
416,224,121221,1,0,0:0:0:0:
320,224,122117,1,4,0:0:0:0:
192,224,123460,1,2,0:0:0:0:
448,224,123908,1,0,0:0:0:0:
384,224,124803,1,0,0:0:0:0:
316,228,125251,1,2,0:0:0:0:
384,160,125699,1,0,0:0:0:0:
128,160,127490,1,2,0:0:0:0:
192,192,128385,1,2,0:0:0:0:
352,256,128833,1,2,0:0:0:0:
328,268,129281,1,4,0:0:0:0:
260,130,130176,1,0,0:0:0:0:
260,130,131072,1,2,0:0:0:0:
256,224,131967,1,2,0:0:0:0:
256,224,132415,1,0,0:0:0:0:
260,130,132863,1,0,0:0:0:0:
288,192,133758,1,0,0:0:0:0:
194,146,134654,1,2,0:0:0:0:
320,224,135549,1,2,0:0:0:0:
284,217,136445,1,4,0:0:0:0:
284,217,137340,1,0,0:0:0:0:
284,217,138236,1,2,0:0:0:0:
288,224,139131,1,2,0:0:0:0:
288,224,139579,1,0,0:0:0:0:
284,217,140027,1,0,0:0:0:0:
320,256,140923,1,0,0:0:0:0:
312,280,141818,1,2,0:0:0:0:
259,204,143609,1,4,0:0:0:0:
448,256,144505,1,0,0:0:0:0:
259,204,145400,1,2,0:0:0:0:
352,160,145848,1,0,0:0:0:0:
259,204,146296,1,2,0:0:0:0:
259,204,147191,1,0,0:0:0:0:
320,192,147639,1,0,0:0:0:0:
320,224,148534,1,0,0:0:0:0:
259,204,148982,1,2,0:0:0:0:
259,204,149878,1,2,0:0:0:0:
320,192,150326,1,0,0:0:0:0:
199,22,150773,1,0,0:0:0:0:
384,128,151669,1,0,0:0:0:0:
281,248,152564,1,2,0:0:0:0:
384,128,153012,1,0,0:0:0:0:
281,248,153460,1,2,0:0:0:0:
343,215,154355,1,0,0:0:0:0:
224,160,154803,1,0,0:0:0:0:
96,224,155699,1,0,0:0:0:0:
343,215,156146,1,2,0:0:0:0:
320,128,157042,1,0,0:0:0:0:
320,128,157490,1,0,0:0:0:0:
343,215,157937,1,6,0:0:0:0:
192,128,159281,1,0,0:0:0:0:
192,128,159728,1,0,0:0:0:0:
256,224,161520,1,2,0:0:0:0:
352,256,162415,1,0,0:0:0:0:
192,128,163087,1,0,0:0:0:0:
320,192,165102,1,2,0:0:0:0:
192,224,166445,1,2,0:0:0:0:
64,160,166893,1,0,0:0:0:0:
320,192,168684,1,2,0:0:0:0:
320,224,169579,1,0,0:0:0:0:
192,224,170251,1,0,0:0:0:0:
352,288,171818,1,0,0:0:0:0:
256,192,172266,1,6,0:0:0:0:
320,224,173609,1,2,0:0:0:0:
352,192,174057,1,0,0:0:0:0:
320,224,175848,1,2,0:0:0:0:
320,256,176743,1,0,0:0:0:0:
320,192,177415,1,2,0:0:0:0:
256,224,179430,1,4,0:0:0:0:
256,224,180773,1,2,0:0:0:0:
384,256,181221,1,0,0:0:0:0:
256,224,183012,1,2,0:0:0:0:
384,256,183908,1,0,0:0:0:0:
256,224,184579,1,2,0:0:0:0:
256,224,186594,1,4,0:0:0:0:
288,256,187937,1,2,0:0:0:0:
320,224,188385,1,0,0:0:0:0:
256,192,189281,1,0,0:0:0:0:
256,192,190176,1,2,0:0:0:0:
352,192,191072,1,0,0:0:0:0:
256,192,191743,1,2,0:0:0:0:
192,160,193758,1,4,0:0:0:0:
384,192,194206,1,2,0:0:0:0:
384,192,194654,1,0,0:0:0:0:
256,192,195549,1,4,0:0:0:0:
416,224,195997,1,2,0:0:0:0:
320,224,196445,1,0,0:0:0:0:
288,224,197340,1,0,0:0:0:0:
288,224,197788,1,0,0:0:0:0:
320,224,198236,1,2,0:0:0:0:
288,256,198684,1,2,0:0:0:0:
128,128,199131,2,0,L|288:128,4,140
288,192,202266,5,2,0:0:0:0:
320,224,202714,5,4,0:0:0:0:
320,224,203609,1,0,0:0:0:0:
320,224,204505,1,2,0:0:0:0:
224,288,205400,1,2,0:0:0:0:
192,256,205848,1,0,0:0:0:0:
320,224,206296,1,0,0:0:0:0:
352,160,207191,1,0,0:0:0:0:
320,224,208087,1,2,0:0:0:0:
416,256,208534,1,2,0:0:0:0:
320,224,208982,1,2,0:0:0:0:
320,224,209878,1,4,0:0:0:0:
320,224,210773,1,0,0:0:0:0:
320,224,211669,1,2,0:0:0:0:
320,224,212564,1,2,0:0:0:0:
288,224,213012,1,0,0:0:0:0:
320,224,213460,1,2,0:0:0:0:
288,128,214355,1,0,0:0:0:0:
320,224,215251,1,2,0:0:0:0:
320,160,215699,1,2,0:0:0:0:
320,224,216146,1,2,0:0:0:0:
259,204,217042,1,4,0:0:0:0:
448,256,217938,1,0,0:0:0:0:
259,204,218833,1,2,0:0:0:0:
352,160,219281,1,0,0:0:0:0:
259,204,219729,1,2,0:0:0:0:
259,204,220624,1,0,0:0:0:0:
320,192,221072,1,0,0:0:0:0:
64,128,221967,1,0,0:0:0:0:
320,288,222415,1,2,0:0:0:0:
320,288,223311,1,2,0:0:0:0:
320,192,223759,1,0,0:0:0:0:
320,288,224206,1,0,0:0:0:0:
288,224,225102,1,0,0:0:0:0:
192,128,225549,1,2,0:0:0:0:
320,288,225997,1,0,0:0:0:0:
320,256,226893,1,2,0:0:0:0:
320,288,227788,1,2,0:0:0:0:
192,192,228236,1,0,0:0:0:0:
320,160,229131,1,2,0:0:0:0:
320,288,229579,1,2,0:0:0:0:
320,288,230475,1,2,0:0:0:0:
416,256,230923,1,4,0:0:0:0:
320,288,231370,1,2,0:0:0:0:
416,256,233161,1,0,0:0:0:0:
352,224,233609,1,0,0:0:0:0:
416,256,234505,1,2,0:0:0:0:
288,160,234952,1,0,0:0:0:0:
256,160,235848,1,0,0:0:0:0:
288,192,236743,1,2,0:0:0:0:
128,192,237191,1,0,0:0:0:0:
128,192,238087,1,2,0:0:0:0:
288,192,238534,1,0,0:0:0:0:
352,192,239430,1,0,0:0:0:0:
288,192,240326,1,2,0:0:0:0:
256,192,240773,1,0,0:0:0:0:
320,288,241669,1,0,0:0:0:0:
288,192,242117,1,2,0:0:0:0:
288,96,243908,1,0,0:0:0:0:
288,160,244803,1,2,0:0:0:0:
224,192,245251,1,4,0:0:0:0:
