osu file format v14

[General]
AudioFilename: 14 Gypsy.mp3
AudioLeadIn: 0
PreviewTime: 57191
Countdown: 0
SampleSet: Normal
StackLeniency: 0.7
Mode: 1
LetterboxInBreaks: 0
WidescreenStoryboard: 0

[Editor]
DistanceSpacing: 0.7
BeatDivisor: 4
GridSize: 32
TimelineZoom: 1

[Metadata]
Title:Gypsy
TitleUnicode:Gypsy
Artist:Lady Gaga
ArtistUnicode:Lady Gaga
Creator:Kazaze
Version:Futsuu
Source:
Tags:Stefani Germanotta Travelling Journey Piano Guitar Art Pop Artpop Electropop Europop Redone Madeon DJ White Shadow
BeatmapID:979899
BeatmapSetID:457321

[Difficulty]
HPDrainRate:7
CircleSize:2
OverallDifficulty:3.5
ApproachRate:5
SliderMultiplier:1.4
SliderTickRate:1

[Events]
//Background and Video events
0,0,"BGbyTiikay.jpg",0,32
//Break Periods
//Storyboard Layer 0 (Background)
//Storyboard Layer 1 (Fail)
//Storyboard Layer 2 (Pass)
//Storyboard Layer 3 (Foreground)
//Storyboard Sound Samples

[TimingPoints]
326,447.761194029851,4,1,0,40,1,0
57639,-100,4,1,0,70,0,1
71967,-100,4,1,0,60,0,0
127490,-100,4,1,0,25,0,0
128833,-100,4,1,0,70,0,0
129281,-100,4,1,0,70,0,1
157937,-100,4,1,0,60,0,0
202714,-100,4,1,0,70,0,1
231370,-100,4,1,0,40,0,0

[HitObjects]
256,224,326,5,0,0:0:0:0:
320,224,3908,1,2,0:0:0:0:
256,192,7490,1,0,0:0:0:0:
256,192,11072,1,2,0:0:0:0:
256,256,12415,1,0,0:0:0:0:
256,192,14206,1,2,0:0:0:0:
256,192,14654,1,0,0:0:0:0:
352,256,17564,1,2,0:0:0:0:
320,192,18236,1,0,0:0:0:0:
192,192,21818,1,0,0:0:0:0:
192,192,25400,1,2,0:0:0:0:
192,192,26743,1,0,0:0:0:0:
224,256,28534,1,4,0:0:0:0:
224,256,28982,1,2,0:0:0:0:
256,224,30326,1,2,0:0:0:0:
352,256,30773,1,0,0:0:0:0:
320,160,32117,1,0,0:0:0:0:
224,224,32564,1,2,0:0:0:0:
288,224,33460,1,0,0:0:0:0:
288,224,34131,1,2,0:0:0:0:
224,288,35699,1,0,0:0:0:0:
192,192,36146,1,6,0:0:0:0:
224,128,37490,1,2,0:0:0:0:
288,224,37937,1,0,0:0:0:0:
160,192,39281,1,0,0:0:0:0:
192,224,39728,1,2,0:0:0:0:
192,224,40624,1,0,0:0:0:0:
192,224,41296,1,2,0:0:0:0:
128,192,42863,1,2,0:0:0:0:
320,288,43087,1,0,0:0:0:0:
224,256,43311,1,0,0:0:0:0:
384,288,43758,1,2,0:0:0:0:
320,256,44654,1,0,0:0:0:0:
320,256,45102,1,4,0:0:0:0:
192,192,45997,1,2,0:0:0:0:
384,192,46445,1,0,0:0:0:0:
320,256,46893,1,2,0:0:0:0:
320,256,47788,1,0,0:0:0:0:
352,256,48460,1,0,0:0:0:0:
320,256,48684,1,2,0:0:0:0:
352,160,49355,1,0,0:0:0:0:
448,192,50027,1,0,0:0:0:0:
288,224,50475,1,4,0:0:0:0:
288,224,50923,1,2,0:0:0:0:
288,224,51370,1,0,0:0:0:0:
192,192,51818,1,2,0:0:0:0:
192,192,52042,1,2,0:0:0:0:
288,224,52266,1,0,0:0:0:0:
224,192,52714,1,2,0:0:0:0:
288,224,53161,1,0,0:0:0:0:
288,224,53609,1,2,0:0:0:0:
416,128,53833,1,0,0:0:0:0:
288,224,54057,1,4,0:0:0:0:
352,224,57191,1,2,0:0:0:0:
352,224,57415,1,0,0:0:0:0:
224,224,57639,1,4,0:0:0:0:
352,256,58534,1,0,0:0:0:0:
352,256,58982,1,2,0:0:0:0:
288,192,59430,1,0,0:0:0:0:
352,256,60326,1,2,0:0:0:0:
224,160,60773,1,0,0:0:0:0:
416,192,60997,1,0,0:0:0:0:
352,256,61221,1,0,0:0:0:0:
256,192,62117,1,0,0:0:0:0:
256,128,63012,1,2,0:0:0:0:
320,224,63460,1,2,0:0:0:0:
320,128,63908,1,2,0:0:0:0:
256,192,64355,1,2,0:0:0:0:
256,224,64579,1,0,0:0:0:0:
320,224,64803,1,4,0:0:0:0:
352,224,65699,1,0,0:0:0:0:
352,224,66146,1,2,0:0:0:0:
352,224,66594,1,0,0:0:0:0:
352,224,67490,1,2,0:0:0:0:
224,192,67937,1,0,0:0:0:0:
416,224,68161,1,0,0:0:0:0:
352,224,68385,1,0,0:0:0:0:
352,224,69281,1,0,0:0:0:0:
352,224,70176,1,2,0:0:0:0:
192,160,70848,1,2,0:0:0:0:
192,160,71296,1,2,0:0:0:0:
352,160,71520,1,2,0:0:0:0:
384,224,71967,1,6,0:0:0:0:
448,224,72863,1,0,0:0:0:0:
192,192,73311,1,2,0:0:0:0:
448,224,73758,1,0,0:0:0:0:
352,224,74654,1,0,0:0:0:0:
352,224,75102,1,2,0:0:0:0:
448,224,75549,1,0,0:0:0:0:
160,160,75997,1,0,0:0:0:0:
256,224,76445,1,2,0:0:0:0:
256,224,77340,1,0,0:0:0:0:
256,224,78236,1,2,0:0:0:0:
320,224,78684,1,0,0:0:0:0:
256,224,79131,1,6,0:0:0:0:
384,256,80475,1,2,0:0:0:0:
352,224,80699,1,2,0:0:0:0:
384,256,80923,1,0,0:0:0:0:
192,160,81370,1,0,0:0:0:0:
288,192,81818,1,2,0:0:0:0:
288,192,82714,1,0,0:0:0:0:
352,128,83609,1,0,0:0:0:0:
288,192,84281,1,2,0:0:0:0:
352,256,84505,1,0,0:0:0:0:
352,224,85400,1,4,0:0:0:0:
352,224,85848,1,0,0:0:0:0:
320,224,86072,1,2,0:0:0:0:
384,192,86296,1,4,0:0:0:0:
224,192,87191,1,0,0:0:0:0:
256,192,87639,1,2,0:0:0:0:
320,224,88087,1,0,0:0:0:0:
384,192,88982,1,0,0:0:0:0:
384,256,89430,1,2,0:0:0:0:
320,224,89878,1,2,0:0:0:0:
320,224,90326,1,0,0:0:0:0:
320,192,90773,1,2,0:0:0:0:
224,224,91669,1,0,0:0:0:0:
352,192,92564,1,2,0:0:0:0:
224,160,93012,1,0,0:0:0:0:
352,192,93460,1,6,0:0:0:0:
320,128,94803,1,6,0:0:0:0:
320,128,95251,1,4,0:0:0:0:
288,192,95699,1,0,0:0:0:0:
288,192,95923,1,2,0:0:0:0:
128,160,96594,1,0,0:0:0:0:
320,96,97042,1,2,0:0:0:0:
320,160,97937,1,0,0:0:0:0:
320,192,98833,1,0,0:0:0:0:
352,192,99281,1,2,0:0:0:0:
320,96,99728,1,4,0:0:0:0:
320,96,100624,1,6,0:0:0:0:
192,224,101072,1,0,0:0:0:0:
384,192,101967,1,2,0:0:0:0:
384,192,102415,1,0,0:0:0:0:
288,256,103758,1,0,0:0:0:0:
192,128,104206,1,2,0:0:0:0:
320,96,105102,1,0,0:0:0:0:
384,256,105773,1,2,0:0:0:0:
224,192,107340,1,0,0:0:0:0:
224,192,107788,1,6,0:0:0:0:
224,128,108236,1,0,0:0:0:0:
224,192,109131,1,2,0:0:0:0:
224,192,109579,1,0,0:0:0:0:
224,192,110923,1,0,0:0:0:0:
352,224,111370,1,2,0:0:0:0:
224,192,112266,1,0,0:0:0:0:
224,192,112937,1,2,0:0:0:0:
416,256,114505,1,2,0:0:0:0:
320,160,114728,1,0,0:0:0:0:
416,256,114952,1,4,0:0:0:0:
384,224,115400,1,0,0:0:0:0:
256,256,116296,1,2,0:0:0:0:
256,256,116743,1,0,0:0:0:0:
256,256,117639,1,2,0:0:0:0:
256,160,118087,1,0,0:0:0:0:
256,224,118534,1,2,0:0:0:0:
320,224,119430,1,0,0:0:0:0:
192,160,120102,1,0,0:0:0:0:
256,256,120326,1,2,0:0:0:0:
224,224,121221,1,0,0:0:0:0:
224,224,122117,1,6,0:0:0:0:
288,192,122564,1,0,0:0:0:0:
352,224,123460,1,2,0:0:0:0:
256,160,123908,1,0,0:0:0:0:
384,192,124803,1,0,0:0:0:0:
288,224,125251,1,2,0:0:0:0:
352,192,125699,1,0,0:0:0:0:
224,224,127490,1,2,0:0:0:0:
256,160,127937,1,2,0:0:0:0:
224,96,128385,1,2,0:0:0:0:
352,224,128833,1,2,0:0:0:0:
288,256,129057,1,0,0:0:0:0:
224,224,129281,1,4,0:0:0:0:
352,256,130176,1,0,0:0:0:0:
352,256,130624,1,2,0:0:0:0:
288,192,131072,1,0,0:0:0:0:
352,256,131968,1,2,0:0:0:0:
192,160,132415,1,0,0:0:0:0:
384,256,132639,1,0,0:0:0:0:
352,256,132863,1,0,0:0:0:0:
256,128,133759,1,0,0:0:0:0:
256,128,134654,1,2,0:0:0:0:
320,160,135102,1,2,0:0:0:0:
256,128,135550,1,2,0:0:0:0:
352,224,135997,1,2,0:0:0:0:
320,224,136221,1,0,0:0:0:0:
320,224,136445,1,4,0:0:0:0:
352,224,137341,1,0,0:0:0:0:
352,224,137788,1,2,0:0:0:0:
256,160,138236,1,0,0:0:0:0:
352,224,139132,1,2,0:0:0:0:
352,224,139579,1,0,0:0:0:0:
320,224,139803,1,0,0:0:0:0:
352,224,140027,1,0,0:0:0:0:
352,224,140923,1,0,0:0:0:0:
384,192,141818,1,2,0:0:0:0:
352,192,142266,1,2,0:0:0:0:
384,192,142714,1,2,0:0:0:0:
288,160,143161,1,0,0:0:0:0:
288,64,143609,1,4,0:0:0:0:
288,64,144505,1,2,0:0:0:0:
352,128,145400,1,0,0:0:0:0:
192,192,145848,1,2,0:0:0:0:
320,128,146296,1,0,0:0:0:0:
320,192,146520,1,0,0:0:0:0:
352,192,146743,1,2,0:0:0:0:
384,192,147191,1,0,0:0:0:0:
224,256,148087,1,2,0:0:0:0:
384,192,148982,1,0,0:0:0:0:
384,192,149430,1,2,0:0:0:0:
256,160,149878,1,0,0:0:0:0:
352,192,150102,1,0,0:0:0:0:
384,192,150326,1,2,0:0:0:0:
384,192,150773,1,0,0:0:0:0:
384,192,151669,1,2,0:0:0:0:
384,192,152564,1,0,0:0:0:0:
320,192,153012,1,2,0:0:0:0:
416,160,153460,1,0,0:0:0:0:
288,160,153684,1,0,0:0:0:0:
384,192,153908,1,2,0:0:0:0:
352,160,154355,1,0,0:0:0:0:
256,192,155251,1,2,0:0:0:0:
352,160,156146,1,0,0:0:0:0:
352,192,156594,1,2,0:0:0:0:
352,160,157042,1,0,0:0:0:0:
288,224,157266,1,0,0:0:0:0:
352,160,157490,1,2,0:0:0:0:
288,192,157937,1,6,0:0:0:0:
224,160,159281,1,0,0:0:0:0:
224,160,159728,1,0,0:0:0:0:
288,160,161520,1,2,0:0:0:0:
288,160,162415,1,0,0:0:0:0:
384,224,163087,1,0,0:0:0:0:
384,192,165102,1,2,0:0:0:0:
416,192,166445,1,2,0:0:0:0:
416,192,166893,1,0,0:0:0:0:
384,192,168684,1,2,0:0:0:0:
320,224,169579,1,0,0:0:0:0:
320,224,170251,1,0,0:0:0:0:
320,224,171818,1,0,0:0:0:0:
224,128,172266,1,6,0:0:0:0:
256,192,172714,1,0,0:0:0:0:
384,192,173609,1,2,0:0:0:0:
320,160,174057,1,0,0:0:0:0:
416,224,174952,1,0,0:0:0:0:
384,224,175848,1,2,0:0:0:0:
320,128,176743,1,0,0:0:0:0:
320,128,177415,1,2,0:0:0:0:
288,224,179430,1,6,0:0:0:0:
384,256,179878,1,0,0:0:0:0:
160,160,180773,1,2,0:0:0:0:
320,192,181221,1,0,0:0:0:0:
288,192,181669,1,0,0:0:0:0:
320,160,183012,1,2,0:0:0:0:
384,160,183908,1,0,0:0:0:0:
384,160,184579,1,2,0:0:0:0:
288,192,186594,1,6,0:0:0:0:
416,224,187042,1,0,0:0:0:0:
352,256,187937,1,2,0:0:0:0:
352,256,188385,1,0,0:0:0:0:
352,256,189281,1,0,0:0:0:0:
352,256,189728,1,2,0:0:0:0:
256,192,190176,1,2,0:0:0:0:
224,192,191072,1,0,0:0:0:0:
192,96,191520,1,0,0:0:0:0:
192,96,191743,1,2,0:0:0:0:
352,192,193758,1,4,0:0:0:0:
288,192,194206,1,2,0:0:0:0:
352,192,194430,1,0,0:0:0:0:
96,224,195102,1,2,0:0:0:0:
352,192,195549,1,4,0:0:0:0:
352,160,195997,1,2,0:0:0:0:
320,224,196221,1,0,0:0:0:0:
320,256,196893,1,0,0:0:0:0:
320,224,197340,1,0,0:0:0:0:
384,160,197788,1,2,0:0:0:0:
320,224,198236,1,0,0:0:0:0:
384,160,198684,1,2,0:0:0:0:
96,160,199131,2,0,L|256:160,4,140
352,224,202266,1,2,0:0:0:0:
320,160,202490,1,0,0:0:0:0:
224,224,202714,1,4,0:0:0:0:
352,256,203609,1,0,0:0:0:0:
352,256,204057,1,2,0:0:0:0:
288,192,204505,1,0,0:0:0:0:
352,256,205401,1,2,0:0:0:0:
288,192,205848,1,0,0:0:0:0:
288,224,206072,1,0,0:0:0:0:
352,256,206296,1,0,0:0:0:0:
256,128,207191,1,0,0:0:0:0:
256,128,208087,1,2,0:0:0:0:
256,128,208535,1,2,0:0:0:0:
256,128,208983,1,2,0:0:0:0:
352,224,209430,1,2,0:0:0:0:
352,160,209654,1,0,0:0:0:0:
320,224,209878,1,4,0:0:0:0:
352,224,210774,1,0,0:0:0:0:
352,224,211221,1,2,0:0:0:0:
352,224,211669,1,0,0:0:0:0:
352,224,212565,1,2,0:0:0:0:
352,224,213012,1,0,0:0:0:0:
160,192,213236,1,0,0:0:0:0:
352,224,213460,1,0,0:0:0:0:
288,64,213908,1,2,0:0:0:0:
352,224,214356,1,0,0:0:0:0:
384,192,215251,1,2,0:0:0:0:
384,192,215699,1,2,0:0:0:0:
384,192,216147,1,2,0:0:0:0:
320,160,216370,1,0,0:0:0:0:
352,160,216594,1,2,0:0:0:0:
288,64,217042,1,4,0:0:0:0:
288,64,217938,1,2,0:0:0:0:
352,128,218833,1,0,0:0:0:0:
192,192,219281,1,2,0:0:0:0:
320,128,219729,1,0,0:0:0:0:
320,192,219953,1,0,0:0:0:0:
352,192,220176,1,2,0:0:0:0:
384,192,220624,1,0,0:0:0:0:
224,160,221520,1,2,0:0:0:0:
384,192,222415,1,0,0:0:0:0:
384,192,222863,1,2,0:0:0:0:
288,224,223311,1,0,0:0:0:0:
352,192,223535,1,0,0:0:0:0:
384,192,223759,1,2,0:0:0:0:
384,192,224206,1,0,0:0:0:0:
224,192,224654,1,2,0:0:0:0:
448,192,224878,1,0,0:0:0:0:
224,96,225102,1,0,0:0:0:0:
320,192,225549,1,2,0:0:0:0:
224,192,225997,1,0,0:0:0:0:
256,160,226669,1,0,0:0:0:0:
288,160,226893,1,2,0:0:0:0:
288,160,227340,1,2,0:0:0:0:
288,160,227788,1,0,0:0:0:0:
288,160,228684,1,0,0:0:0:0:
384,128,229131,1,2,0:0:0:0:
256,192,229579,1,0,0:0:0:0:
288,160,230027,1,2,0:0:0:0:
320,160,230475,1,0,0:0:0:0:
160,96,230699,1,0,0:0:0:0:
288,160,230923,1,2,0:0:0:0:
288,160,231370,1,6,0:0:0:0:
352,128,232266,1,0,0:0:0:0:
352,192,232714,1,2,0:0:0:0:
352,224,233161,1,0,0:0:0:0:
320,160,234057,1,2,0:0:0:0:
352,192,234505,1,0,0:0:0:0:
352,192,234952,1,2,0:0:0:0:
352,192,235848,1,2,0:0:0:0:
352,192,236743,1,0,0:0:0:0:
288,192,237415,1,0,0:0:0:0:
352,192,237639,1,2,0:0:0:0:
256,160,238087,1,2,0:0:0:0:
352,192,238534,1,0,0:0:0:0:
352,192,238982,1,0,0:0:0:0:
352,192,239430,1,2,0:0:0:0:
320,160,240326,1,0,0:0:0:0:
320,160,241221,1,2,0:0:0:0:
256,96,241669,1,0,0:0:0:0:
320,160,242117,1,6,0:0:0:0:
352,160,243012,1,0,0:0:0:0:
256,192,243908,1,2,0:0:0:0:
256,192,244355,1,0,0:0:0:0:
256,192,244803,1,0,0:0:0:0:
320,160,245027,1,2,0:0:0:0:
352,192,245251,1,4,0:0:0:0:
