osu file format v14

[General]
AudioFilename: audio.mp3
AudioLeadIn: 0
PreviewTime: 94862
Countdown: 0
SampleSet: Soft
StackLeniency: 0.6
Mode: 0
LetterboxInBreaks: 0
WidescreenStoryboard: 0

[Editor]
DistanceSpacing: 1
BeatDivisor: 4
GridSize: 4
TimelineZoom: 1.4

[Metadata]
Title:Compass
TitleUnicode:Compass
Artist:Lady Antebellum
ArtistUnicode:Lady Antebellum
Creator:Cheesecake
Version:Normal
Source:
Tags:english country golden deluxe edition syph hikaru rose schoolboy jace
BeatmapID:1684451
BeatmapSetID:667741

[Difficulty]
HPDrainRate:3
CircleSize:3
OverallDifficulty:3
ApproachRate:4
SliderMultiplier:1.8
SliderTickRate:1

[Events]
//Background and Video events
0,0,"compass.jpg",0,0
//Break Periods
2,67612,68492
2,125212,134672
//Storyboard Layer 0 (Background)
//Storyboard Layer 1 (Fail)
//Storyboard Layer 2 (Pass)
//Storyboard Layer 3 (Foreground)
//Storyboard Sound Samples

[TimingPoints]
212,600,4,2,0,70,1,0
9812,-100,4,2,0,40,0,0
29012,-100,4,2,0,50,0,0
37712,-100,4,2,0,70,0,0
38012,-100,4,2,0,70,0,0
38237,-100,4,2,0,5,0,0
38312,-100,4,2,0,70,0,0
38537,-100,4,2,0,5,0,0
38612,-100,4,2,0,70,0,1
56612,-100,4,2,0,70,0,0
57812,-100,4,2,0,60,0,1
58412,-100,4,2,0,60,0,0
69212,-100,4,2,0,70,0,1
69662,-100,4,2,0,5,0,1
69737,-100,4,2,0,5,0,1
69812,-100,4,2,0,50,0,0
86612,-100,4,2,0,50,0,0
95312,-100,4,2,0,50,0,0
95612,-100,4,2,0,70,0,0
95837,-100,4,2,0,5,0,0
95912,-100,4,2,0,70,0,0
96137,-100,4,2,0,5,0,0
96212,-100,4,2,0,70,0,1
114212,-100,4,2,0,70,0,0
115412,-100,4,2,0,60,0,1
116012,-100,4,2,0,60,0,0
125012,-100,4,2,0,40,0,0
134912,-100,4,2,0,70,0,0
136112,-100,4,2,0,70,0,0
136337,-100,4,2,0,5,0,0
136412,-100,4,2,0,70,0,0
136637,-100,4,2,0,5,0,0
136712,-100,4,2,0,70,0,0
136937,-100,4,2,0,5,0,0
137012,-100,4,2,0,70,0,1
155012,-100,4,2,0,70,0,0
156212,-100,4,2,0,60,0,1
156812,-100,4,2,0,60,0,0
165212,631.578947368421,4,2,0,50,1,0
165843,666.666666666667,4,2,0,30,1,0
167151,666.666666666667,4,2,0,30,1,0
167843,600,4,2,0,30,1,0
168403,750,4,2,0,30,1,0
169153,521.739130434783,4,2,0,30,1,0
169685,631.578947368421,4,2,0,30,1,0
170337,750,4,2,0,30,1,0
171087,705.882352941176,4,2,0,30,1,0
171792,750,4,2,0,30,1,0
172522,769.230769230769,4,2,0,30,1,0
173695,769.230769230769,4,2,0,30,1,0

[Colours]
Combo1 : 70,200,100
Combo2 : 225,30,90
Combo3 : 45,120,190
Combo4 : 240,100,10

[HitObjects]
304,112,9812,5,0,3:0:0:0:
275,244,10412,2,0,L|95:253,2,180,0|0|0,3:0|3:0|3:0,0:0:0:0:
376,155,12212,6,0,B|162:85|240:207|25:147,1,360,0|0,3:0|3:0,0:0:0:0:
110,42,14012,1,0,3:0:0:0:
244,27,14612,5,0,3:0:0:0:
373,64,15212,2,0,B|396:127|396:127|370:236,2,180,0|0|0,3:0|3:0|3:0,0:0:0:0:
289,170,17012,6,0,P|201:186|113:166,1,180,0|0,3:0|3:0,0:0:0:0:
45,49,18212,2,0,L|224:74,1,180,0|0,3:0|3:0,0:0:0:0:
355,102,19412,5,0,3:0:0:0:
253,190,20012,2,0,B|149:221|174:168|75:190,2,180,0|0|0,3:0|0:0|3:0,0:0:0:0:
330,235,21512,1,0,0:0:0:0:
411,274,21812,6,0,P|369:265|241:304,1,180,0|0,3:0|3:0,0:0:0:0:
159,342,22712,1,0,0:0:0:0:
82,294,23012,2,0,L|84:113,1,180,0|0,3:0|3:0,0:0:0:0:
166,77,23912,1,0,0:0:0:0:
244,120,24212,5,0,3:0:0:0:
311,236,24812,2,0,L|491:237,2,180,0|0|0,3:0|3:0|3:0,0:0:0:0:
230,128,26612,6,0,P|259:213|245:301,1,180,0|0,3:0|3:0,0:0:0:0:
154,301,27512,1,0,0:0:0:0:
69,268,27812,2,0,L|67:357,2,90,0|0|0,3:0|0:0|3:0,0:0:0:0:
45,181,28712,1,0,0:0:0:0:
55,91,29012,6,0,B|130:105|119:77|168:78|155:106|231:97,2,180,0|0|0,3:0|3:0|3:0,0:0:0:0:
170,229,30812,2,0,P|214:224|255:205,1,90,0|0,3:0|0:0,0:0:0:0:
332,158,31412,6,0,B|426:138|410:175|510:156,2,180,0|0|0,3:0|3:0|3:0,0:0:0:0:
261,273,33212,1,0,3:0:0:0:
131,233,33812,6,0,P|129:185|102:54,2,180,0|0|0,3:0|3:0|3:0,0:0:0:0:
240,312,35612,2,0,P|284:306|327:292,1,90,0|0,3:0|0:0,0:0:0:0:
389,227,36212,6,0,L|397:39,2,180,0|0|0,3:0|3:0|3:0,0:0:0:0:
301,204,37712,2,0,L|305:113,2,90,2|8|2,0:0|0:3|0:0,0:0:0:0:
232,261,38612,6,0,B|132:233|159:275|54:253,1,180,6|10,3:2|3:2,0:0:0:0:
35,212,39362,1,0,0:0:0:0:
21,169,39512,1,0,0:0:0:0:
85,105,39812,2,0,P|80:76|76:14,2,90,2|0|10,3:2|0:0|3:2,0:0:0:0:
168,139,40712,1,2,0:0:0:0:
245,92,41012,6,0,L|336:90,1,90,2|2,3:2|0:0,0:0:0:0:
376,169,41612,2,0,L|467:167,1,90,10|2,3:2|0:0,0:0:0:0:
506,245,42212,1,2,3:2:0:0:
470,327,42512,2,0,L|426:340,1,45,2|0,0:0|0:0,0:0:0:0:
382,347,42812,2,0,P|337:343|294:329,1,90,10|2,3:2|0:0,0:0:0:0:
213,289,43412,6,0,L|123:296,2,90,6|2|10,3:2|0:0|3:2,0:0:0:0:
267,217,44312,1,2,0:0:0:0:
321,145,44612,2,0,L|410:152,1,90,2|2,3:2|0:0,0:0:0:0:
428,193,45062,1,0,0:0:0:0:
446,234,45212,1,10,3:2:0:0:
390,304,45512,1,2,0:2:0:0:
303,330,45812,6,0,B|240:312|240:312|126:333,1,180,0|8,3:0|3:2,0:0:0:0:
41,305,46712,1,0,0:0:0:0:
52,215,47012,2,0,B|40:125,2,90,0|0|10,3:0|0:0|3:2,0:0:0:0:
137,244,47912,1,8,0:3:0:0:
174,219,48062,1,0,0:0:0:0:
211,194,48212,6,0,B|318:155|284:210|398:183,1,180,6|10,3:2|3:2,0:0:0:0:
472,153,49112,2,0,L|451:111,1,45,2|0,0:0|0:0,0:0:0:0:
429,73,49412,2,0,P|333:43|251:60,1,180,2|10,3:2|3:2,0:0:0:0:
190,118,50312,2,0,L|141:141,1,45,2|0,0:0|0:0,0:0:0:0:
109,158,50612,6,0,P|66:163|14:158,1,90,2|2,3:2|0:0,0:0:0:0:
28,248,51212,2,0,P|72:247|116:257,1,90,10|2,3:2|0:0,0:0:0:0:
161,260,51662,1,0,0:0:0:0:
194,229,51812,2,0,P|280:208|359:249,1,180,2|10,3:2|3:2,0:0:0:0:
400,327,52712,1,2,0:0:0:0:
469,270,53012,6,0,L|481:174,2,90,6|2|10,3:2|0:0|3:2,0:0:0:0:
496,355,53912,1,2,0:0:0:0:
406,350,54212,2,0,P|348:344|313:346,1,90,2|2,3:2|0:0,0:0:0:0:
281,317,54662,1,0,0:0:0:0:
247,287,54812,2,0,P|189:293|154:291,1,90,10|2,3:2|0:0,0:0:0:0:
88,233,55412,6,0,L|81:47,1,180,0|8,3:0|3:2,0:0:0:0:
121,32,56162,1,0,0:0:0:0:
164,19,56312,1,0,0:0:0:0:
239,68,56612,2,0,P|281:75|337:70,1,90,2|2,3:2|0:0,0:0:0:0:
368,50,57062,1,0,0:0:0:0:
405,25,57212,2,0,P|447:18|503:23,1,90,10|2,3:2|0:0,0:0:0:0:
481,110,57812,6,0,B|451:209|512:191|478:293,1,180,6|8,3:2|3:2,0:0:0:0:
398,323,58712,1,2,0:0:0:0:
319,278,59012,2,0,P|233:264|150:303,1,180,2|8,3:2|3:2,0:0:0:0:
63,281,59912,1,0,0:0:0:0:
55,236,60062,1,0,0:0:0:0:
46,192,60212,6,0,L|36:99,2,90,0|0|8,3:0|0:0|3:2,0:0:0:0:
134,210,61112,1,0,0:0:0:0:
185,131,61412,2,0,P|203:90|213:40,1,90,2|2,3:2|0:0,0:0:0:0:
302,45,62012,2,0,P|311:88|329:130,1,90,10|2,3:2|0:0,0:0:0:0:
409,169,62612,6,0,P|337:217|259:180,1,180,6|8,3:2|3:2,0:0:0:0:
185,131,63512,1,2,0:0:0:0:
105,173,63812,2,0,L|101:357,1,180,2|8,3:2|3:2,0:0:0:0:
190,365,64712,1,0,0:0:0:0:
228,341,64862,1,0,0:0:0:0:
263,315,65012,6,0,P|300:305|355:304,1,90,0|0,3:0|0:0,0:0:0:0:
436,273,65612,2,0,P|458:233|470:190,1,90,8|0,3:2|0:0,0:0:0:0:
438,106,66212,2,0,L|457:14,2,90,0|0|8,3:0|0:0|3:2,0:0:0:0:
393,108,66962,1,8,0:3:0:0:
348,112,67112,1,0,3:0:0:0:
304,190,67412,5,4,3:0:0:0:
10,201,69812,6,0,P|72:190|184:223,1,180,4|8,3:2|3:2,0:0:0:0:
265,257,70712,1,0,0:0:0:0:
324,189,71012,2,0,L|317:99,2,90,0|0|8,3:0|0:0|3:2,0:0:0:0:
392,248,71912,1,0,0:0:0:0:
461,305,72212,6,0,P|432:338|396:365,1,90,0|0,3:0|0:0,0:0:0:0:
305,359,72812,2,0,L|197:353,1,90,8|0,3:2|0:0,0:0:0:0:
160,282,73412,2,0,P|153:235|152:182,2,90,0|0|8,3:0|0:0|3:2,0:0:0:0:
249,267,74312,1,0,0:0:0:0:
254,177,74612,6,0,P|207:103|121:89,1,180,0|8,3:0|3:2,0:0:0:0:
46,140,75512,1,0,0:0:0:0:
32,229,75812,2,0,L|27:323,2,90,0|0|8,3:0|0:0|3:2,0:0:0:0:
121,221,76712,1,0,0:0:0:0:
202,260,77012,6,0,P|246:260|290:251,1,90,0|0,3:0|0:0,0:0:0:0:
339,175,77612,2,0,L|441:179,1,90,8|0,3:2|0:0,0:0:0:0:
511,215,78212,2,0,P|512:259|503:303,2,90,0|0|8,3:0|0:0|3:2,0:0:0:0:
497,125,79112,1,0,0:0:0:0:
422,74,79412,6,0,B|316:51|343:98|234:73,1,180,0|8,3:0|3:2,0:0:0:0:
155,58,80312,1,0,0:0:0:0:
79,108,80612,2,0,P|69:151|69:196,1,90,0|0,3:0|0:0,0:0:0:0:
113,275,81212,2,0,L|206:273,1,90,8|0,3:2|0:0,0:0:0:0:
291,256,81812,6,0,P|374:284|459:258,1,180,0|8,3:0|3:2,0:0:0:0:
490,173,82712,1,0,0:0:0:0:
422,116,83012,2,0,P|377:108|333:114,1,90,0|0,3:0|0:0,0:0:0:0:
262,169,83612,2,0,P|217:176|173:170,1,90,8|0,3:2|0:0,0:0:0:0:
94,127,84212,6,0,P|67:140|63:281,1,180,0|8,3:0|3:2,0:0:0:0:
143,262,85112,1,0,0:0:0:0:
230,283,85412,2,0,L|329:305,2,90,0|8|8,3:0|3:0|3:2,0:0:0:0:
235,238,86162,1,8,0:0:0:0:
239,193,86312,1,0,3:0:0:0:
307,134,86612,6,0,B|369:145|420:122|420:122|457:123|494:142,2,180,6|0|0,3:2|3:2|3:0,0:0:0:0:
174,109,88412,2,0,P|133:129|90:159,1,90,0|0,3:2|0:0,0:0:0:0:
92,244,89012,6,0,B|126:246|152:230|152:230|207:250|207:250|239:231|274:232,2,180,0|0|0,3:2|3:0|3:0,0:0:0:0:
170,353,90812,2,0,P|211:356|264:343,1,90,0|0,3:0|0:0,0:0:0:0:
331,292,91412,6,0,B|362:263|395:276|443:268|387:264|395:276|465:307|500:292,2,180,0|0|0,3:0|3:0|3:0,0:0:0:0:
196,303,93212,2,0,P|153:314|110:303,1,90,0|2,3:0|0:0,0:0:0:0:
154,224,93812,6,0,L|146:36,2,180,0|0|2,3:0|3:0|0:0,0:0:0:0:
242,201,95312,2,0,L|238:110,2,90,0|8|0,0:0|1:3|0:0,0:0:0:0:
290,276,96212,6,0,B|390:248|363:290|468:268,1,180,4|10,3:2|3:2,0:0:0:0:
476,223,96962,1,0,0:0:0:0:
482,178,97112,1,2,0:0:0:0:
427,105,97412,2,0,P|432:76|436:14,2,90,2|2|8,3:2|0:0|3:2,0:0:0:0:
344,139,98312,1,2,0:0:0:0:
267,92,98612,6,0,L|176:90,1,90,2|2,3:2|0:0,0:0:0:0:
136,169,99212,2,0,L|45:167,1,90,10|2,3:2|0:0,0:0:0:0:
6,245,99812,1,2,3:2:0:0:
42,327,100112,2,0,L|85:338,1,45,2|0,0:0|0:0,0:0:0:0:
130,347,100412,2,0,P|175:343|218:329,1,90,10|2,3:2|0:0,0:0:0:0:
299,289,101012,6,0,L|389:296,2,90,6|2|10,3:2|0:0|3:2,0:0:0:0:
245,217,101912,1,2,0:0:0:0:
191,145,102212,2,0,L|102:152,1,90,2|2,3:2|0:0,0:0:0:0:
84,193,102662,1,0,0:0:0:0:
66,234,102812,1,10,3:2:0:0:
122,304,103112,1,2,0:0:0:0:
209,330,103412,6,0,B|272:312|272:312|386:333,1,180,0|8,3:2|3:2,0:0:0:0:
471,305,104312,1,0,0:0:0:0:
460,215,104612,2,0,B|472:125,2,90,0|0|10,3:2|0:0|3:2,0:0:0:0:
375,244,105512,1,2,0:0:0:0:
338,219,105662,1,0,0:0:0:0:
301,194,105812,6,0,B|194:155|228:210|114:183,1,180,6|10,3:2|3:2,0:0:0:0:
40,153,106712,2,0,L|61:107,1,45,2|0,0:0|0:0,0:0:0:0:
83,73,107012,2,0,P|179:43|261:60,1,180,2|10,3:2|3:2,0:0:0:0:
325,114,107912,2,0,L|366:137,1,45,2|0,0:0|0:0,0:0:0:0:
400,164,108212,6,0,P|451:167|495:164,1,90,2|2,3:2|0:0,0:0:0:0:
473,253,108812,2,0,P|428:251|378:253,1,90,10|2,3:2|0:0,0:0:0:0:
338,237,109262,1,0,0:0:0:0:
300,214,109412,2,0,P|214:193|135:234,1,180,2|10,3:2|3:2,0:0:0:0:
116,322,110312,1,2,0:0:0:0:
43,270,110612,6,0,L|31:174,2,90,6|2|10,3:2|0:0|3:2,0:0:0:0:
16,355,111512,1,2,0:0:0:0:
106,350,111812,2,0,P|164:344|199:346,1,90,2|2,3:2|0:0,0:0:0:0:
231,317,112262,1,0,0:0:0:0:
265,287,112412,2,0,P|323:293|358:291,1,90,10|2,3:2|0:0,0:0:0:0:
424,233,113012,6,0,L|431:47,1,180,0|8,3:2|3:2,0:0:0:0:
391,32,113762,1,0,0:0:0:0:
348,19,113912,1,0,0:0:0:0:
273,68,114212,2,0,P|231:75|175:70,1,90,0|8,3:2|0:0,0:0:0:0:
144,50,114662,1,0,0:0:0:0:
107,25,114812,2,0,P|65:18|9:23,1,90,8|4,3:2|0:3,0:0:0:0:
31,110,115412,6,0,B|61:209|0:191|34:293,1,180,4|8,3:2|3:2,0:0:0:0:
114,323,116312,1,2,0:0:0:0:
193,278,116612,2,0,P|279:264|362:303,1,180,2|8,3:2|3:2,0:0:0:0:
449,281,117512,1,0,0:0:0:0:
457,236,117662,1,0,0:0:0:0:
466,192,117812,6,0,L|476:99,2,90,0|0|8,3:2|0:0|3:2,0:0:0:0:
378,210,118712,1,0,0:0:0:0:
327,131,119012,2,0,P|309:90|299:40,1,90,2|2,3:2|0:0,0:0:0:0:
210,45,119612,2,0,P|201:88|183:130,1,90,10|2,3:2|0:0,0:0:0:0:
103,169,120212,6,0,P|175:217|253:180,1,180,4|8,3:2|3:2,0:0:0:0:
327,131,121112,1,2,0:0:0:0:
407,173,121412,2,0,L|411:357,1,180,2|8,3:2|3:2,0:0:0:0:
322,365,122312,1,0,0:0:0:0:
284,341,122462,1,0,0:0:0:0:
249,315,122612,6,0,P|212:305|157:304,1,90,0|0,3:2|0:0,0:0:0:0:
76,273,123212,2,0,P|54:233|42:190,1,90,8|0,3:2|0:0,0:0:0:0:
74,106,123812,2,0,L|55:14,2,90,0|0|8,3:2|0:0|3:2,0:0:0:0:
164,112,124712,1,2,0:0:0:0:
253,116,125012,5,4,3:2:0:0:
216,192,136112,6,0,L|207:281,2,90,2|8|2,0:0|0:3|0:0,0:0:0:0:
229,101,137012,6,0,P|308:64|394:85,1,180,4|10,3:2|3:2,0:0:0:0:
419,123,137762,1,0,0:0:0:0:
439,163,137912,1,2,0:0:0:0:
482,240,138212,2,0,B|388:274|399:221|304:241,1,180,2|10,3:2|3:2,0:0:0:0:
265,261,138962,1,0,0:0:0:0:
227,286,139112,1,2,0:2:0:0:
187,205,139412,6,0,P|182:161|184:111,1,90,2|2,3:2|0:0,0:0:0:0:
109,64,140012,2,0,P|95:107|89:151,1,90,10|2,3:2|0:0,0:0:0:0:
92,196,140462,1,0,0:0:0:0:
101,240,140612,2,0,L|107:343,2,90,2|2|10,3:2|0:0|3:2,0:0:0:0:
12,226,141512,1,2,0:0:0:0:
2,136,141812,6,0,P|-3:91|-1:46,2,90,6|2|10,3:2|0:0|3:2,0:0:0:0:
89,151,142712,1,2,0:0:0:0:
165,103,143012,2,0,P|209:97|254:99,1,90,2|2,3:2|0:0,0:0:0:0:
296,116,143462,1,0,0:0:0:0:
337,136,143612,1,10,3:2:0:0:
364,221,143912,1,2,0:0:0:0:
324,301,144212,6,0,P|229:280|143:318,1,180,0|8,3:2|3:2,0:0:0:0:
79,358,145112,1,2,0:0:0:0:
47,273,145412,2,0,L|44:167,1,90,8|2,1:2|1:2,0:0:0:0:
89,188,145862,1,2,0:0:0:0:
134,191,146012,2,0,L|137:85,1,90,10|4,1:2|3:0,0:0:0:0:
169,70,146462,1,0,1:0:0:0:
203,40,146612,6,0,B|310:13|284:73|379:41,1,180,6|8,3:2|3:2,0:0:0:0:
468,33,147512,1,2,0:0:0:0:
510,112,147812,2,0,P|529:177|494:283,1,180,2|10,3:2|3:2,0:0:0:0:
413,318,148712,1,2,0:0:0:0:
368,324,148862,1,0,0:0:0:0:
323,329,149012,6,0,L|232:332,1,90,6|2,1:3|1:3,0:0:0:0:
248,243,149612,2,0,L|157:240,1,90,14|2,1:2|1:3,0:0:0:0:
153,150,150212,2,0,B|229:170|213:137|269:137|249:170|329:150,1,180,2|10,3:2|3:2,0:0:0:0:
372,134,150962,1,0,0:0:0:0:
414,117,151112,1,2,0:0:0:0:
423,27,151412,6,0,P|480:33|525:22,2,90,6|2|10,3:2|0:0|3:2,0:0:0:0:
333,15,152312,1,2,0:0:0:0:
248,45,152612,2,0,P|203:54|143:55,1,90,2|2,3:2|0:0,0:0:0:0:
115,67,153062,1,0,0:0:0:0:
71,76,153212,2,0,P|62:120|60:164,1,90,10|2,3:2|0:0,0:0:0:0:
87,250,153812,6,0,P|181:239|260:265,1,180,0|8,3:2|3:2,0:0:0:0:
325,327,154712,1,0,0:0:0:0:
384,259,155012,2,0,L|389:166,1,90,6|10,1:2|0:0,0:0:0:0:
433,175,155462,1,2,0:0:0:0:
478,178,155612,2,0,L|473:85,1,90,14|4,3:2|3:0,0:0:0:0:
435,64,156062,1,0,0:0:0:0:
394,44,156212,6,0,P|370:67|231:58,1,180,4|8,3:2|3:2,0:0:0:0:
147,32,157112,1,2,0:0:0:0:
70,79,157412,2,0,L|65:262,1,180,2|10,3:2|3:2,0:0:0:0:
137,312,158312,1,0,0:0:0:0:
176,334,158462,1,0,0:0:0:0:
219,348,158612,6,0,L|317:330,2,90,0|0|8,3:2|0:0|3:2,0:0:0:0:
218,257,159512,1,0,0:0:0:0:
253,174,159812,2,0,P|298:162|351:168,1,90,2|2,3:2|0:0,0:0:0:0:
416,213,160412,2,0,P|461:225|514:219,1,90,10|2,3:2|0:0,0:0:0:0:
485,133,161012,6,0,P|407:88|318:81,1,180,6|10,3:2|3:2,0:0:0:0:
239,125,161912,1,2,0:0:0:0:
149,123,162212,2,0,L|165:307,1,180,2|10,3:2|3:2,0:0:0:0:
254,304,163112,1,0,0:0:0:0:
298,306,163262,1,0,0:0:0:0:
343,305,163412,6,0,P|391:293|428:266,1,90,0|0,3:2|0:0,0:0:0:0:
423,180,164012,2,0,P|385:155|342:145,1,90,8|0,3:2|0:0,0:0:0:0:
252,144,164612,2,0,L|161:153,2,90,0|0|10,3:2|0:0|3:2,0:0:0:0:
295,64,165527,6,0,P|338:54|382:59,1,90,2|6,0:0|3:2,0:0:0:0:
