osu file format v14

[General]
AudioFilename: audio.mp3
AudioLeadIn: 0
PreviewTime: 94862
Countdown: 0
SampleSet: Soft
StackLeniency: 0.6
Mode: 0
LetterboxInBreaks: 0
WidescreenStoryboard: 0

[Editor]
DistanceSpacing: 0.8
BeatDivisor: 4
GridSize: 4
TimelineZoom: 1.4

[Metadata]
Title:Compass
TitleUnicode:Compass
Artist:Lady Antebellum
ArtistUnicode:Lady Antebellum
Creator:Cheesecake
Version:Easy
Source:
Tags:english country golden deluxe edition syph hikaru rose schoolboy jace
BeatmapID:1710939
BeatmapSetID:667741

[Difficulty]
HPDrainRate:2
CircleSize:2.5
OverallDifficulty:2
ApproachRate:2
SliderMultiplier:1.4
SliderTickRate:1

[Events]
//Background and Video events
0,0,"compass.jpg",0,0
//Break Periods
2,125212,134552
//Storyboard Layer 0 (Background)
//Storyboard Layer 1 (Fail)
//Storyboard Layer 2 (Pass)
//Storyboard Layer 3 (Foreground)
//Storyboard Sound Samples

[TimingPoints]
212,600,4,2,0,70,1,0
9812,-100,4,2,0,40,0,0
29012,-100,4,2,0,50,0,0
37712,-100,4,2,0,70,0,0
38012,-100,4,2,0,70,0,0
38237,-100,4,2,0,5,0,0
38312,-100,4,2,0,70,0,0
38537,-100,4,2,0,5,0,0
38612,-100,4,2,0,70,0,1
56612,-100,4,2,0,70,0,0
57812,-100,4,2,0,60,0,1
58412,-100,4,2,0,60,0,0
69212,-100,4,2,0,70,0,1
69662,-100,4,2,0,5,0,1
69737,-100,4,2,0,5,0,1
69812,-100,4,2,0,50,0,0
86612,-100,4,2,0,50,0,0
95312,-100,4,2,0,50,0,0
95612,-100,4,2,0,70,0,0
95837,-100,4,2,0,5,0,0
95912,-100,4,2,0,70,0,0
96137,-100,4,2,0,5,0,0
96212,-100,4,2,0,70,0,1
114212,-100,4,2,0,70,0,0
115412,-100,4,2,0,60,0,1
116012,-100,4,2,0,60,0,0
125012,-100,4,2,0,40,0,0
134912,-100,4,2,0,70,0,0
136112,-100,4,2,0,70,0,0
136337,-100,4,2,0,5,0,0
136412,-100,4,2,0,70,0,0
136637,-100,4,2,0,5,0,0
136712,-100,4,2,0,70,0,0
136937,-100,4,2,0,5,0,0
137012,-100,4,2,0,70,0,1
155012,-100,4,2,0,70,0,0
156212,-100,4,2,0,60,0,1
156812,-100,4,2,0,60,0,0
165212,631.578947368421,4,2,0,50,1,0
165843,666.666666666667,4,2,0,30,1,0
167151,666.666666666667,4,2,0,30,1,0
167843,600,4,2,0,30,1,0
168403,750,4,2,0,30,1,0
169153,521.739130434783,4,2,0,30,1,0
169685,631.578947368421,4,2,0,30,1,0
170337,750,4,2,0,30,1,0
171087,705.882352941176,4,2,0,30,1,0
171792,750,4,2,0,30,1,0
172522,769.230769230769,4,2,0,30,1,0
173695,769.230769230769,4,2,0,30,1,0

[Colours]
Combo1 : 70,200,100
Combo2 : 225,30,90
Combo3 : 45,120,190
Combo4 : 240,100,10

[HitObjects]
355,234,9812,6,0,P|424:235|489:210,1,140,0|0,3:0|3:0,0:0:0:0:
462,100,11012,2,0,P|392:98|327:123,1,140,0|0,3:0|3:0,0:0:0:0:
273,221,12212,2,0,B|92:170|175:252|-2:211,1,280,0|0,3:0|3:0,0:0:0:0:
24,320,14012,1,0,3:0:0:0:
134,337,14612,6,0,L|279:354,2,140,0|0|0,3:0|3:0|3:0,0:0:0:0:
105,228,16412,1,0,3:0:0:0:
123,117,17012,2,0,P|180:104|279:119,1,140,0|0,3:0|3:0,0:0:0:0:
319,207,18212,2,0,P|376:220|475:205,1,140,0|0,3:0|3:0,0:0:0:0:
503,109,19412,5,0,3:0:0:0:
410,46,20012,2,0,L|261:53,2,140,0|0|0,3:0|3:0|3:0,0:0:0:0:
503,109,21812,2,0,P|506:179|482:244,1,140,0|0,3:0|3:0,0:0:0:0:
390,308,23012,2,0,L|241:310,1,140,0|0,3:0|3:0,0:0:0:0:
137,307,24212,5,0,3:0:0:0:
137,195,24812,2,0,P|67:194|0:211,2,140,0|0|0,3:0|3:0|3:0,0:0:0:0:
137,307,26612,2,0,P|275:322|409:284,1,280,0|0,3:0|3:0,0:0:0:0:
468,188,28412,2,0,L|462:112,1,70,0|0,3:0|0:0,0:0:0:0:
454,62,29012,6,0,B|273:11|356:93|179:52,1,280,0|0,3:0|3:0,0:0:0:0:
67,54,30812,2,0,P|33:64|3:82,1,70,0|0,3:0|0:0,0:0:0:0:
2,137,31412,2,0,B|-15:202|20:274|20:274|92:247|171:267,1,280,0|0,3:0|3:0,0:0:0:0:
266,282,33212,1,0,3:0:0:0:
330,190,33812,6,0,L|321:46,2,140,0|0|0,3:0|3:0|3:0,0:0:0:0:
413,264,35612,2,0,P|416:298|411:338,1,70,0|0,3:0|0:0,0:0:0:0:
357,348,36212,2,0,P|304:351|208:333,1,140,0|0,3:0|3:0,0:0:0:0:
89,228,37712,2,0,L|12:241,2,70,2|8|2,0:0|0:3|0:0,0:0:0:0:
134,194,38612,6,0,P|198:169|268:169,1,140,6|10,3:2|3:2,0:0:0:0:
352,243,39812,2,0,P|416:268|486:268,1,140,2|10,3:2|3:2,0:0:0:0:
498,213,40712,1,2,0:0:0:0:
504,157,41012,2,0,L|510:80,1,70,2|2,3:2|0:0,0:0:0:0:
471,46,41612,2,0,P|435:39|394:40,1,70,10|2,3:2|0:0,0:0:0:0:
357,73,42212,1,2,3:2:0:0:
272,146,42812,2,0,L|270:218,1,70,10|2,3:2|0:0,0:0:0:0:
311,253,43412,6,0,P|346:249|387:251,2,70,6|2|10,3:2|0:0|3:2,0:0:0:0:
284,302,44312,1,2,0:0:0:0:
234,328,44612,2,0,P|199:332|158:330,1,70,2|2,3:2|0:0,0:0:0:0:
123,292,45212,2,0,L|116:222,1,70,10|2,3:2|0:2,0:0:0:0:
111,166,45812,2,0,B|228:144|211:187|288:186|267:142|386:156,1,280,0|0,3:0|3:0,0:0:0:0:
443,253,47612,2,0,P|446:296|442:326,1,70,10|8,3:2|0:3,0:0:0:0:
389,340,48212,6,0,P|320:327|251:336,1,140,6|10,3:2|3:2,0:0:0:0:
196,350,49112,1,2,0:0:0:0:
141,362,49412,2,0,P|71:371|3:358,1,140,2|10,3:2|3:2,0:0:0:0:
2,301,50312,1,2,0:0:0:0:
3,245,50612,2,0,P|5:210|17:177,1,70,2|2,3:2|0:0,0:0:0:0:
58,140,51212,2,0,P|92:137|125:125,1,70,10|2,3:2|0:0,0:0:0:0:
172,94,51812,1,2,3:2:0:0:
259,23,52412,2,0,P|293:25|326:37,1,70,10|2,3:2|0:0,0:0:0:0:
366,78,53012,6,0,L|435:69,2,70,6|2|10,3:2|0:0|3:2,0:0:0:0:
355,133,53912,1,2,0:0:0:0:
337,186,54212,2,0,L|268:194,2,70,2|2|10,3:2|0:0|3:2,0:0:0:0:
351,240,55112,1,2,0:0:0:0:
325,289,55412,2,0,P|266:300|175:279,1,140,0|8,3:0|3:2,0:0:0:0:
86,239,56612,2,0,L|92:151,1,70,2|2,3:2|0:0,0:0:0:0:
129,128,57212,2,0,L|135:40,1,70,10|2,3:2|0:0,0:0:0:0:
178,24,57812,6,0,P|243:50|313:46,1,140,6|8,3:2|3:2,0:0:0:0:
365,27,58712,1,2,0:0:0:0:
415,3,59012,2,0,L|409:153,1,140,2|8,3:2|3:2,0:0:0:0:
349,237,60212,2,0,P|279:233|214:258,1,140,0|8,3:0|3:2,0:0:0:0:
169,292,61112,1,0,0:0:0:0:
114,279,61412,2,0,L|97:209,2,70,2|2|10,3:2|0:0|3:2,0:0:0:0:
79,323,62312,1,2,0:0:0:0:
24,308,62612,6,0,P|-3:250|14:163,1,140,6|8,3:2|3:2,0:0:0:0:
33,126,63512,1,2,0:0:0:0:
76,91,63812,2,0,P|144:101|207:73,1,140,2|8,3:2|3:2,0:0:0:0:
302,14,65012,2,0,L|299:153,1,140,0|8,3:0|3:2,0:0:0:0:
349,179,65912,1,0,0:0:0:0:
398,205,66212,2,0,P|438:210|472:208,1,70,0|0,3:0|0:0,0:0:0:0:
506,168,66812,2,0,L|503:90,1,70,8|0,3:2|3:0,0:0:0:0:
499,42,67412,5,4,3:0:0:0:
165,317,69812,6,0,L|161:156,1,140,4|8,3:2|3:2,0:0:0:0:
162,120,70712,1,0,0:0:0:0:
184,69,71012,2,0,P|228:63|257:65,1,70,0|0,3:0|0:0,0:0:0:0:
303,90,71612,2,0,P|347:96|376:94,1,70,8|0,3:2|0:0,0:0:0:0:
427,81,72212,1,0,3:0:0:0:
436,192,72812,2,0,L|441:267,2,70,8|0|0,3:2|0:0|3:0,0:0:0:0:
380,186,73712,1,0,0:0:0:0:
324,191,74012,2,0,P|289:196|257:210,1,70,8|0,3:2|0:0,0:0:0:0:
213,244,74612,6,0,P|149:216|79:217,1,140,0|8,3:0|3:2,0:0:0:0:
44,261,75512,1,0,0:0:0:0:
53,316,75812,2,0,P|116:343|186:342,1,140,0|8,3:0|3:2,0:0:0:0:
240,327,76712,1,0,0:0:0:0:
290,301,77012,2,0,P|329:292|367:292,1,70,0|0,3:0|0:0,0:0:0:0:
413,303,77612,2,0,L|418:130,2,140,8|0|8,3:2|3:0|3:2,0:0:0:0:
466,319,79112,1,0,0:0:0:0:
508,282,79412,6,0,L|513:109,1,140,0|8,3:0|3:2,0:0:0:0:
434,60,80612,2,0,P|399:54|364:58,1,70,0|0,3:0|0:0,0:0:0:0:
321,93,81212,2,0,P|286:98|251:94,1,70,8|0,3:2|0:0,0:0:0:0:
197,80,81812,2,0,P|151:140|153:208,1,140,0|8,3:0|3:2,0:0:0:0:
183,247,82712,1,0,0:0:0:0:
183,302,83012,2,0,L|101:314,2,70,0|0|8,3:0|0:0|3:2,0:0:0:0:
235,321,83912,1,0,0:0:0:0:
287,339,84212,6,0,P|359:338|431:317,1,140,0|8,3:0|3:2,0:0:0:0:
453,272,85112,1,0,0:0:0:0:
468,218,85412,2,0,P|472:183|469:148,1,70,0|8,3:0|3:0,0:0:0:0:
424,114,86012,2,0,L|428:38,1,70,8|0,3:2|3:0,0:0:0:0:
372,32,86612,6,0,B|309:60|257:19|216:19|216:37|257:37|257:54|216:54|158:13|100:40,1,280,6|0,3:2|3:0,0:0:0:0:
66,147,88412,2,0,P|100:151|141:149,1,70,0|0,3:2|0:0,0:0:0:0:
190,138,89012,2,0,B|377:119|281:185|462:175,1,280,0|0,3:2|3:0,0:0:0:0:
477,287,90812,1,0,3:0:0:0:
365,279,91412,6,0,P|298:284|221:316,2,140,0|0|0,3:0|3:0|3:0,0:0:0:0:
477,287,93212,2,0,P|486:241|485:207,1,70,0|2,3:0|0:0,0:0:0:0:
462,167,93812,2,0,P|456:126|478:18,1,140,0|0,3:0|3:0,0:0:0:0:
349,143,95312,2,0,L|357:225,2,70,0|8|0,0:0|1:3|0:0,0:0:0:0:
299,117,96212,6,0,P|235:142|165:142,1,140,4|10,3:2|3:2,0:0:0:0:
86,222,97412,2,0,P|150:247|220:247,1,140,2|8,3:2|3:2,0:0:0:0:
267,216,98312,1,2,0:0:0:0:
313,184,98612,2,0,L|390:178,1,70,2|2,3:2|0:0,0:0:0:0:
430,208,99212,2,0,P|437:243|436:285,1,70,10|2,3:2|0:0,0:0:0:0:
401,320,99812,1,2,3:2:0:0:
291,342,100412,2,0,L|219:340,1,70,10|2,3:2|0:0,0:0:0:0:
198,288,101012,6,0,P|163:292|122:290,2,70,6|2|10,3:2|0:0|3:2,0:0:0:0:
234,245,101912,1,2,0:0:0:0:
286,226,102212,2,0,P|321:222|362:224,1,70,2|2,3:2|0:0,0:0:0:0:
402,191,102812,2,0,L|409:121,1,70,10|2,3:2|0:0,0:0:0:0:
416,65,103412,2,0,B|299:43|316:86|239:85|260:41|141:55,1,280,0|0,3:2|3:2,0:0:0:0:
61,135,105212,2,0,P|58:178|62:208,1,70,10|2,3:2|0:0,0:0:0:0:
72,259,105812,6,0,P|141:246|210:255,1,140,6|10,3:2|3:2,0:0:0:0:
255,287,106712,1,2,0:0:0:0:
304,312,107012,2,0,P|374:321|442:308,1,140,2|10,3:2|3:2,0:0:0:0:
477,265,107912,1,2,0:0:0:0:
482,209,108212,2,0,P|480:174|468:141,1,70,2|2,3:2|0:0,0:0:0:0:
430,100,108812,2,0,P|396:97|363:85,1,70,10|2,3:2|0:0,0:0:0:0:
316,55,109412,1,2,3:2:0:0:
205,38,110012,2,0,P|171:40|138:52,1,70,10|2,3:2|0:0,0:0:0:0:
96,90,110612,6,0,L|27:81,2,70,6|2|10,3:2|0:0|3:2,0:0:0:0:
107,145,111512,1,2,0:0:0:0:
96,199,111812,2,0,L|27:207,2,70,2|2|10,3:2|0:0|3:2,0:0:0:0:
107,254,112712,1,2,0:0:0:0:
137,301,113012,2,0,P|196:312|287:291,1,140,0|8,3:2|3:2,0:0:0:0:
379,259,114212,2,0,L|373:171,1,70,0|8,3:2|0:0,0:0:0:0:
336,148,114812,2,0,L|330:60,1,70,8|4,3:2|0:3,0:0:0:0:
320,23,115412,6,0,P|255:49|185:45,1,140,4|8,3:2|3:2,0:0:0:0:
131,33,116312,1,2,0:0:0:0:
76,21,116612,2,0,L|82:171,1,140,2|8,3:2|3:2,0:0:0:0:
167,232,117812,2,0,P|237:228|302:253,1,140,0|8,3:2|3:2,0:0:0:0:
341,292,118712,1,0,0:0:0:0:
395,280,119012,2,0,L|412:210,2,70,2|2|10,3:2|0:0|3:2,0:0:0:0:
432,321,119912,1,2,0:0:0:0:
486,308,120212,6,0,P|513:250|496:163,1,140,4|8,3:2|3:2,0:0:0:0:
480,125,121112,1,2,0:0:0:0:
436,91,121412,2,0,P|368:101|305:73,1,140,2|8,3:2|3:2,0:0:0:0:
203,26,122612,2,0,L|206:165,1,140,0|8,3:2|3:2,0:0:0:0:
154,188,123512,1,0,0:0:0:0:
102,211,123812,2,0,P|62:216|28:214,1,70,0|0,3:2|0:0,0:0:0:0:
7,165,124412,2,0,L|10:87,2,70,8|2|4,3:2|0:0|3:2,0:0:0:0:
180,127,136112,6,0,B|145:132|145:132|106:129,2,70,2|8|2,0:0|0:3|0:0,0:0:0:0:
227,99,137012,6,0,P|296:84|365:92,1,140,4|10,3:2|3:2,0:0:0:0:
365,204,138212,2,0,P|295:211|227:197,1,140,2|10,3:2|3:2,0:0:0:0:
176,173,139112,1,2,0:2:0:0:
119,177,139412,2,0,P|108:209|107:244,1,70,2|2,3:2|0:0,0:0:0:0:
129,296,140012,2,0,P|151:322|181:340,1,70,10|2,3:2|0:0,0:0:0:0:
237,343,140612,1,2,3:2:0:0:
334,290,141212,2,0,P|340:255|341:220,1,70,10|2,3:2|0:0,0:0:0:0:
325,166,141812,6,0,L|255:173,2,70,6|2|10,3:2|0:0|3:2,0:0:0:0:
364,126,142712,1,2,0:0:0:0:
409,93,143012,2,0,P|443:93|479:99,1,70,2|2,3:2|0:0,0:0:0:0:
509,145,143612,2,0,P|509:179|503:215,1,70,10|2,3:2|0:0,0:0:0:0:
489,268,144212,2,0,B|426:240|374:281|374:272|333:263|374:263|374:246|333:263|275:287|213:260,1,280,0|8,3:2|1:2,0:0:0:0:
167,227,145712,1,2,1:2:0:0:
131,183,146012,2,0,L|130:113,1,70,10|4,1:2|3:0,0:0:0:0:
145,58,146612,6,0,P|214:51|283:61,1,140,6|8,3:2|3:2,0:0:0:0:
323,100,147512,1,2,0:0:0:0:
375,81,147812,2,0,P|444:83|511:102,1,140,2|10,3:2|3:2,0:0:0:0:
509,158,148712,1,2,0:0:0:0:
505,213,149012,2,0,L|436:224,1,70,6|2,1:3|1:3,0:0:0:0:
427,280,149612,2,0,L|358:291,1,70,14|2,1:2|1:3,0:0:0:0:
302,301,150212,1,2,3:2:0:0:
199,255,150812,2,0,P|164:258|129:253,1,70,10|2,3:2|0:0,0:0:0:0:
103,203,151412,6,0,L|32:209,2,70,6|2|10,3:2|0:0|3:2,0:0:0:0:
133,155,152312,1,2,0:0:0:0:
110,103,152612,2,0,L|39:97,2,70,2|2|10,3:2|0:0|3:2,0:0:0:0:
140,55,153512,1,2,0:0:0:0:
190,33,153812,2,0,P|259:22|328:36,1,140,0|8,3:2|3:2,0:0:0:0:
378,61,154712,1,0,0:0:0:0:
415,102,155012,2,0,L|410:177,1,70,6|10,1:2|0:0,0:0:0:0:
442,217,155612,2,0,L|437:292,1,70,14|4,3:2|3:0,0:0:0:0:
397,324,156212,6,0,P|332:298|262:302,1,140,4|8,3:2|3:2,0:0:0:0:
208,314,157112,1,2,0:0:0:0:
153,326,157412,2,0,L|159:176,1,140,2|10,3:2|3:2,0:0:0:0:
240,109,158612,2,0,P|310:105|375:130,1,140,0|8,3:2|3:2,0:0:0:0:
406,175,159512,1,0,0:0:0:0:
433,223,159812,2,0,L|513:219,2,70,2|2|10,3:2|0:0|3:2,0:0:0:0:
412,275,160712,1,2,0:0:0:0:
372,315,161012,6,0,P|303:325|240:297,1,140,6|10,3:2|3:2,0:0:0:0:
202,255,161912,1,2,0:0:0:0:
163,214,162212,2,0,P|95:204|32:232,1,140,2|10,3:2|3:2,0:0:0:0:
10,342,163412,2,0,L|154:352,1,140,0|8,3:2|3:2,0:0:0:0:
205,354,164312,1,0,0:0:0:0:
260,348,164612,2,0,P|265:308|263:274,1,70,0|0,3:2|0:0,0:0:0:0:
236,232,165212,6,0,P|230:187|230:140,2,70,10|2|6,3:2|0:0|3:2,0:0:0:0:
