osu file format v14

[General]
AudioFilename: audio.mp3
AudioLeadIn: 0
PreviewTime: 51801
Countdown: 0
SampleSet: Drum
StackLeniency: 0.7
Mode: 3
LetterboxInBreaks: 0
SpecialStyle: 0
WidescreenStoryboard: 0

[Editor]
Bookmarks: 601,7001,13401,26201,39001,51801,64601,77401,90201,103001,115801,128601,141401,154201,167001
DistanceSpacing: 1
BeatDivisor: 4
GridSize: 4
TimelineZoom: 1.9

[Metadata]
Title:Sweet Dreams
TitleUnicode:Sweet Dreams
Artist:La priere
ArtistUnicode:La prière
Creator:Drum-Hitnormal
Version:Nightmare
Source:
Tags:棗いつき Natsume Itsuki 藍月なくる Aitsuki Nakuru nayuta PRIDASK Japanese pop j-pop jpop dudehacker
BeatmapID:4031301
BeatmapSetID:1947915

[Difficulty]
HPDrainRate:8
CircleSize:4
OverallDifficulty:8
ApproachRate:5
SliderMultiplier:1.4
SliderTickRate:1

[Events]
//Background and Video events
0,0,"bg.jpg",0,0
Video,0,"sweet dreams.mp4"
//Break Periods
//Storyboard Layer 0 (Background)
//Storyboard Layer 1 (Fail)
//Storyboard Layer 2 (Pass)
//Storyboard Layer 3 (Foreground)
//Storyboard Layer 4 (Overlay)
//Storyboard Sound Samples

[TimingPoints]
601,400,4,2,1,40,1,0
7001,-100,4,3,1,70,0,0
51801,-100,4,3,1,70,0,1
77401,-100,4,3,1,70,0,0
103401,-100,4,2,1,40,0,0
115801,-100,4,3,1,50,0,0
128601,-100,4,3,1,70,0,0
141401,-100,4,3,1,70,0,1
167001,-100,4,3,1,70,0,0
167401,-100,4,2,1,40,0,0

[HitObjects]
64,192,601,128,0,1801:0:0:0:0:
192,192,601,1,0,0:0:0:0:
320,192,1001,1,0,0:0:0:0:
448,192,1401,1,0,0:0:0:0:
320,192,1801,1,0,0:0:0:0:
448,192,1801,128,0,3801:0:0:0:0:
192,192,2201,1,0,0:0:0:0:
64,192,2601,1,0,0:0:0:0:
320,192,3001,1,0,0:0:0:0:
320,192,3401,1,0,0:0:0:0:
64,192,3801,128,0,5001:0:0:0:0:
192,192,3801,1,0,0:0:0:0:
320,192,4201,1,0,0:0:0:0:
448,192,4601,1,0,0:0:0:0:
192,192,5001,128,0,7001:0:0:0:0:
320,192,5001,1,0,0:0:0:0:
64,192,5401,1,0,0:0:0:0:
448,192,5801,1,0,0:0:0:0:
320,192,6201,1,0,0:0:0:0:
320,192,6601,1,0,0:0:0:0:
64,192,7001,128,2,7201:0:0:0:0:
320,192,7001,128,4,8201:0:0:0:0:
448,192,7001,1,0,0:0:0:0:
192,192,7401,128,0,7601:0:0:0:0:
448,192,7801,128,8,8001:0:0:0:0:
64,192,7801,1,0,0:0:0:0:
64,192,8201,128,0,9401:0:0:0:0:
192,192,8201,128,0,8401:0:0:0:0:
448,192,8601,128,0,8801:0:0:0:0:
320,192,9001,128,0,9201:0:0:0:0:
192,192,9401,128,8,9601:0:0:0:0:
448,192,9401,1,0,0:0:0:0:
192,192,9801,128,0,10001:0:0:0:0:
64,192,10001,1,0,0:0:0:0:
320,192,10201,128,0,10401:0:0:0:0:
448,192,10201,128,0,11401:0:0:0:0:
64,192,10601,128,0,10801:0:0:0:0:
192,192,11001,128,8,11201:0:0:0:0:
320,192,11001,1,0,0:0:0:0:
64,192,11401,128,0,12801:0:0:0:0:
320,192,11401,128,0,11601:0:0:0:0:
320,192,11801,1,0,0:0:0:70:LR_Drum Rpd x2.wav
448,192,11801,128,0,12001:0:0:0:0:
192,192,12201,128,0,12401:0:0:0:70:LR_Drum Rpd x2.wav
448,192,12201,1,0,0:0:0:0:
192,192,12601,1,0,0:0:0:70:LR_Drum Rpd x2.wav
320,192,12601,128,0,12801:0:0:0:0:
448,192,12801,1,0,0:0:0:70:LR_Drum Rpd vFast.wav
192,192,12867,1,0,0:0:0:70:LR_Drum Rpd vFast.wav
320,192,12934,1,0,0:0:0:70:LR_Drum Rpd vFast.wav
64,192,13001,1,0,0:0:0:70:LR_Drum Rpd vFast.wav
448,192,13001,1,0,0:0:0:0:
64,192,13401,1,2,0:0:0:0:
448,192,13401,1,4,0:0:0:0:
192,192,13401,1,0,0:0:0:0:
64,192,13601,1,2,0:0:0:0:
448,192,13601,1,0,0:0:0:0:
64,192,13801,1,2,0:0:0:0:
448,192,13801,1,0,0:0:0:0:
320,192,14001,1,0,0:0:0:0:
64,192,14201,1,8,0:0:0:0:
192,192,14201,1,0,0:0:0:0:
320,192,14401,1,0,0:0:0:0:
64,192,14601,1,0,0:0:0:0:
448,192,14601,1,0,0:0:0:0:
192,192,14801,1,0,0:0:0:0:
64,192,15001,1,0,0:0:0:0:
448,192,15001,1,0,0:0:0:0:
320,192,15201,1,0,0:0:0:0:
64,192,15401,1,2,0:0:0:0:
192,192,15401,1,0,0:0:0:0:
448,192,15601,1,0,0:0:0:0:
192,192,15801,1,8,0:0:0:0:
320,192,15801,1,0,0:0:0:0:
64,192,16001,1,0,0:0:0:0:
320,192,16201,1,0,0:0:0:0:
448,192,16201,128,0,16601:0:0:0:0:
64,192,16601,1,2,0:0:0:0:
192,192,16601,1,0,0:0:0:0:
192,192,17001,1,2,0:0:0:0:
448,192,17001,1,0,0:0:0:0:
320,192,17201,1,0,0:0:0:0:
64,192,17401,1,8,0:0:0:0:
448,192,17401,1,0,0:0:0:0:
64,192,17801,1,0,0:0:0:0:
192,192,17801,1,0,0:0:0:0:
320,192,18001,1,0,0:0:0:0:
192,192,18201,1,0,0:0:0:0:
448,192,18201,1,0,0:0:0:0:
64,192,18401,1,0,0:0:0:0:
320,192,18601,1,2,0:0:0:0:
448,192,18601,1,0,0:0:0:0:
192,192,18801,1,0,0:0:0:0:
64,192,19001,1,8,0:0:0:0:
448,192,19001,1,0,0:0:0:0:
320,192,19201,1,0,0:0:0:0:
192,192,19301,1,0,0:0:0:0:
64,192,19401,128,0,19801:0:0:0:0:
320,192,19401,1,0,0:0:0:0:
320,192,19801,1,2,0:0:0:0:
448,192,19801,1,0,0:0:0:0:
320,192,20001,1,2,0:0:0:0:
448,192,20001,1,0,0:0:0:0:
320,192,20201,1,2,0:0:0:0:
448,192,20201,1,0,0:0:0:0:
64,192,20401,1,0,0:0:0:0:
192,192,20601,1,8,0:0:0:0:
448,192,20601,1,0,0:0:0:0:
320,192,20801,1,0,0:0:0:0:
64,192,21001,1,0,0:0:0:0:
192,192,21001,1,0,0:0:0:0:
448,192,21201,1,0,0:0:0:0:
64,192,21401,1,0,0:0:0:0:
320,192,21401,1,0,0:0:0:0:
192,192,21801,1,2,0:0:0:0:
448,192,21801,1,0,0:0:0:0:
320,192,22001,1,0,0:0:0:0:
64,192,22201,1,8,0:0:0:0:
192,192,22201,1,0,0:0:0:0:
448,192,22401,1,0,0:0:0:0:
64,192,22601,1,0,0:0:0:0:
320,192,22601,128,0,22801:0:0:0:0:
192,192,22801,128,0,23001:0:0:0:0:
320,192,23001,1,2,0:0:0:0:
448,192,23001,1,0,0:0:0:0:
320,192,23401,1,2,0:0:0:0:
448,192,23401,1,0,0:0:0:0:
192,192,23501,1,0,0:0:0:0:
64,192,23601,1,0,0:0:0:0:
320,192,23801,1,8,0:0:0:0:
448,192,23801,1,0,0:0:0:0:
192,192,24201,1,0,0:0:0:0:
448,192,24201,1,0,0:0:0:0:
320,192,24401,1,0,0:0:0:0:
64,192,24601,1,0,0:0:0:0:
192,192,24601,1,0,0:0:0:0:
64,192,25001,1,2,0:0:0:0:
192,192,25001,1,0,0:0:0:0:
448,192,25101,1,0,0:0:0:0:
192,192,25201,1,0,0:0:0:0:
320,192,25301,1,0,0:0:0:0:
64,192,25401,1,8,0:0:0:0:
448,192,25401,1,0,0:0:0:0:
64,192,25801,1,0,0:0:0:0:
192,192,25801,1,0,0:0:0:0:
64,192,26201,1,2,0:0:0:0:
320,192,26201,1,4,0:0:0:0:
448,192,26201,1,0,0:0:0:0:
320,192,26401,1,2,0:0:0:0:
448,192,26401,1,0,0:0:0:0:
64,192,26601,128,2,26801:0:0:0:0:
448,192,26601,128,0,27201:0:0:0:0:
192,192,26801,1,0,0:0:0:0:
64,192,27001,128,8,27201:0:0:0:0:
320,192,27001,1,0,0:0:0:0:
192,192,27201,1,0,0:0:0:0:
64,192,27401,128,0,28001:0:0:0:0:
320,192,27401,128,0,27601:0:0:0:0:
192,192,27601,1,0,0:0:0:0:
320,192,27801,128,0,28001:0:0:0:0:
448,192,28001,1,0,0:0:0:0:
192,192,28201,128,2,28401:0:0:0:0:
320,192,28201,128,0,28801:0:0:0:0:
64,192,28401,1,0,0:0:0:0:
192,192,28601,128,8,28801:0:0:0:0:
448,192,28601,1,0,0:0:0:0:
64,192,28801,1,0,0:0:0:0:
192,192,29001,128,0,29601:0:0:0:0:
448,192,29001,128,0,29201:0:0:0:0:
320,192,29201,1,0,0:0:0:0:
64,192,29401,1,2,0:0:0:0:
448,192,29401,128,0,29601:0:0:0:0:
320,192,29601,1,0,0:0:0:0:
64,192,29801,1,2,0:0:0:0:
448,192,29801,128,0,30201:0:0:0:0:
64,192,30001,128,0,30201:0:0:0:0:
192,192,30201,1,8,0:0:0:0:
320,192,30201,1,0,0:0:0:0:
448,192,30401,1,0,0:0:0:0:
64,192,30601,1,0,0:0:0:0:
192,192,30601,1,0,0:0:0:0:
320,192,30801,1,0,0:0:0:0:
64,192,31001,1,0,0:0:0:0:
448,192,31001,1,0,0:0:0:0:
320,192,31201,1,0,0:0:0:0:
192,192,31301,1,0,0:0:0:0:
64,192,31401,1,2,0:0:0:0:
448,192,31401,1,0,0:0:0:0:
192,192,31601,1,0,0:0:0:0:
320,192,31801,1,8,0:0:0:0:
448,192,31801,1,0,0:0:0:0:
64,192,32001,1,0,0:0:0:0:
64,192,32201,1,0,0:0:0:0:
320,192,32201,1,0,0:0:0:0:
192,192,32401,1,0,0:0:0:0:
320,192,32501,1,0,0:0:0:0:
64,192,32601,1,2,0:0:0:0:
448,192,32601,1,0,0:0:0:0:
64,192,32801,1,2,0:0:0:0:
448,192,32801,1,0,0:0:0:0:
64,192,33001,1,2,0:0:0:0:
448,192,33001,1,0,0:0:0:0:
192,192,33201,1,0,0:0:0:0:
320,192,33401,1,8,0:0:0:0:
448,192,33401,1,0,0:0:0:0:
64,192,33601,1,0,0:0:0:0:
192,192,33801,1,0,0:0:0:0:
448,192,33801,1,0,0:0:0:0:
320,192,34001,1,0,0:0:0:0:
64,192,34201,128,0,34401:0:0:0:0:
448,192,34201,1,0,0:0:0:0:
192,192,34301,128,0,34501:0:0:0:0:
320,192,34401,128,0,34501:0:0:0:0:
320,192,34601,1,2,0:0:0:0:
448,192,34601,1,0,0:0:0:0:
192,192,34801,1,0,0:0:0:0:
64,192,35001,1,8,0:0:0:0:
448,192,35001,1,0,0:0:0:0:
320,192,35201,1,0,0:0:0:0:
64,192,35401,1,0,0:0:0:0:
192,192,35401,1,0,0:0:0:0:
320,192,35601,1,0,0:0:0:0:
64,192,35801,1,2,0:0:0:0:
448,192,35801,1,0,0:0:0:0:
192,192,36001,1,0,0:0:0:0:
320,192,36201,1,0,0:0:0:0:
192,192,36401,1,0,0:0:0:0:
320,192,36601,1,8,0:0:0:0:
448,192,36601,1,0,0:0:0:0:
64,192,36801,1,0,0:0:0:0:
192,192,37001,1,0,0:0:0:0:
448,192,37001,1,0,0:0:0:0:
320,192,37201,1,0,0:0:0:0:
64,192,37401,1,0,0:0:0:0:
448,192,37401,128,0,37601:0:0:0:0:
320,192,37501,128,0,37701:0:0:0:0:
192,192,37601,128,0,37701:0:0:0:0:
64,192,37801,1,0,0:0:0:0:
320,192,38001,1,0,0:0:0:0:
192,192,38201,1,8,0:0:0:0:
448,192,38201,1,0,0:0:0:0:
320,192,38401,1,0,0:0:0:0:
64,192,38601,128,0,38801:0:0:0:0:
192,192,38601,1,0,0:0:0:0:
320,192,38801,1,0,0:0:0:0:
192,192,38901,1,0,0:0:0:0:
64,192,39001,1,4,0:0:0:0:
320,192,39001,1,2,0:0:0:0:
448,192,39001,1,0,0:0:0:0:
64,192,39401,1,8,0:0:0:0:
192,192,39401,1,0,0:0:0:0:
192,192,39601,1,0,0:0:0:0:
320,192,39801,1,8,0:0:0:0:
448,192,39801,1,0,0:0:0:0:
320,192,40001,1,0,0:0:0:0:
64,192,40201,1,8,0:0:0:0:
448,192,40201,1,0,0:0:0:0:
64,192,40401,1,0,0:0:0:0:
192,192,40601,1,8,0:0:0:0:
320,192,40601,1,0,0:0:0:0:
192,192,41001,1,8,0:0:0:0:
448,192,41001,1,0,0:0:0:0:
448,192,41201,1,0,0:0:0:0:
64,192,41401,1,8,0:0:0:0:
192,192,41401,1,0,0:0:0:0:
64,192,41601,1,0,0:0:0:0:
320,192,41801,1,8,0:0:0:0:
448,192,41801,1,0,0:0:0:0:
192,192,42201,1,8,0:0:0:0:
448,192,42201,1,2,0:0:0:0:
64,192,42601,1,8,0:0:0:0:
320,192,42601,1,0,0:0:0:0:
192,192,42801,1,0,0:0:0:0:
192,192,43001,1,8,0:0:0:0:
448,192,43001,1,0,0:0:0:0:
448,192,43201,1,0,0:0:0:0:
64,192,43401,1,8,0:0:0:0:
320,192,43401,1,0,0:0:0:0:
64,192,43601,1,0,0:0:0:0:
192,192,43801,1,8,0:0:0:0:
320,192,43801,1,0,0:0:0:0:
192,192,44001,1,0,0:0:0:0:
320,192,44201,1,8,0:0:0:0:
448,192,44201,1,0,0:0:0:0:
448,192,44401,1,0,0:0:0:0:
64,192,44601,1,8,0:0:0:0:
192,192,44601,1,0,0:0:0:0:
64,192,44801,1,0,0:0:0:0:
320,192,45001,1,8,0:0:0:0:
448,192,45001,1,0,0:0:0:0:
64,192,45401,1,8,0:0:0:0:
192,192,45401,1,4,0:0:0:0:
448,192,45401,1,2,0:0:0:0:
192,192,45601,1,8,0:0:0:0:
320,192,45601,1,0,0:0:0:0:
320,192,45801,1,8,0:0:0:0:
448,192,45801,1,0,0:0:0:0:
64,192,46001,1,8,0:0:0:0:
448,192,46001,1,0,0:0:0:0:
64,192,46201,1,8,0:0:0:0:
192,192,46201,1,2,0:0:0:0:
320,192,46201,1,0,0:0:0:0:
192,192,46401,1,8,0:0:0:0:
448,192,46401,1,0,0:0:0:0:
64,192,46601,1,8,0:0:0:0:
448,192,46601,1,0,0:0:0:0:
64,192,46801,1,8,0:0:0:0:
320,192,46801,1,0,0:0:0:0:
192,192,47001,1,2,0:0:0:0:
320,192,47001,1,8,0:0:0:0:
448,192,47001,1,0,0:0:0:0:
64,192,47201,1,8,0:0:0:0:
192,192,47201,1,0,0:0:0:0:
64,192,47401,1,8,0:0:0:0:
448,192,47401,1,0,0:0:0:0:
192,192,47601,1,8,0:0:0:0:
448,192,47601,1,0,0:0:0:0:
64,192,47801,1,2,0:0:0:0:
192,192,47801,1,8,0:0:0:0:
320,192,47801,1,0,0:0:0:0:
320,192,48001,1,8,0:0:0:0:
448,192,48001,1,0,0:0:0:0:
64,192,48201,1,8,0:0:0:0:
448,192,48201,1,0,0:0:0:0:
64,192,48401,1,8,0:0:0:0:
320,192,48401,1,0,0:0:0:0:
192,192,48601,1,8,0:0:0:0:
320,192,48601,1,2,0:0:0:0:
64,192,48701,1,8,0:0:0:0:
192,192,48801,1,8,0:0:0:0:
448,192,48901,1,8,0:0:0:0:
64,192,49001,1,8,0:0:0:0:
320,192,49001,1,0,0:0:0:0:
192,192,49101,1,8,0:0:0:0:
320,192,49201,1,8,0:0:0:0:
448,192,49301,1,8,0:0:0:0:
64,192,49401,1,8,0:0:0:0:
192,192,49401,1,2,0:0:0:0:
320,192,49501,1,8,0:0:0:0:
192,192,49601,1,8,0:0:0:0:
448,192,49701,1,8,0:0:0:0:
64,192,49801,1,8,0:0:0:0:
320,192,49801,1,2,0:0:0:0:
448,192,49901,1,8,0:0:0:0:
192,192,50001,1,8,0:0:0:0:
320,192,50101,1,8,0:0:0:0:
64,192,50201,1,2,0:0:0:0:
448,192,50201,1,0,0:0:0:0:
64,192,50601,1,0,0:0:0:70:LR_Drum Rpd x2.wav
64,192,51001,1,0,0:0:0:70:LR_Drum Rpd x2.wav
320,192,51134,1,0,0:0:0:70:LR_Drum Rpd vFast.wav
192,192,51201,1,0,0:0:0:70:LR_Drum Rpd vFast.wav
320,192,51267,1,0,0:0:0:70:LR_Drum Rpd vFast.wav
192,192,51334,1,0,0:0:0:70:LR_Drum Rpd vFast.wav
64,192,51401,1,0,0:0:0:70:LR_Drum Rpd vFast.wav
448,192,51401,1,0,0:0:0:0:
64,192,51801,1,2,0:0:0:0:
320,192,51801,128,4,52101:0:0:0:0:
448,192,51801,128,0,52001:0:0:0:0:
192,192,51901,128,0,52201:0:0:0:0:
64,192,52201,128,2,52401:0:0:0:0:
320,192,52201,128,0,52901:0:0:0:0:
448,192,52301,128,0,53001:0:0:0:0:
64,192,52601,1,8,0:0:0:0:
192,192,52601,128,0,52801:0:0:0:0:
192,192,53001,1,0,0:0:0:0:
320,192,53001,128,0,53201:0:0:0:0:
64,192,53401,128,0,53601:0:0:0:0:
320,192,53401,1,0,0:0:0:0:
192,192,53801,128,2,54001:0:0:0:0:
448,192,53801,1,0,0:0:0:0:
448,192,54001,1,0,0:0:0:0:
64,192,54201,1,8,0:0:0:0:
320,192,54201,128,0,54401:0:0:0:0:
64,192,54401,1,0,0:0:0:0:
192,192,54601,1,0,0:0:0:0:
448,192,54601,128,0,54801:0:0:0:0:
192,192,54801,1,0,0:0:0:0:
64,192,55001,1,2,0:0:0:0:
320,192,55001,128,0,55301:0:0:0:0:
448,192,55001,128,0,55201:0:0:0:0:
192,192,55101,128,0,55401:0:0:0:0:
64,192,55201,1,2,0:0:0:0:
64,192,55401,128,2,55601:0:0:0:0:
320,192,55401,128,0,56101:0:0:0:0:
448,192,55501,128,0,56201:0:0:0:0:
64,192,55801,1,8,0:0:0:0:
192,192,55801,128,0,56001:0:0:0:0:
192,192,56201,1,0,0:0:0:0:
320,192,56201,128,0,56401:0:0:0:0:
64,192,56601,128,0,57001:0:0:0:0:
448,192,56601,128,0,56801:0:0:0:0:
192,192,57001,128,2,57201:0:0:0:0:
448,192,57001,1,0,0:0:0:0:
448,192,57201,1,0,0:0:0:0:
64,192,57401,1,8,0:0:0:0:
320,192,57401,128,0,57601:0:0:0:0:
64,192,57601,1,0,0:0:0:0:
192,192,57801,1,8,0:0:0:0:
448,192,57801,128,0,58001:0:0:0:0:
320,192,57901,128,0,58001:0:0:0:0:
64,192,58201,128,2,58401:0:0:0:0:
448,192,58201,1,0,0:0:0:0:
64,192,58601,1,2,0:0:0:0:
320,192,58601,128,0,58801:0:0:0:0:
64,192,58801,1,0,0:0:0:0:
192,192,59001,128,8,59201:0:0:0:0:
448,192,59001,1,0,0:0:0:0:
320,192,59101,128,0,59201:0:0:0:0:
64,192,59401,1,0,0:0:0:0:
448,192,59401,128,0,59601:0:0:0:0:
320,192,59601,1,0,0:0:0:0:
64,192,59801,128,0,60001:0:0:0:0:
192,192,59801,1,0,0:0:0:0:
448,192,60001,1,0,0:0:0:0:
192,192,60201,128,2,60401:0:0:0:0:
320,192,60201,1,0,0:0:0:0:
64,192,60401,1,0,0:0:0:0:
320,192,60601,128,8,60801:0:0:0:0:
448,192,60601,1,0,0:0:0:0:
192,192,60701,128,0,60801:0:0:0:0:
64,192,61001,1,0,0:0:0:0:
448,192,61001,128,0,61201:0:0:0:0:
192,192,61201,128,0,61401:0:0:0:0:
64,192,61401,128,2,61801:0:0:0:0:
320,192,61401,128,4,61701:0:0:0:0:
448,192,61401,1,0,0:0:0:0:
448,192,61601,1,2,0:0:0:0:
192,192,61801,128,2,62101:0:0:0:0:
320,192,61801,128,0,62201:0:0:0:0:
192,192,62201,128,8,62601:0:0:0:0:
448,192,62201,128,0,62501:0:0:0:0:
448,192,62601,128,0,63001:0:0:0:0:
64,192,63001,128,4,63401:0:0:0:0:
320,192,63001,128,0,63301:0:0:0:0:
192,192,63401,128,2,63701:0:0:0:0:
320,192,63401,128,0,63801:0:0:0:0:
192,192,63801,128,8,64201:0:0:0:0:
448,192,63801,128,0,64101:0:0:0:0:
64,192,64201,128,2,64601:0:0:0:0:
448,192,64201,1,0,0:0:0:0:
192,192,64401,1,8,0:0:0:0:
320,192,64401,1,0,0:0:0:0:
320,192,64601,128,2,64901:0:0:0:0:
448,192,64601,128,4,64801:0:0:0:0:
192,192,64701,128,0,65001:0:0:0:0:
64,192,65001,128,2,65201:0:0:0:0:
320,192,65001,128,0,65701:0:0:0:0:
448,192,65101,128,0,65801:0:0:0:0:
64,192,65401,1,8,0:0:0:0:
192,192,65401,128,0,65601:0:0:0:0:
192,192,65801,1,0,0:0:0:0:
320,192,65801,128,0,66001:0:0:0:0:
64,192,66201,128,0,66401:0:0:0:0:
320,192,66201,1,0,0:0:0:0:
192,192,66601,128,2,66801:0:0:0:0:
448,192,66601,1,0,0:0:0:0:
448,192,66801,1,0,0:0:0:0:
64,192,67001,1,8,0:0:0:0:
320,192,67001,128,0,67201:0:0:0:0:
64,192,67201,1,0,0:0:0:0:
192,192,67401,1,0,0:0:0:0:
448,192,67401,128,0,67601:0:0:0:0:
192,192,67601,1,0,0:0:0:0:
64,192,67801,1,2,0:0:0:0:
320,192,67801,128,0,68101:0:0:0:0:
448,192,67801,128,0,68001:0:0:0:0:
192,192,67901,128,0,68201:0:0:0:0:
64,192,68001,1,2,0:0:0:0:
64,192,68201,128,2,68401:0:0:0:0:
320,192,68201,128,0,68901:0:0:0:0:
448,192,68301,128,0,69001:0:0:0:0:
64,192,68601,1,8,0:0:0:0:
192,192,68601,128,0,68801:0:0:0:0:
192,192,69001,1,0,0:0:0:0:
320,192,69001,128,0,69201:0:0:0:0:
64,192,69401,128,0,69601:0:0:0:0:
320,192,69401,1,0,0:0:0:0:
192,192,69801,128,2,70001:0:0:0:0:
448,192,69801,1,0,0:0:0:0:
448,192,70001,1,0,0:0:0:0:
64,192,70201,1,8,0:0:0:0:
320,192,70201,128,0,70401:0:0:0:0:
64,192,70401,1,0,0:0:0:0:
192,192,70601,1,8,0:0:0:0:
448,192,70601,128,0,70801:0:0:0:0:
320,192,70701,128,0,70801:0:0:0:0:
64,192,71001,128,2,71201:0:0:0:0:
448,192,71001,1,0,0:0:0:0:
448,192,71201,1,0,0:0:0:0:
64,192,71401,1,2,0:0:0:0:
320,192,71401,128,0,71601:0:0:0:0:
64,192,71601,1,0,0:0:0:0:
192,192,71801,128,8,72001:0:0:0:0:
448,192,71801,1,0,0:0:0:0:
320,192,71901,128,0,72001:0:0:0:0:
64,192,72201,1,0,0:0:0:0:
448,192,72201,128,0,72401:0:0:0:0:
192,192,72401,1,0,0:0:0:0:
320,192,72401,1,0,0:0:0:0:
64,192,72601,128,0,72801:0:0:0:0:
192,192,72601,1,0,0:0:0:0:
320,192,72801,1,0,0:0:0:0:
448,192,72801,1,0,0:0:0:0:
192,192,73001,128,2,73401:0:0:0:0:
320,192,73001,1,0,0:0:0:0:
64,192,73401,1,8,0:0:0:0:
320,192,73401,128,0,73801:0:0:0:0:
64,192,73801,1,0,0:0:0:0:
448,192,73801,128,0,74001:0:0:0:0:
192,192,74001,128,0,74201:0:0:0:0:
64,192,74201,128,2,74601:0:0:0:0:
320,192,74201,128,4,74501:0:0:0:0:
448,192,74201,1,0,0:0:0:0:
448,192,74401,1,2,0:0:0:0:
192,192,74601,128,2,74901:0:0:0:0:
320,192,74601,128,0,75001:0:0:0:0:
192,192,75001,128,8,75401:0:0:0:0:
448,192,75001,128,0,75301:0:0:0:0:
448,192,75401,128,0,75801:0:0:0:0:
64,192,75801,128,4,76201:0:0:0:0:
320,192,75801,128,0,76101:0:0:0:0:
192,192,76201,128,2,76501:0:0:0:0:
320,192,76201,128,0,76601:0:0:0:0:
192,192,76601,128,8,77001:0:0:0:0:
448,192,76601,128,0,76901:0:0:0:0:
448,192,77001,128,0,77401:0:0:0:0:
64,192,77401,1,2,0:0:0:0:
192,192,77401,1,4,0:0:0:0:
320,192,77401,1,0,0:0:0:0:
64,192,77601,1,2,0:0:0:0:
192,192,77601,1,0,0:0:0:0:
64,192,77801,1,2,0:0:0:0:
192,192,77801,1,0,0:0:0:0:
320,192,78001,1,0,0:0:0:0:
192,192,78201,1,8,0:0:0:0:
448,192,78201,1,0,0:0:0:0:
320,192,78401,1,0,0:0:0:0:
64,192,78601,1,0,0:0:0:0:
448,192,78601,1,0,0:0:0:0:
192,192,78801,1,0,0:0:0:0:
64,192,79001,1,0,0:0:0:0:
448,192,79001,1,0,0:0:0:0:
320,192,79201,1,0,0:0:0:0:
64,192,79401,1,2,0:0:0:0:
192,192,79401,1,0,0:0:0:0:
448,192,79601,1,0,0:0:0:0:
192,192,79801,1,8,0:0:0:0:
320,192,79801,1,0,0:0:0:0:
64,192,80001,1,0,0:0:0:0:
448,192,80201,128,0,80601:0:0:0:0:
64,192,80601,128,2,81001:0:0:0:0:
192,192,80601,1,0,0:0:0:0:
192,192,81001,1,2,0:0:0:0:
448,192,81001,1,0,0:0:0:0:
320,192,81201,1,0,0:0:0:0:
64,192,81401,1,8,0:0:0:0:
448,192,81401,1,0,0:0:0:0:
320,192,81601,1,0,0:0:0:0:
64,192,81801,1,0,0:0:0:0:
192,192,81801,1,0,0:0:0:0:
320,192,82001,1,0,0:0:0:0:
192,192,82201,1,0,0:0:0:0:
448,192,82201,1,0,0:0:0:0:
64,192,82401,1,0,0:0:0:0:
320,192,82601,1,2,0:0:0:0:
448,192,82601,1,0,0:0:0:0:
192,192,82801,1,0,0:0:0:0:
64,192,83001,1,8,0:0:0:0:
448,192,83001,1,0,0:0:0:0:
320,192,83201,1,0,0:0:0:0:
64,192,83401,128,0,83801:0:0:0:0:
192,192,83401,1,0,0:0:0:0:
320,192,83601,1,0,0:0:0:0:
192,192,83701,1,0,0:0:0:0:
320,192,83801,1,2,0:0:0:0:
448,192,83801,1,0,0:0:0:0:
320,192,84001,1,2,0:0:0:0:
448,192,84001,1,0,0:0:0:0:
320,192,84201,1,2,0:0:0:0:
448,192,84201,1,0,0:0:0:0:
192,192,84601,1,8,0:0:0:0:
448,192,84601,1,0,0:0:0:0:
320,192,84801,1,0,0:0:0:0:
64,192,85001,1,0,0:0:0:0:
192,192,85001,1,0,0:0:0:0:
448,192,85201,1,0,0:0:0:0:
64,192,85401,1,0,0:0:0:0:
320,192,85401,1,0,0:0:0:0:
192,192,85601,1,0,0:0:0:0:
64,192,85801,1,2,0:0:0:0:
448,192,85801,1,0,0:0:0:0:
320,192,86001,1,0,0:0:0:0:
64,192,86201,1,8,0:0:0:0:
192,192,86201,1,0,0:0:0:0:
448,192,86401,1,0,0:0:0:0:
64,192,86601,1,0,0:0:0:0:
320,192,86601,128,0,86801:0:0:0:0:
192,192,86801,128,0,87001:0:0:0:0:
320,192,87001,1,2,0:0:0:0:
448,192,87001,1,0,0:0:0:0:
64,192,87401,1,2,0:0:0:0:
448,192,87401,1,0,0:0:0:0:
320,192,87601,1,0,0:0:0:0:
192,192,87801,1,8,0:0:0:0:
448,192,87801,1,0,0:0:0:0:
64,192,88001,1,0,0:0:0:0:
320,192,88201,1,0,0:0:0:0:
448,192,88201,1,0,0:0:0:0:
192,192,88401,1,0,0:0:0:0:
64,192,88601,1,0,0:0:0:0:
320,192,88601,1,0,0:0:0:0:
448,192,88801,1,0,0:0:0:0:
192,192,89001,1,2,0:0:0:0:
64,192,89001,1,0,0:0:0:0:
320,192,89201,1,0,0:0:0:0:
64,192,89401,1,8,0:0:0:0:
448,192,89401,1,0,0:0:0:0:
320,192,89601,1,0,0:0:0:0:
64,192,89801,1,0,0:0:0:0:
192,192,89801,1,0,0:0:0:0:
320,192,90001,1,0,0:0:0:0:
192,192,90101,1,0,0:0:0:0:
64,192,90201,1,2,0:0:0:0:
320,192,90201,1,4,0:0:0:0:
448,192,90201,1,0,0:0:0:0:
320,192,90401,1,2,0:0:0:0:
448,192,90401,1,0,0:0:0:0:
64,192,90601,128,2,90801:0:0:0:0:
448,192,90601,128,0,91201:0:0:0:0:
192,192,90801,1,0,0:0:0:0:
64,192,91001,128,8,91201:0:0:0:0:
320,192,91001,1,0,0:0:0:0:
192,192,91201,1,0,0:0:0:0:
64,192,91401,128,0,92001:0:0:0:0:
320,192,91401,128,0,91601:0:0:0:0:
192,192,91601,1,0,0:0:0:0:
320,192,91801,128,0,92001:0:0:0:0:
448,192,92001,1,0,0:0:0:0:
192,192,92201,128,2,92401:0:0:0:0:
320,192,92201,128,0,92801:0:0:0:0:
64,192,92401,1,0,0:0:0:0:
192,192,92601,128,8,92801:0:0:0:0:
448,192,92601,1,0,0:0:0:0:
64,192,92801,1,0,0:0:0:0:
192,192,93001,128,0,93601:0:0:0:0:
448,192,93001,128,0,93201:0:0:0:0:
320,192,93201,1,0,0:0:0:0:
64,192,93401,1,2,0:0:0:0:
448,192,93401,128,0,93601:0:0:0:0:
320,192,93601,1,0,0:0:0:0:
64,192,93801,1,2,0:0:0:0:
448,192,93801,128,0,94201:0:0:0:0:
64,192,94001,128,0,94201:0:0:0:0:
192,192,94201,1,8,0:0:0:0:
320,192,94201,1,0,0:0:0:0:
448,192,94401,1,0,0:0:0:0:
64,192,94601,1,0,0:0:0:0:
192,192,94601,1,0,0:0:0:0:
320,192,94801,1,0,0:0:0:0:
64,192,95001,1,0,0:0:0:0:
448,192,95001,1,0,0:0:0:0:
192,192,95201,1,0,0:0:0:0:
320,192,95401,1,2,0:0:0:0:
448,192,95401,1,0,0:0:0:0:
64,192,95601,1,0,0:0:0:0:
192,192,95801,1,8,0:0:0:0:
448,192,95801,1,0,0:0:0:0:
320,192,96001,1,0,0:0:0:0:
64,192,96201,1,0,0:0:0:0:
448,192,96201,1,0,0:0:0:0:
192,192,96401,1,0,0:0:0:0:
320,192,96501,1,0,0:0:0:0:
64,192,96601,1,2,0:0:0:0:
448,192,96601,1,0,0:0:0:0:
64,192,96801,1,2,0:0:0:0:
448,192,96801,1,0,0:0:0:0:
64,192,97001,1,2,0:0:0:0:
448,192,97001,1,0,0:0:0:0:
192,192,97201,1,0,0:0:0:0:
320,192,97401,1,8,0:0:0:0:
448,192,97401,1,0,0:0:0:0:
64,192,97601,1,0,0:0:0:0:
192,192,97801,1,0,0:0:0:0:
448,192,97801,1,0,0:0:0:0:
320,192,98001,1,0,0:0:0:0:
64,192,98201,128,0,98401:0:0:0:0:
448,192,98201,1,0,0:0:0:0:
192,192,98301,128,0,98501:0:0:0:0:
320,192,98401,128,0,98501:0:0:0:0:
320,192,98601,1,2,0:0:0:0:
448,192,98601,1,0,0:0:0:0:
192,192,98801,1,0,0:0:0:0:
64,192,99001,1,8,0:0:0:0:
448,192,99001,1,0,0:0:0:0:
320,192,99201,1,0,0:0:0:0:
64,192,99401,1,0,0:0:0:0:
192,192,99401,1,0,0:0:0:0:
320,192,99601,1,0,0:0:0:0:
64,192,99801,1,2,0:0:0:0:
448,192,99801,1,0,0:0:0:0:
192,192,100001,1,0,0:0:0:0:
320,192,100201,1,0,0:0:0:0:
192,192,100401,1,0,0:0:0:0:
320,192,100601,1,8,0:0:0:0:
448,192,100601,1,0,0:0:0:0:
64,192,100801,1,0,0:0:0:0:
192,192,101001,1,0,0:0:0:0:
448,192,101001,1,0,0:0:0:0:
320,192,101201,1,0,0:0:0:0:
64,192,101401,1,0,0:0:0:0:
448,192,101401,128,0,101601:0:0:0:0:
320,192,101501,128,0,101701:0:0:0:0:
192,192,101601,128,0,101701:0:0:0:0:
64,192,101801,1,0,0:0:0:0:
320,192,102001,1,0,0:0:0:0:
192,192,102201,1,8,0:0:0:0:
448,192,102201,1,0,0:0:0:0:
320,192,102401,1,0,0:0:0:0:
64,192,102601,128,0,102801:0:0:0:0:
192,192,102601,1,0,0:0:0:0:
320,192,102801,1,0,0:0:0:0:
192,192,102901,1,0,0:0:0:0:
64,192,103001,1,2,0:0:0:0:
320,192,103001,1,4,0:0:0:0:
448,192,103001,128,0,106201:0:0:0:0:
192,192,103401,1,0,0:0:0:0:
320,192,103801,1,0,0:0:0:0:
64,192,104201,1,0,0:0:0:0:
192,192,104601,1,0,0:0:0:0:
320,192,105001,1,0,0:0:0:0:
64,192,105401,1,0,0:0:0:0:
64,192,105801,1,0,0:0:0:0:
192,192,106201,128,0,109401:0:0:0:0:
320,192,106201,1,0,0:0:0:0:
64,192,106601,1,0,0:0:0:0:
448,192,107001,1,0,0:0:0:0:
320,192,107401,1,0,0:0:0:0:
64,192,107801,1,0,0:0:0:0:
448,192,108201,1,0,0:0:0:0:
64,192,108601,1,0,0:0:0:0:
320,192,109001,1,0,0:0:0:0:
64,192,109401,1,0,0:0:0:0:
320,192,109401,128,0,112601:0:0:0:0:
192,192,109801,1,0,0:0:0:0:
448,192,110201,1,0,0:0:0:0:
64,192,110601,1,0,0:0:0:0:
448,192,111001,1,0,0:0:0:0:
192,192,111401,1,0,0:0:0:0:
448,192,111801,1,0,0:0:0:0:
448,192,112201,1,0,0:0:0:0:
64,192,112601,128,0,115801:0:0:0:0:
192,192,112601,1,0,0:0:0:0:
448,192,113001,1,0,0:0:0:0:
320,192,113401,1,0,0:0:0:0:
192,192,113801,1,0,0:0:0:0:
448,192,114201,1,0,0:0:0:0:
192,192,114601,1,0,0:0:0:0:
320,192,115001,1,0,0:0:0:0:
448,192,115401,1,0,0:0:0:0:
192,192,115801,1,4,0:0:0:0:
448,192,115801,1,0,0:0:0:0:
192,192,116001,1,0,0:0:0:0:
320,192,116201,1,0,0:0:0:0:
320,192,116401,1,0,0:0:0:0:
64,192,116601,1,8,0:0:0:0:
448,192,116601,1,0,0:0:0:0:
448,192,116801,1,0,0:0:0:0:
192,192,117001,1,0,0:0:0:0:
192,192,117201,1,0,0:0:0:0:
64,192,117401,1,0,0:0:0:0:
64,192,117601,1,0,0:0:0:0:
448,192,117801,1,0,0:0:0:0:
448,192,118001,1,0,0:0:0:0:
192,192,118201,1,8,0:0:0:0:
320,192,118201,1,0,0:0:0:0:
192,192,118401,1,0,0:0:0:0:
320,192,118601,1,0,0:0:0:0:
320,192,118801,1,0,0:0:0:0:
64,192,119001,1,0,0:0:0:0:
64,192,119201,1,0,0:0:0:0:
448,192,119401,1,0,0:0:0:0:
448,192,119601,1,0,0:0:0:0:
64,192,119801,1,8,0:0:0:0:
192,192,119801,1,0,0:0:0:0:
192,192,120001,1,0,0:0:0:0:
320,192,120201,1,0,0:0:0:0:
320,192,120401,1,0,0:0:0:0:
448,192,120601,1,0,0:0:0:0:
448,192,120801,1,0,0:0:0:0:
64,192,121001,1,0,0:0:0:0:
64,192,121201,1,0,0:0:0:0:
320,192,121401,1,8,0:0:0:0:
448,192,121401,1,0,0:0:0:0:
320,192,121601,1,0,0:0:0:0:
192,192,121801,1,0,0:0:0:0:
192,192,122001,1,0,0:0:0:0:
64,192,122201,1,2,0:0:0:0:
320,192,122201,1,0,0:0:0:0:
448,192,122201,1,0,0:0:0:0:
320,192,122401,1,0,0:0:0:0:
64,192,122601,1,0,0:0:0:0:
64,192,122801,1,0,0:0:0:0:
192,192,123001,1,8,0:0:0:0:
448,192,123001,1,0,0:0:0:0:
448,192,123201,1,0,0:0:0:0:
320,192,123401,1,0,0:0:0:0:
320,192,123601,1,0,0:0:0:0:
64,192,123801,1,0,0:0:0:0:
192,192,123801,1,0,0:0:0:0:
64,192,124001,1,0,0:0:0:0:
320,192,124201,1,0,0:0:0:0:
320,192,124401,1,0,0:0:0:0:
192,192,124601,1,8,0:0:0:0:
448,192,124601,1,0,0:0:0:0:
192,192,124801,1,0,0:0:0:0:
448,192,125001,1,0,0:0:0:0:
448,192,125201,1,0,0:0:0:0:
64,192,125401,1,0,0:0:0:0:
64,192,125601,1,0,0:0:0:0:
320,192,125801,1,0,0:0:0:0:
320,192,126001,1,0,0:0:0:0:
192,192,126201,1,8,0:0:0:0:
448,192,126201,1,0,0:0:0:0:
192,192,126401,1,0,0:0:0:0:
320,192,126601,1,0,0:0:0:0:
320,192,126801,1,0,0:0:0:0:
64,192,127001,1,0,0:0:0:0:
64,192,127201,1,0,0:0:0:0:
448,192,127401,1,0,0:0:0:0:
448,192,127601,1,0,0:0:0:0:
64,192,127801,1,8,0:0:0:0:
320,192,127801,1,0,0:0:0:0:
320,192,128001,1,0,0:0:0:0:
192,192,128201,1,0,0:0:0:0:
192,192,128401,1,0,0:0:0:0:
64,192,128601,128,2,129001:0:0:0:0:
320,192,128601,128,4,128901:0:0:0:0:
448,192,128601,128,0,128901:0:0:0:0:
192,192,129001,128,8,129201:0:0:0:0:
448,192,129001,1,0,0:0:0:0:
64,192,129401,1,8,0:0:0:0:
320,192,129401,128,0,129601:0:0:0:0:
64,192,129801,128,8,130001:0:0:0:0:
192,192,129801,1,0,0:0:0:0:
320,192,130201,1,8,0:0:0:0:
448,192,130201,128,0,130401:0:0:0:0:
192,192,130601,128,8,130801:0:0:0:0:
320,192,130601,1,0,0:0:0:0:
64,192,131001,128,8,131201:0:0:0:0:
192,192,131001,1,0,0:0:0:0:
64,192,131401,128,8,131601:0:0:0:0:
448,192,131401,1,0,0:0:0:0:
64,192,131801,128,8,132201:0:0:0:0:
320,192,131801,128,2,132101:0:0:0:0:
320,192,132201,1,8,0:0:0:0:
448,192,132201,128,0,132401:0:0:0:0:
64,192,132601,128,8,132801:0:0:0:0:
192,192,132601,1,0,0:0:0:0:
64,192,133001,1,8,0:0:0:0:
320,192,133001,128,0,133201:0:0:0:0:
192,192,133401,128,8,133601:0:0:0:0:
448,192,133401,1,0,0:0:0:0:
64,192,133801,1,8,0:0:0:0:
448,192,133801,128,0,134001:0:0:0:0:
192,192,134201,1,8,0:0:0:0:
320,192,134201,128,0,134401:0:0:0:0:
64,192,134601,1,8,0:0:0:0:
320,192,134601,128,0,134801:0:0:0:0:
192,192,135001,1,8,0:0:0:0:
320,192,135001,1,4,0:0:0:0:
448,192,135001,1,2,0:0:0:0:
64,192,135201,1,8,0:0:0:0:
192,192,135201,1,0,0:0:0:0:
64,192,135401,1,8,0:0:0:0:
448,192,135401,1,0,0:0:0:0:
192,192,135601,1,8,0:0:0:0:
448,192,135601,1,0,0:0:0:0:
64,192,135801,1,8,0:0:0:0:
192,192,135801,1,2,0:0:0:0:
320,192,135801,1,0,0:0:0:0:
64,192,136001,1,8,0:0:0:0:
320,192,136001,1,0,0:0:0:0:
64,192,136201,1,8,0:0:0:0:
448,192,136201,1,0,0:0:0:0:
192,192,136401,1,8,0:0:0:0:
448,192,136401,1,0,0:0:0:0:
192,192,136601,1,2,0:0:0:0:
320,192,136601,1,8,0:0:0:0:
448,192,136601,1,0,0:0:0:0:
64,192,136801,1,8,0:0:0:0:
320,192,136801,1,0,0:0:0:0:
64,192,137001,1,8,0:0:0:0:
448,192,137001,1,0,0:0:0:0:
192,192,137201,1,8,0:0:0:0:
448,192,137201,1,0,0:0:0:0:
64,192,137401,1,2,0:0:0:0:
192,192,137401,1,8,0:0:0:0:
320,192,137401,1,0,0:0:0:0:
64,192,137601,1,8,0:0:0:0:
448,192,137601,1,0,0:0:0:0:
192,192,137801,1,8,0:0:0:0:
448,192,137801,1,0,0:0:0:0:
192,192,138001,1,8,0:0:0:0:
320,192,138001,1,0,0:0:0:0:
64,192,138201,1,8,0:0:0:0:
320,192,138201,1,2,0:0:0:0:
448,192,138201,1,0,0:0:0:0:
192,192,138301,1,8,0:0:0:0:
448,192,138401,1,8,0:0:0:0:
320,192,138501,1,8,0:0:0:0:
64,192,138601,1,8,0:0:0:0:
192,192,138601,1,0,0:0:0:0:
448,192,138701,1,8,0:0:0:0:
64,192,138801,1,8,0:0:0:0:
192,192,138901,1,8,0:0:0:0:
320,192,139001,1,8,0:0:0:0:
448,192,139001,1,2,0:0:0:0:
64,192,139101,1,8,0:0:0:0:
320,192,139201,1,8,0:0:0:0:
192,192,139301,1,8,0:0:0:0:
64,192,139401,1,8,0:0:0:0:
448,192,139401,1,2,0:0:0:0:
320,192,139501,1,8,0:0:0:0:
192,192,139601,1,8,0:0:0:0:
64,192,139701,1,8,0:0:0:0:
320,192,139801,1,2,0:0:0:0:
448,192,139801,1,0,0:0:0:0:
192,192,140201,1,0,0:0:0:70:LR_Drum Rpd x2.wav
192,192,140601,1,0,0:0:0:70:LR_Drum Rpd x2.wav
448,192,140734,1,0,0:0:0:70:LR_Drum Rpd vFast.wav
64,192,140801,1,0,0:0:0:70:LR_Drum Rpd vFast.wav
320,192,140867,1,0,0:0:0:70:LR_Drum Rpd vFast.wav
192,192,140934,1,0,0:0:0:70:LR_Drum Rpd vFast.wav
64,192,141001,1,0,0:0:0:70:LR_Drum Rpd vFast.wav
448,192,141001,1,0,0:0:0:0:
64,192,141401,128,2,141601:0:0:0:0:
192,192,141401,128,4,141701:0:0:0:0:
448,192,141401,1,0,0:0:0:0:
320,192,141501,128,0,141801:0:0:0:0:
192,192,141801,128,2,142501:0:0:0:0:
448,192,141801,128,0,142001:0:0:0:0:
64,192,141901,128,0,142601:0:0:0:0:
320,192,142201,128,8,142401:0:0:0:0:
448,192,142201,1,0,0:0:0:0:
192,192,142601,128,0,142801:0:0:0:0:
320,192,142601,1,0,0:0:0:0:
192,192,143001,1,0,0:0:0:0:
448,192,143001,128,0,143201:0:0:0:0:
64,192,143401,1,2,0:0:0:0:
320,192,143401,128,0,143601:0:0:0:0:
64,192,143601,1,0,0:0:0:0:
192,192,143801,128,8,144001:0:0:0:0:
448,192,143801,1,0,0:0:0:0:
448,192,144001,1,0,0:0:0:0:
64,192,144201,128,0,144401:0:0:0:0:
320,192,144201,1,0,0:0:0:0:
320,192,144401,1,0,0:0:0:0:
64,192,144601,128,2,144801:0:0:0:0:
192,192,144601,128,0,144901:0:0:0:0:
448,192,144601,1,0,0:0:0:0:
320,192,144701,128,0,145001:0:0:0:0:
448,192,144801,1,2,0:0:0:0:
192,192,145001,128,2,145701:0:0:0:0:
448,192,145001,128,0,145201:0:0:0:0:
64,192,145101,128,0,145801:0:0:0:0:
320,192,145401,128,8,145601:0:0:0:0:
448,192,145401,1,0,0:0:0:0:
192,192,145801,128,0,146001:0:0:0:0:
320,192,145801,1,0,0:0:0:0:
64,192,146201,128,0,146401:0:0:0:0:
448,192,146201,128,0,146601:0:0:0:0:
64,192,146601,1,2,0:0:0:0:
320,192,146601,128,0,146801:0:0:0:0:
64,192,146801,1,0,0:0:0:0:
192,192,147001,128,8,147201:0:0:0:0:
448,192,147001,1,0,0:0:0:0:
448,192,147201,1,0,0:0:0:0:
64,192,147401,128,8,147601:0:0:0:0:
320,192,147401,1,0,0:0:0:0:
192,192,147501,128,0,147601:0:0:0:0:
64,192,147801,1,2,0:0:0:0:
448,192,147801,128,0,148001:0:0:0:0:
192,192,148201,128,2,148401:0:0:0:0:
448,192,148201,1,0,0:0:0:0:
448,192,148401,1,0,0:0:0:0:
64,192,148601,1,8,0:0:0:0:
320,192,148601,128,0,148801:0:0:0:0:
192,192,148701,128,0,148801:0:0:0:0:
64,192,149001,128,8,149201:0:0:0:0:
448,192,149001,1,0,0:0:0:0:
192,192,149201,1,0,0:0:0:0:
320,192,149401,1,8,0:0:0:0:
448,192,149401,128,0,149601:0:0:0:0:
64,192,149601,1,0,0:0:0:0:
192,192,149801,1,2,0:0:0:0:
320,192,149801,128,0,150001:0:0:0:0:
448,192,150001,1,0,0:0:0:0:
64,192,150201,1,8,0:0:0:0:
192,192,150201,128,0,150401:0:0:0:0:
320,192,150301,128,0,150401:0:0:0:0:
64,192,150601,128,0,150801:0:0:0:0:
448,192,150601,1,0,0:0:0:0:
320,192,150801,128,0,151001:0:0:0:0:
64,192,151001,1,2,0:0:0:0:
192,192,151001,128,4,151301:0:0:0:0:
448,192,151001,128,0,151401:0:0:0:0:
64,192,151201,1,2,0:0:0:0:
192,192,151401,128,2,151801:0:0:0:0:
320,192,151401,128,0,151701:0:0:0:0:
64,192,151801,128,8,152101:0:0:0:0:
320,192,151801,128,0,152201:0:0:0:0:
64,192,152201,128,0,152601:0:0:0:0:
192,192,152601,128,4,152901:0:0:0:0:
448,192,152601,128,0,153001:0:0:0:0:
192,192,153001,128,2,153401:0:0:0:0:
320,192,153001,128,0,153301:0:0:0:0:
64,192,153401,128,4,153701:0:0:0:0:
320,192,153401,128,0,153801:0:0:0:0:
64,192,153801,1,8,0:0:0:0:
448,192,153801,128,2,154201:0:0:0:0:
192,192,154001,1,8,0:0:0:0:
320,192,154001,1,0,0:0:0:0:
64,192,154201,128,2,154401:0:0:0:0:
192,192,154201,128,4,154501:0:0:0:0:
320,192,154301,128,0,154601:0:0:0:0:
448,192,154401,1,2,0:0:0:0:
192,192,154601,128,8,155301:0:0:0:0:
448,192,154601,128,0,154801:0:0:0:0:
64,192,154701,128,0,155401:0:0:0:0:
320,192,155001,128,0,155201:0:0:0:0:
448,192,155201,1,2,0:0:0:0:
192,192,155401,128,8,155601:0:0:0:0:
320,192,155401,1,0,0:0:0:0:
192,192,155801,1,2,0:0:0:0:
448,192,155801,128,0,156001:0:0:0:0:
64,192,156201,1,8,0:0:0:0:
320,192,156201,128,0,156401:0:0:0:0:
64,192,156401,1,0,0:0:0:0:
192,192,156601,128,0,156801:0:0:0:0:
448,192,156601,1,0,0:0:0:0:
448,192,156801,1,2,0:0:0:0:
64,192,157001,128,8,157201:0:0:0:0:
320,192,157001,1,0,0:0:0:0:
320,192,157201,1,0,0:0:0:0:
64,192,157401,128,2,157601:0:0:0:0:
192,192,157401,128,0,157701:0:0:0:0:
448,192,157401,1,0,0:0:0:0:
320,192,157501,128,0,157801:0:0:0:0:
448,192,157601,1,2,0:0:0:0:
192,192,157801,128,8,158501:0:0:0:0:
448,192,157801,128,0,158001:0:0:0:0:
64,192,157901,128,0,158601:0:0:0:0:
320,192,158201,128,0,158401:0:0:0:0:
448,192,158201,1,0,0:0:0:0:
448,192,158401,1,2,0:0:0:0:
192,192,158601,128,8,158801:0:0:0:0:
320,192,158601,1,0,0:0:0:0:
192,192,159001,1,2,0:0:0:0:
448,192,159001,128,0,159201:0:0:0:0:
64,192,159401,1,8,0:0:0:0:
320,192,159401,128,0,159601:0:0:0:0:
64,192,159601,1,0,0:0:0:0:
192,192,159801,128,0,160001:0:0:0:0:
448,192,159801,1,0,0:0:0:0:
448,192,160001,1,2,0:0:0:0:
64,192,160201,128,8,160401:0:0:0:0:
320,192,160201,1,0,0:0:0:0:
192,192,160301,128,0,160401:0:0:0:0:
64,192,160601,1,2,0:0:0:0:
448,192,160601,128,0,160801:0:0:0:0:
64,192,160801,1,2,0:0:0:0:
192,192,161001,128,8,161201:0:0:0:0:
448,192,161001,1,0,0:0:0:0:
448,192,161201,1,0,0:0:0:0:
64,192,161401,1,0,0:0:0:0:
320,192,161401,128,0,161601:0:0:0:0:
192,192,161501,128,0,161601:0:0:0:0:
448,192,161601,1,2,0:0:0:0:
64,192,161801,128,8,162001:0:0:0:0:
448,192,161801,1,0,0:0:0:0:
192,192,162001,1,0,0:0:0:0:
320,192,162001,1,0,0:0:0:0:
320,192,162201,1,2,0:0:0:0:
448,192,162201,128,0,162401:0:0:0:0:
64,192,162401,1,0,0:0:0:0:
192,192,162401,1,0,0:0:0:0:
192,192,162601,1,8,0:0:0:0:
320,192,162601,128,0,163001:0:0:0:0:
192,192,163001,128,0,163401:0:0:0:0:
448,192,163001,1,0,0:0:0:0:
64,192,163201,1,2,0:0:0:0:
320,192,163201,1,0,0:0:0:0:
64,192,163401,128,8,163601:0:0:0:0:
448,192,163401,1,0,0:0:0:0:
320,192,163601,128,0,163801:0:0:0:0:
64,192,163801,1,2,0:0:0:0:
192,192,163801,128,4,164101:0:0:0:0:
448,192,163801,128,0,164201:0:0:0:0:
64,192,164001,1,2,0:0:0:0:
192,192,164201,128,2,164601:0:0:0:0:
320,192,164201,128,0,164501:0:0:0:0:
64,192,164601,128,8,164901:0:0:0:0:
320,192,164601,128,0,165001:0:0:0:0:
64,192,165001,128,0,165401:0:0:0:0:
192,192,165401,128,4,165701:0:0:0:0:
448,192,165401,128,0,165801:0:0:0:0:
192,192,165801,128,0,166201:0:0:0:0:
320,192,165801,128,0,166101:0:0:0:0:
64,192,166201,128,4,166501:0:0:0:0:
320,192,166201,128,0,166601:0:0:0:0:
64,192,166601,128,0,167001:0:0:0:0:
192,192,167001,1,4,0:0:0:0:
320,192,167001,1,2,0:0:0:0:
448,192,167001,128,0,168201:0:0:0:0:
64,192,167401,1,0,0:0:0:0:
320,192,167801,1,0,0:0:0:0:
64,192,168201,128,0,170201:0:0:0:0:
192,192,168201,1,0,0:0:0:0:
448,192,168601,1,0,0:0:0:0:
320,192,169001,1,0,0:0:0:0:
192,192,169401,1,0,0:0:0:0:
192,192,169801,1,0,0:0:0:0:
320,192,170201,128,0,171401:0:0:0:0:
448,192,170201,1,0,0:0:0:0:
64,192,170601,1,0,0:0:0:0:
192,192,171001,1,0,0:0:0:0:
192,192,171401,128,0,172601:0:0:0:0:
448,192,171401,1,0,0:0:0:0:
320,192,171801,1,0,0:0:0:0:
64,192,172201,1,0,0:0:0:0:
320,192,172601,1,0,0:0:0:0:
448,192,172601,128,0,173401:0:0:0:0:
64,192,173401,128,0,176601:0:0:0:0:
