osu file format v14

[General]
AudioFilename: audio.ogg
AudioLeadIn: 0
PreviewTime: 143382
Countdown: 0
SampleSet: Normal
StackLeniency: 0.7
Mode: 1
LetterboxInBreaks: 0
WidescreenStoryboard: 0

[Editor]
Bookmarks: 2390,7190,19190,28790,47990,69590,93590,103190,122390,136790,143990,167990,176390,190790,207590,217190,233990,257990,267590
DistanceSpacing: 0.1
BeatDivisor: 4
GridSize: 32
TimelineZoom: 2.899999

[Metadata]
Title:Susume! Lovely Idol * La priere
TitleUnicode:進め!ラブリーアイドル☆ラプリエール
Artist:La priere
ArtistUnicode:La prière
Creator:komasy
Version:Oni!
Source:osu!
Tags:Japanese 日本語 J-POP J POP Electronic Kawaii 電波 Denpa 棗いつき Natsume Itsuki 藍月なくる Aitsuki Nakuru nayuta ARM IOSYS かたほとり Katahotori Featured Artist FA
BeatmapID:2890207
BeatmapSetID:1400986

[Difficulty]
HPDrainRate:5.5
CircleSize:7
OverallDifficulty:5.5
ApproachRate:10
SliderMultiplier:1.4
SliderTickRate:1

[Events]
//Background and Video events
0,0,"Susume! Lovely Idol La priere.jpg",0,90
//Break Periods
2,168182,174732
2,207782,215382
//Storyboard Layer 0 (Background)
//Storyboard Layer 1 (Fail)
//Storyboard Layer 2 (Pass)
//Storyboard Layer 3 (Foreground)
//Storyboard Layer 4 (Overlay)
//Storyboard Sound Samples

[TimingPoints]
2382,300,4,1,0,80,1,0
7107,-100,4,1,0,90,0,0
14381,-100,4,1,0,90,0,0
14531,-99.3804621986536,4,1,0,90,0,0
14681,-98.7685536728074,4,1,0,90,0,0
14981,-97.5671627956895,4,1,0,90,0,0
15131,-96.9773140969133,4,1,0,90,0,0
15206,-96.6850561643491,4,1,0,90,0,0
15281,-96.3945544788284,4,1,0,90,0,0
15431,-95.8188487173689,4,1,0,90,0,0
15581,-95.2498880813815,4,1,0,90,0,0
15731,-94.6876443986577,4,1,0,90,0,0
15881,-94.1319994201469,4,1,0,90,0,0
16181,-93.0401328613097,4,1,0,90,0,0
16331,-92.5036007026573,4,1,0,90,0,0
16406,-92.2376484564952,4,1,0,90,0,0
16481,-91.9732210769512,4,1,0,90,0,0
16631,-91.4489723878973,4,1,0,90,0,0
16781,-90.9305835924855,4,1,0,90,0,0
16931,-91.4272339787486,4,1,0,100,0,0
17081,-91.9513172945716,4,1,0,100,0,0
17231,-92.481358070247,4,1,0,100,0,0
17531,-93.5601605866596,4,1,0,100,0,0
17681,-94.1090554556431,4,1,0,100,0,0
17831,-94.6643391861139,4,1,0,100,0,0
18131,-95.7949834083089,4,1,0,100,0,0
18281,-96.3704944384588,4,1,0,100,0,0
18431,-96.9528683021323,4,1,0,100,0,0
18581,-97.542418759358,4,1,0,100,0,0
19182,-100,4,1,0,100,0,1
28782,-100,4,1,0,90,0,0
47906,-111.111111111111,4,1,0,80,0,0
57280,-109.89010989011,4,1,0,80,0,0
57430,-108.167746541336,4,1,0,80,0,0
57580,-105.376298762882,4,1,0,80,0,0
62306,-90.9090909090909,4,1,0,80,0,0
62418,-83.3333333333333,4,1,0,70,0,0
64106,-100,4,1,0,100,0,0
67181,-100,4,1,0,90,0,0
67481,-102.550429173546,4,1,0,90,0,0
67781,-105.23446765566,4,1,0,90,0,0
68081,-108.062663377239,4,1,0,90,0,0
68381,-111.047197279788,4,1,0,90,0,0
68906,-107.52688172043,4,1,0,100,0,0
69206,-104.166666666667,4,1,0,100,0,0
69506,-100,4,1,0,100,0,0
69582,-100,4,1,0,100,0,1
88781,-99.4166232547412,4,1,0,100,0,1
88931,-98.8400136003859,4,1,0,100,0,1
89081,-98.2700539699136,4,1,0,100,0,1
89381,-97.1496298599102,4,1,0,100,0,1
89531,-96.598944366736,4,1,0,100,0,1
89831,-95.516092551273,4,1,0,100,0,1
89981,-94.9837197904279,4,1,0,100,0,1
90131,-94.4572486492613,4,1,0,100,0,1
90281,-93.936581535074,4,1,0,100,0,1
90581,-92.9122796585288,4,1,0,100,0,1
90731,-92.4084601793463,4,1,0,100,0,1
91031,-91.4170372103908,4,1,0,100,0,1
91182,-90.9090909090909,4,1,0,100,0,0
91331,-91.4272339787486,4,1,0,100,0,0
91481,-91.9513172945716,4,1,0,100,0,0
91631,-92.481358070247,4,1,0,100,0,0
91931,-93.5601605866596,4,1,0,100,0,0
92081,-94.1090554556431,4,1,0,100,0,0
92231,-94.6643391861139,4,1,0,100,0,0
92531,-95.7949834083089,4,1,0,100,0,0
92681,-96.3704944384588,4,1,0,100,0,0
92831,-96.9528683021323,4,1,0,100,0,0
92981,-97.542418759358,4,1,0,100,0,0
93582,-100,4,1,0,100,0,1
100782,-100,4,1,0,90,0,0
117656,-100,4,1,0,80,0,0
119906,-100,4,1,0,100,0,0
122306,-111.111111111111,4,1,0,80,0,0
131831,-108.167746541336,4,1,0,80,0,0
131906,-106.75377774931,4,1,0,80,0,0
131980,-105.376298762882,4,1,0,80,0,0
136706,-90.9090909090909,4,1,0,80,0,0
136818,-83.3333333333333,4,1,0,70,0,0
138506,-100,4,1,0,90,0,0
139106,-100,4,1,0,100,0,0
141581,-100,4,1,0,90,0,0
141881,-102.550429173546,4,1,0,90,0,0
142181,-105.23446765566,4,1,0,90,0,0
142481,-108.062663377239,4,1,0,90,0,0
142781,-111.047197279788,4,1,0,90,0,0
143306,-107.52688172043,4,1,0,100,0,0
143606,-104.166666666667,4,1,0,100,0,0
143906,-100,4,1,0,100,0,0
143982,-100,4,1,0,100,0,1
163181,-99.4166232547412,4,1,0,100,0,1
163331,-98.8400136003859,4,1,0,100,0,1
163481,-98.2700539699136,4,1,0,100,0,1
163781,-97.1496298599102,4,1,0,100,0,1
163931,-96.598944366736,4,1,0,100,0,1
164231,-95.516092551273,4,1,0,100,0,1
164381,-94.9837197904279,4,1,0,100,0,1
164531,-94.4572486492613,4,1,0,100,0,1
164681,-93.936581535074,4,1,0,100,0,1
164981,-92.9122796585288,4,1,0,100,0,1
165131,-92.4084601793463,4,1,0,100,0,1
165431,-91.4170372103908,4,1,0,100,0,1
165582,-90.9090909090909,4,1,0,100,0,0
165731,-91.4272339787486,4,1,0,100,0,0
165881,-91.9513172945716,4,1,0,100,0,0
166031,-92.481358070247,4,1,0,100,0,0
166331,-93.5601605866596,4,1,0,100,0,0
166481,-94.1090554556431,4,1,0,100,0,0
166631,-94.6643391861139,4,1,0,100,0,0
166931,-95.7949834083089,4,1,0,100,0,0
167081,-96.3704944384588,4,1,0,100,0,0
167231,-96.9528683021323,4,1,0,100,0,0
167381,-97.542418759358,4,1,0,100,0,0
167981,-99.9740067582429,4,1,0,100,0,0
168056,-125,4,1,0,20,0,0
175106,-125,4,1,0,30,0,0
176306,-111.111111111111,4,1,0,70,0,0
185906,-100,4,1,0,80,0,0
190706,-100,4,1,0,60,0,0
191381,-102.270089169291,4,1,0,60,0,0
191981,-104.645528967452,4,1,0,60,0,0
192281,-105.875116065596,4,1,0,60,0,0
192581,-107.134056845331,4,1,0,60,0,0
192881,-108.4231800085,4,1,0,60,0,0
193181,-109.743704552388,4,1,0,60,0,0
193781,-112.483788274015,4,1,0,60,0,0
194381,-115.364071705692,4,1,0,60,0,0
194681,-116.860245663608,4,1,0,60,0,0
194981,-118.395877929114,4,1,0,60,0,0
195281,-119.97226241293,4,1,0,60,0,0
195581,-121.591190961397,4,1,0,60,0,0
196181,-124.963916669062,4,1,0,60,0,0
196781,-123.456790123457,4,1,0,60,0,0
196931,-119.957726897041,4,1,0,60,0,0
197081,-116.651540850203,4,1,0,60,0,0
197231,-113.522711921361,4,1,0,60,0,0
197381,-110.557341670831,4,1,0,60,0,0
197531,-107.74294687734,4,1,0,60,0,0
197681,-105.068283877692,4,1,0,60,0,0
197831,-102.523198436726,4,1,0,60,0,0
197980,-100,4,1,0,90,0,0
202782,-111.111111111111,4,1,0,90,0,0
202982,-109.758399810337,4,1,0,90,0,0
203182,-108.438229247092,4,1,0,90,0,0
203382,-107.149439179835,4,1,0,90,0,0
203582,-105.891036006129,4,1,0,90,0,0
203782,-104.661738494273,4,1,0,90,0,0
203982,-103.460655464637,4,1,0,90,0,0
204182,-102.286826581891,4,1,0,90,0,0
204382,-101.139334604318,4,1,0,90,0,0
204582,-100.017302993418,4,1,0,90,0,0
204782,-98.9198936808983,4,1,0,90,0,0
204982,-97.8464007201495,4,1,0,90,0,0
205182,-96.7958633319846,4,1,0,90,0,1
205382,-95.7676447096995,4,1,0,90,0,1
205582,-94.7610410827018,4,1,0,90,0,1
205782,-93.7753779616609,4,1,0,90,0,1
205982,-92.8100086313308,4,1,0,90,0,1
206182,-91.8643127355171,4,1,0,90,0,1
206382,-90.9377776444024,4,1,0,90,0,1
206455,-83.3333333333333,4,1,0,50,0,1
207505,-100,4,1,0,80,0,1
207582,-100,4,1,0,80,0,0
207656,-125,4,1,0,20,0,0
215756,-111.111111111111,4,1,0,80,0,0
228956,-100,4,1,0,90,0,0
233306,-100,4,1,0,100,0,0
233606,-97.0873786407767,4,1,0,100,0,0
233907,-94.3396226415094,4,1,0,100,0,0
233982,-90.9090909090909,4,1,0,100,0,1
253181,-90.4267055380931,4,1,0,100,0,1
253331,-89.9494124504379,4,1,0,100,0,1
253481,-89.4771314347479,4,1,0,100,0,1
253781,-88.5472931092497,4,1,0,100,0,1
253931,-88.0895835829205,4,1,0,100,0,1
254231,-87.1882149433625,4,1,0,100,0,1
254381,-86.744412792372,4,1,0,100,0,1
254531,-86.3051058100597,4,1,0,100,0,1
254681,-85.8702260447831,4,1,0,100,0,1
254981,-85.0134831384257,4,1,0,100,0,1
255131,-84.5914907727602,4,1,0,100,0,1
255431,-83.759950682141,4,1,0,100,0,1
255582,-83.3333333333333,4,1,0,100,0,0
255731,-84.2082571248606,4,1,0,100,0,0
255881,-85.1016752264768,4,1,0,100,0,0
256031,-86.0143282668027,4,1,0,100,0,0
256331,-87.8995694679087,4,1,0,100,0,0
256481,-88.873484151636,4,1,0,100,0,0
256631,-89.8693030725416,4,1,0,100,0,0
256931,-91.9293394325386,4,1,0,100,0,0
257081,-92.9951410038825,4,1,0,100,0,0
257231,-94.0860341513487,4,1,0,100,0,0
257381,-95.2027342225269,4,1,0,100,0,0
257982,-100,4,1,0,100,0,1
267582,-100,4,1,0,100,0,0
267656,-100,4,1,0,80,0,0
272306,-100,4,1,0,90,0,0
272382,-100,4,1,0,90,0,1
273731,-99.0126458951337,4,1,0,90,0,1
273881,-98.0445023996392,4,1,0,90,0,1
274031,-97.0952028173144,4,1,0,90,0,1
274181,-96.16410982326,4,1,0,90,0,1
274481,-94.354398896431,4,1,0,90,0,1
274781,-92.6116294275305,4,1,0,90,0,1
274931,-91.7640818865961,4,1,0,90,0,1
275081,-90.9319892372898,4,1,0,90,0,1
275231,-90.1148513780814,4,1,0,90,0,1
275381,-89.3121889703019,4,1,0,90,0,1
275531,-88.5237774866329,4,1,0,90,0,1
275681,-87.7491637504695,4,1,0,90,0,1
275831,-86.9879886985205,4,1,0,90,0,1
276282,-100,4,1,0,90,0,0
276806,-105.263157894737,4,1,0,90,0,0
277106,-111.111111111111,4,1,0,90,0,0
277706,-86.9565217391304,4,1,0,90,0,0
277782,-86.9565217391304,4,1,0,90,0,1
277818,-76.9230769230769,4,1,0,80,0,1
278381,-86.9565217391304,4,1,0,60,0,1
279581,-100,4,1,0,40,0,1
283106,-111.111111111111,4,1,0,10,0,1
283182,-125,4,1,0,10,0,0

[HitObjects]
160,288,2382,5,4,0:0:0:0:
160,288,4782,5,4,0:0:0:0:
352,96,5982,5,8,0:0:0:0:
352,96,6057,5,8,0:0:0:0:
352,96,6132,5,8,0:0:0:0:
352,96,6282,5,8,0:0:0:0:
352,96,6432,5,8,0:0:0:0:
352,96,6507,5,8,0:0:0:0:
352,96,6582,5,8,0:0:0:0:
160,96,6732,5,0,0:0:0:0:
160,96,6882,5,0,0:0:0:0:
160,288,7182,5,4,0:0:0:0:
160,96,7482,5,0,0:0:0:0:
352,96,7632,5,8,0:0:0:0:
160,96,7782,5,0,0:0:0:0:
352,96,7932,5,8,0:0:0:0:
352,96,8232,5,8,0:0:0:0:
160,96,8382,5,0,0:0:0:0:
160,96,8532,5,0,0:0:0:0:
352,96,8682,5,8,0:0:0:0:
352,96,8832,5,8,0:0:0:0:
160,96,8982,5,0,0:0:0:0:
160,96,9282,5,0,0:0:0:0:
160,96,9432,5,0,0:0:0:0:
160,96,9582,5,0,0:0:0:0:
160,96,9882,5,0,0:0:0:0:
352,96,10032,5,8,0:0:0:0:
160,96,10182,5,0,0:0:0:0:
352,96,10332,5,8,0:0:0:0:
352,96,10632,5,8,0:0:0:0:
160,96,10782,5,0,0:0:0:0:
160,96,10932,5,0,0:0:0:0:
160,96,11007,5,0,0:0:0:0:
352,96,11082,5,8,0:0:0:0:
352,96,11232,5,8,0:0:0:0:
160,96,11382,5,0,0:0:0:0:
160,96,11607,5,0,0:0:0:0:
160,96,11682,5,0,0:0:0:0:
160,96,11832,5,0,0:0:0:0:
160,288,11982,5,4,0:0:0:0:
160,96,12282,5,0,0:0:0:0:
352,96,12432,5,8,0:0:0:0:
160,96,12582,5,0,0:0:0:0:
352,96,12732,5,8,0:0:0:0:
160,96,12882,5,0,0:0:0:0:
160,96,13182,5,0,0:0:0:0:
352,96,13332,5,8,0:0:0:0:
160,96,13482,5,0,0:0:0:0:
352,96,13632,5,8,0:0:0:0:
352,96,13707,5,8,0:0:0:0:
160,96,13782,5,0,0:0:0:0:
352,96,13932,5,8,0:0:0:0:
160,96,14082,5,0,0:0:0:0:
352,288,14382,5,12,0:0:0:0:
160,96,14532,5,0,0:0:0:0:
160,96,14682,5,0,0:0:0:0:
352,288,14982,5,12,0:0:0:0:
160,96,15132,5,0,0:0:0:0:
160,96,15207,5,0,0:0:0:0:
352,96,15282,5,8,0:0:0:0:
160,96,15432,5,0,0:0:0:0:
352,288,15582,5,12,0:0:0:0:
160,96,15732,5,0,0:0:0:0:
160,96,15882,5,0,0:0:0:0:
352,288,16182,5,12,0:0:0:0:
160,96,16332,5,0,0:0:0:0:
160,96,16407,5,0,0:0:0:0:
352,96,16482,5,8,0:0:0:0:
160,96,16632,5,0,0:0:0:0:
352,96,16782,5,8,0:0:0:0:
352,96,16932,5,8,0:0:0:0:
352,96,17082,5,8,0:0:0:0:
352,96,17232,5,8,0:0:0:0:
352,96,17532,5,8,0:0:0:0:
352,96,17682,5,8,0:0:0:0:
352,96,17832,5,8,0:0:0:0:
352,96,18132,5,8,0:0:0:0:
352,96,18282,5,8,0:0:0:0:
352,96,18432,5,8,0:0:0:0:
352,288,18582,5,8,0:0:0:0:
160,288,19182,5,4,0:0:0:0:
352,96,19482,5,8,0:0:0:0:
160,96,19632,5,0,0:0:0:0:
160,96,19707,5,0,0:0:0:0:
352,96,19782,5,8,0:0:0:0:
160,96,19932,5,0,0:0:0:0:
352,96,20082,5,8,0:0:0:0:
160,96,20157,5,0,0:0:0:0:
160,96,20232,5,0,0:0:0:0:
352,96,20382,5,8,0:0:0:0:
352,96,20682,5,8,0:0:0:0:
352,96,20832,5,8,0:0:0:0:
352,96,20907,5,8,0:0:0:0:
160,96,20982,5,0,0:0:0:0:
352,96,21132,5,8,0:0:0:0:
352,96,21282,5,8,0:0:0:0:
160,96,21432,5,0,0:0:0:0:
352,96,21507,5,8,0:0:0:0:
160,96,21582,5,0,0:0:0:0:
160,96,21732,5,0,0:0:0:0:
352,288,21882,5,12,0:0:0:0:
160,96,22182,5,0,0:0:0:0:
160,96,22332,5,0,0:0:0:0:
352,288,22482,5,12,0:0:0:0:
160,96,22782,5,0,0:0:0:0:
160,96,23007,5,0,0:0:0:0:
352,96,23082,5,8,0:0:0:0:
160,96,23232,5,0,0:0:0:0:
352,96,23382,5,8,0:0:0:0:
160,96,23532,5,0,0:0:0:0:
160,96,23607,5,0,0:0:0:0:
352,96,23682,5,8,0:0:0:0:
160,96,23832,5,0,0:0:0:0:
352,96,23907,5,8,0:0:0:0:
160,96,23982,5,0,0:0:0:0:
352,96,24282,5,8,0:0:0:0:
160,96,24432,5,0,0:0:0:0:
160,96,24507,5,0,0:0:0:0:
352,96,24582,5,8,0:0:0:0:
160,96,24732,5,0,0:0:0:0:
352,96,24882,5,8,0:0:0:0:
160,96,24957,5,0,0:0:0:0:
160,96,25032,5,0,0:0:0:0:
352,96,25182,5,8,0:0:0:0:
160,96,25407,5,0,0:0:0:0:
352,96,25482,5,8,0:0:0:0:
160,96,25632,5,0,0:0:0:0:
352,96,25707,5,8,0:0:0:0:
160,96,25782,5,0,0:0:0:0:
352,96,25932,5,8,0:0:0:0:
352,96,26082,5,8,0:0:0:0:
160,96,26232,5,0,0:0:0:0:
160,288,26382,5,4,0:0:0:0:
352,96,26682,5,8,0:0:0:0:
160,288,26982,5,4,0:0:0:0:
160,96,27132,5,0,0:0:0:0:
352,96,27282,5,8,0:0:0:0:
160,288,27432,5,4,0:0:0:0:
160,96,27732,5,0,0:0:0:0:
352,96,27882,5,8,0:0:0:0:
160,96,28032,5,0,0:0:0:0:
352,288,28332,5,12,0:0:0:0:
352,288,28482,5,12,0:0:0:0:
160,288,28782,5,4,0:0:0:0:
160,96,29082,5,0,0:0:0:0:
352,96,29232,5,8,0:0:0:0:
160,96,29382,5,0,0:0:0:0:
160,96,29532,5,0,0:0:0:0:
352,96,29682,5,8,0:0:0:0:
160,96,29832,5,0,0:0:0:0:
352,96,29982,5,8,0:0:0:0:
352,96,30282,5,8,0:0:0:0:
160,96,30582,5,0,0:0:0:0:
352,96,30732,5,8,0:0:0:0:
160,96,30882,5,0,0:0:0:0:
352,96,31032,5,8,0:0:0:0:
160,96,31182,5,0,0:0:0:0:
352,96,31482,5,8,0:0:0:0:
160,96,31782,5,0,0:0:0:0:
352,96,31932,5,8,0:0:0:0:
160,96,32082,5,0,0:0:0:0:
160,96,32157,5,0,0:0:0:0:
352,96,32232,5,8,0:0:0:0:
160,96,32382,5,0,0:0:0:0:
160,96,32532,5,0,0:0:0:0:
352,96,32682,5,8,0:0:0:0:
352,96,32832,5,8,0:0:0:0:
160,96,32982,5,0,0:0:0:0:
352,96,33282,5,8,0:0:0:0:
352,96,33432,5,8,0:0:0:0:
160,96,33582,5,0,0:0:0:0:
160,96,33732,5,0,0:0:0:0:
352,288,33882,5,12,0:0:0:0:
160,96,34182,5,0,0:0:0:0:
352,96,34482,5,8,0:0:0:0:
352,96,34632,5,8,0:0:0:0:
160,96,34782,5,0,0:0:0:0:
160,96,34932,5,0,0:0:0:0:
352,288,35082,5,12,0:0:0:0:
160,96,35382,5,0,0:0:0:0:
160,96,35682,5,0,0:0:0:0:
352,96,35832,5,8,0:0:0:0:
160,96,35982,5,0,0:0:0:0:
352,96,36282,5,8,0:0:0:0:
160,96,36582,5,0,0:0:0:0:
352,96,36732,5,8,0:0:0:0:
160,96,36882,5,0,0:0:0:0:
352,96,37032,5,8,0:0:0:0:
352,96,37107,5,8,0:0:0:0:
160,96,37182,5,0,0:0:0:0:
352,96,37332,5,8,0:0:0:0:
160,96,37482,5,0,0:0:0:0:
352,96,37632,5,8,0:0:0:0:
160,288,37782,5,4,0:0:0:0:
160,288,37932,5,4,0:0:0:0:
352,288,38082,5,12,0:0:0:0:
160,288,38382,5,4,0:0:0:0:
352,96,38682,5,8,0:0:0:0:
352,96,38832,5,8,0:0:0:0:
160,96,38982,5,0,0:0:0:0:
160,96,39132,5,0,0:0:0:0:
352,96,39282,5,8,0:0:0:0:
160,96,39432,5,0,0:0:0:0:
352,96,39582,5,8,0:0:0:0:
352,96,39882,5,8,0:0:0:0:
352,96,40032,5,8,0:0:0:0:
160,96,40182,5,0,0:0:0:0:
160,96,40332,5,0,0:0:0:0:
160,96,40407,5,0,0:0:0:0:
352,96,40482,5,8,0:0:0:0:
352,96,40632,5,8,0:0:0:0:
160,96,40782,5,0,0:0:0:0:
352,96,41082,5,8,0:0:0:0:
352,96,41232,5,8,0:0:0:0:
160,96,41382,5,0,0:0:0:0:
160,96,41532,5,0,0:0:0:0:
352,96,41682,5,8,0:0:0:0:
160,96,41832,5,0,0:0:0:0:
352,96,41982,5,8,0:0:0:0:
352,96,42282,5,8,0:0:0:0:
352,96,42432,5,8,0:0:0:0:
160,96,42582,5,0,0:0:0:0:
160,96,42732,5,0,0:0:0:0:
160,96,42807,5,0,0:0:0:0:
352,96,42882,5,8,0:0:0:0:
352,96,43032,5,8,0:0:0:0:
160,96,43182,5,0,0:0:0:0:
160,96,43332,5,0,0:0:0:0:
352,288,43482,5,12,0:0:0:0:
160,96,43782,5,0,0:0:0:0:
352,96,44082,5,8,0:0:0:0:
352,96,44232,5,8,0:0:0:0:
160,96,44382,5,0,0:0:0:0:
160,96,44532,5,0,0:0:0:0:
352,288,44682,5,12,0:0:0:0:
160,288,44982,5,4,0:0:0:0:
352,96,45132,5,8,0:0:0:0:
352,96,45207,5,8,0:0:0:0:
352,96,45282,5,8,0:0:0:0:
160,288,45432,5,4,0:0:0:0:
160,96,45732,5,0,0:0:0:0:
352,96,45882,5,8,0:0:0:0:
160,288,46182,5,4,0:0:0:0:
160,96,46332,5,0,0:0:0:0:
352,96,46482,5,8,0:0:0:0:
160,288,46782,5,4,0:0:0:0:
160,288,46932,5,4,0:0:0:0:
160,288,47082,5,4,0:0:0:0:
160,288,47232,5,4,0:0:0:0:
352,96,47382,5,8,0:0:0:0:
352,96,47532,5,8,0:0:0:0:
352,96,47682,5,8,0:0:0:0:
160,288,47982,5,4,0:0:0:0:
160,96,48282,5,0,0:0:0:0:
352,96,48582,5,8,0:0:0:0:
352,96,49032,5,8,0:0:0:0:
160,96,49182,5,0,0:0:0:0:
160,96,49332,5,0,0:0:0:0:
160,96,49632,5,0,0:0:0:0:
352,96,49782,5,8,0:0:0:0:
160,96,50382,5,0,0:0:0:0:
160,96,50682,5,0,0:0:0:0:
352,96,50982,5,8,0:0:0:0:
352,96,51432,5,8,0:0:0:0:
160,96,51582,5,0,0:0:0:0:
352,96,51732,5,8,0:0:0:0:
160,96,52032,5,0,0:0:0:0:
352,96,52182,5,8,0:0:0:0:
352,96,52482,5,8,0:0:0:0:
160,96,52782,5,0,0:0:0:0:
160,96,53082,5,0,0:0:0:0:
160,96,53232,5,0,0:0:0:0:
352,96,53382,5,8,0:0:0:0:
160,96,53982,5,0,0:0:0:0:
352,96,54282,5,8,0:0:0:0:
160,96,54432,5,0,0:0:0:0:
352,96,54582,5,8,0:0:0:0:
352,96,54732,5,8,0:0:0:0:
352,96,55032,5,8,0:0:0:0:
160,288,55182,5,4,0:0:0:0:
352,96,55482,5,0,0:0:0:0:
160,288,55632,5,12,0:0:0:0:
352,96,55932,5,0,0:0:0:0:
160,288,56232,5,4,0:0:0:0:
160,96,56532,5,0,0:0:0:0:
352,96,56682,5,8,0:0:0:0:
160,96,56832,5,0,0:0:0:0:
160,96,56907,5,0,0:0:0:0:
352,96,56982,5,8,0:0:0:0:
352,96,57282,5,8,0:0:0:0:
352,96,57432,5,8,0:0:0:0:
160,288,57582,5,4,0:0:0:0:
160,96,57882,5,0,0:0:0:0:
160,96,58032,5,0,0:0:0:0:
352,96,58182,5,8,0:0:0:0:
352,96,58482,5,8,0:0:0:0:
352,96,58632,5,8,0:0:0:0:
160,96,58782,5,0,0:0:0:0:
160,96,58932,5,0,0:0:0:0:
352,96,59082,5,8,0:0:0:0:
160,96,59182,5,0,0:0:0:0:
160,96,59282,5,0,0:0:0:0:
352,96,59382,5,8,0:0:0:0:
352,96,59582,5,8,0:0:0:0:
352,96,59682,5,8,0:0:0:0:
352,96,59882,5,8,0:0:0:0:
160,96,59982,5,0,0:0:0:0:
160,96,60282,5,0,0:0:0:0:
160,96,60482,5,0,0:0:0:0:
352,96,60582,5,8,0:0:0:0:
352,96,60782,5,8,0:0:0:0:
352,96,60882,5,8,0:0:0:0:
352,96,61082,5,8,0:0:0:0:
160,96,61182,5,0,0:0:0:0:
160,96,61332,5,0,0:0:0:0:
160,96,61632,5,0,0:0:0:0:
352,96,61782,5,8,0:0:0:0:
352,96,61932,5,8,0:0:0:0:
160,288,62382,5,4,0:0:0:0:
256,192,62457,12,0,64032,0:0:0:0:
352,96,64182,5,8,0:0:0:0:
352,96,64482,5,8,0:0:0:0:
352,288,64782,5,12,0:0:0:0:
160,288,65232,5,4,0:0:0:0:
352,96,65532,5,8,0:0:0:0:
352,96,65607,5,8,0:0:0:0:
352,96,65682,5,8,0:0:0:0:
352,96,65832,5,8,0:0:0:0:
160,288,65982,5,4,0:0:0:0:
352,288,66432,5,12,0:0:0:0:
160,96,66732,5,0,0:0:0:0:
160,96,66807,5,0,0:0:0:0:
160,96,66882,5,0,0:0:0:0:
160,96,67032,5,0,0:0:0:0:
352,96,67182,5,8,0:0:0:0:
352,96,67482,5,8,0:0:0:0:
160,96,67782,5,0,0:0:0:0:
160,96,68082,5,0,0:0:0:0:
352,96,68382,5,8,0:0:0:0:
352,96,68982,5,8,0:0:0:0:
352,96,69282,5,8,0:0:0:0:
352,288,69582,5,12,0:0:0:0:
160,96,69807,5,0,0:0:0:0:
352,96,69882,5,8,0:0:0:0:
160,96,70032,5,0,0:0:0:0:
352,96,70182,5,8,0:0:0:0:
352,96,70257,5,8,0:0:0:0:
160,96,70332,5,0,0:0:0:0:
352,96,70482,5,8,0:0:0:0:
160,96,70632,5,0,0:0:0:0:
160,96,70932,5,0,0:0:0:0:
352,96,71082,5,8,0:0:0:0:
160,96,71232,5,0,0:0:0:0:
160,96,71307,5,0,0:0:0:0:
352,96,71382,5,8,0:0:0:0:
160,96,71532,5,0,0:0:0:0:
352,96,71682,5,8,0:0:0:0:
352,96,71832,5,8,0:0:0:0:
160,96,71982,5,0,0:0:0:0:
352,96,72282,5,8,0:0:0:0:
160,96,72432,5,0,0:0:0:0:
352,96,72582,5,8,0:0:0:0:
160,96,72657,5,0,0:0:0:0:
160,96,72732,5,0,0:0:0:0:
352,96,72882,5,8,0:0:0:0:
160,96,73032,5,0,0:0:0:0:
160,96,73332,5,0,0:0:0:0:
352,96,73482,5,8,0:0:0:0:
352,96,73632,5,8,0:0:0:0:
160,96,73782,5,0,0:0:0:0:
352,96,73932,5,8,0:0:0:0:
352,96,74082,5,8,0:0:0:0:
352,96,74232,5,8,0:0:0:0:
352,96,74307,5,8,0:0:0:0:
160,96,74382,5,0,0:0:0:0:
352,96,74682,5,8,0:0:0:0:
160,96,74832,5,0,0:0:0:0:
160,96,74982,5,0,0:0:0:0:
352,96,75132,5,8,0:0:0:0:
352,96,75282,5,8,0:0:0:0:
160,96,75432,5,0,0:0:0:0:
160,96,75582,5,0,0:0:0:0:
352,96,75882,5,8,0:0:0:0:
160,96,76032,5,0,0:0:0:0:
352,96,76182,5,8,0:0:0:0:
160,96,76332,5,0,0:0:0:0:
160,96,76407,5,0,0:0:0:0:
352,96,76482,5,8,0:0:0:0:
352,96,76632,5,8,0:0:0:0:
352,96,76707,5,8,0:0:0:0:
160,96,76782,5,0,0:0:0:0:
352,96,77082,5,8,0:0:0:0:
352,96,77232,5,8,0:0:0:0:
160,96,77382,5,0,0:0:0:0:
160,96,77532,5,0,0:0:0:0:
160,96,77607,5,0,0:0:0:0:
352,96,77682,5,8,0:0:0:0:
160,288,77832,5,4,0:0:0:0:
352,288,78132,5,12,0:0:0:0:
160,288,78432,5,4,0:0:0:0:
352,288,78732,5,12,0:0:0:0:
160,96,78882,5,0,0:0:0:0:
160,96,79032,5,0,0:0:0:0:
160,96,79107,5,0,0:0:0:0:
352,96,79182,5,8,0:0:0:0:
160,96,79407,5,0,0:0:0:0:
352,96,79482,5,8,0:0:0:0:
160,96,79632,5,0,0:0:0:0:
352,96,79782,5,8,0:0:0:0:
352,96,79857,5,8,0:0:0:0:
160,96,79932,5,0,0:0:0:0:
352,96,80082,5,8,0:0:0:0:
160,96,80232,5,0,0:0:0:0:
160,96,80532,5,0,0:0:0:0:
352,96,80682,5,8,0:0:0:0:
160,96,80832,5,0,0:0:0:0:
160,96,80907,5,0,0:0:0:0:
352,96,80982,5,8,0:0:0:0:
160,96,81132,5,0,0:0:0:0:
352,96,81282,5,8,0:0:0:0:
352,96,81432,5,8,0:0:0:0:
160,96,81582,5,0,0:0:0:0:
352,96,81882,5,8,0:0:0:0:
160,96,82032,5,0,0:0:0:0:
352,96,82182,5,8,0:0:0:0:
160,96,82257,5,0,0:0:0:0:
160,96,82332,5,0,0:0:0:0:
352,96,82482,5,8,0:0:0:0:
160,96,82632,5,0,0:0:0:0:
352,288,82782,5,12,0:0:0:0:
160,96,83007,5,0,0:0:0:0:
352,96,83082,5,8,0:0:0:0:
160,96,83232,5,0,0:0:0:0:
160,96,83307,5,0,0:0:0:0:
160,96,83382,5,0,0:0:0:0:
352,96,83532,5,8,0:0:0:0:
352,96,83682,5,8,0:0:0:0:
352,96,83832,5,8,0:0:0:0:
352,96,83907,5,8,0:0:0:0:
160,96,83982,5,0,0:0:0:0:
352,96,84282,5,8,0:0:0:0:
352,96,84432,5,8,0:0:0:0:
160,96,84582,5,0,0:0:0:0:
160,96,84732,5,0,0:0:0:0:
352,96,84882,5,8,0:0:0:0:
352,96,85032,5,8,0:0:0:0:
160,96,85182,5,0,0:0:0:0:
352,96,85482,5,8,0:0:0:0:
160,96,85632,5,0,0:0:0:0:
160,96,85932,5,0,0:0:0:0:
352,96,86082,5,8,0:0:0:0:
160,96,86382,5,0,0:0:0:0:
160,96,86532,5,0,0:0:0:0:
160,96,86607,5,0,0:0:0:0:
352,96,86682,5,8,0:0:0:0:
352,96,86832,5,8,0:0:0:0:
160,96,86982,5,0,0:0:0:0:
160,96,87132,5,0,0:0:0:0:
352,96,87282,5,8,0:0:0:0:
352,96,87432,5,8,0:0:0:0:
160,96,87582,5,0,0:0:0:0:
352,96,87882,5,8,0:0:0:0:
352,96,88032,5,8,0:0:0:0:
160,96,88182,5,0,0:0:0:0:
160,96,88332,5,0,0:0:0:0:
160,96,88407,5,0,0:0:0:0:
352,96,88482,5,8,0:0:0:0:
160,96,88632,5,0,0:0:0:0:
352,288,88782,5,12,0:0:0:0:
160,96,88932,5,0,0:0:0:0:
160,96,89082,5,0,0:0:0:0:
352,288,89382,5,12,0:0:0:0:
160,96,89532,5,0,0:0:0:0:
160,96,89832,5,0,0:0:0:0:
352,288,89982,5,12,0:0:0:0:
160,96,90132,5,0,0:0:0:0:
160,96,90282,5,0,0:0:0:0:
352,288,90582,5,12,0:0:0:0:
160,96,90732,5,0,0:0:0:0:
160,96,91032,5,0,0:0:0:0:
352,96,91182,5,8,0:0:0:0:
352,96,91332,5,8,0:0:0:0:
352,96,91482,5,8,0:0:0:0:
352,96,91632,5,8,0:0:0:0:
352,96,91932,5,8,0:0:0:0:
352,96,92082,5,8,0:0:0:0:
352,96,92232,5,8,0:0:0:0:
352,96,92532,5,8,0:0:0:0:
352,96,92682,5,8,0:0:0:0:
352,96,92832,5,8,0:0:0:0:
352,288,92982,5,8,0:0:0:0:
160,288,93582,5,4,0:0:0:0:
352,96,93882,5,8,0:0:0:0:
160,96,94032,5,0,0:0:0:0:
160,96,94107,5,0,0:0:0:0:
352,96,94182,5,8,0:0:0:0:
160,96,94332,5,0,0:0:0:0:
352,96,94482,5,8,0:0:0:0:
160,96,94557,5,0,0:0:0:0:
160,96,94632,5,0,0:0:0:0:
352,96,94782,5,8,0:0:0:0:
352,96,95082,5,8,0:0:0:0:
352,96,95232,5,8,0:0:0:0:
352,96,95307,5,8,0:0:0:0:
160,96,95382,5,0,0:0:0:0:
352,96,95532,5,8,0:0:0:0:
352,96,95682,5,8,0:0:0:0:
160,96,95832,5,0,0:0:0:0:
352,96,95907,5,8,0:0:0:0:
160,96,95982,5,0,0:0:0:0:
160,96,96132,5,0,0:0:0:0:
352,288,96282,5,12,0:0:0:0:
160,96,96582,5,0,0:0:0:0:
160,96,96732,5,0,0:0:0:0:
352,288,96882,5,12,0:0:0:0:
160,96,97182,5,0,0:0:0:0:
160,96,97407,5,0,0:0:0:0:
352,96,97482,5,8,0:0:0:0:
160,96,97632,5,0,0:0:0:0:
352,96,97782,5,8,0:0:0:0:
160,96,97932,5,0,0:0:0:0:
160,96,98007,5,0,0:0:0:0:
352,96,98082,5,8,0:0:0:0:
160,96,98232,5,0,0:0:0:0:
352,96,98307,5,8,0:0:0:0:
160,96,98382,5,0,0:0:0:0:
352,96,98682,5,8,0:0:0:0:
160,96,98832,5,0,0:0:0:0:
160,96,98907,5,0,0:0:0:0:
352,96,98982,5,8,0:0:0:0:
160,96,99132,5,0,0:0:0:0:
352,96,99282,5,8,0:0:0:0:
160,96,99357,5,0,0:0:0:0:
160,96,99432,5,0,0:0:0:0:
352,96,99582,5,8,0:0:0:0:
160,96,99807,5,0,0:0:0:0:
352,96,99882,5,8,0:0:0:0:
160,96,100032,5,0,0:0:0:0:
352,96,100107,5,8,0:0:0:0:
160,96,100182,5,0,0:0:0:0:
352,96,100332,5,8,0:0:0:0:
352,96,100482,5,8,0:0:0:0:
352,96,100632,5,8,0:0:0:0:
352,96,100707,5,8,0:0:0:0:
160,96,100782,5,0,0:0:0:0:
352,96,100932,5,8,0:0:0:0:
352,96,101007,5,8,0:0:0:0:
352,96,101082,5,8,0:0:0:0:
352,96,101232,5,8,0:0:0:0:
160,96,101382,5,0,0:0:0:0:
352,96,101532,5,8,0:0:0:0:
352,96,101607,5,8,0:0:0:0:
352,96,101682,5,8,0:0:0:0:
352,96,101832,5,8,0:0:0:0:
160,96,101982,5,0,0:0:0:0:
352,96,102132,5,8,0:0:0:0:
352,96,102282,5,8,0:0:0:0:
352,96,102432,5,8,0:0:0:0:
160,288,102582,5,4,0:0:0:0:
160,288,102732,5,4,0:0:0:0:
352,288,102882,5,12,0:0:0:0:
160,288,103182,5,4,0:0:0:0:
160,96,103482,5,0,0:0:0:0:
160,96,103782,5,0,0:0:0:0:
352,96,103932,5,8,0:0:0:0:
160,96,104082,5,0,0:0:0:0:
352,96,104232,5,8,0:0:0:0:
160,96,104382,5,0,0:0:0:0:
160,96,104682,5,0,0:0:0:0:
160,96,104982,5,0,0:0:0:0:
352,96,105132,5,8,0:0:0:0:
160,96,105282,5,0,0:0:0:0:
160,96,105357,5,0,0:0:0:0:
352,96,105432,5,8,0:0:0:0:
160,96,105582,5,0,0:0:0:0:
160,96,105882,5,0,0:0:0:0:
352,96,106032,5,8,0:0:0:0:
160,96,106182,5,0,0:0:0:0:
352,96,106332,5,8,0:0:0:0:
352,96,106407,5,8,0:0:0:0:
160,96,106482,5,0,0:0:0:0:
352,96,106632,5,8,0:0:0:0:
160,96,106782,5,0,0:0:0:0:
160,96,107082,5,0,0:0:0:0:
160,96,107382,5,0,0:0:0:0:
160,96,107532,5,0,0:0:0:0:
352,96,107682,5,8,0:0:0:0:
352,96,107832,5,8,0:0:0:0:
160,288,107982,5,4,0:0:0:0:
160,96,108282,5,0,0:0:0:0:
160,96,108582,5,0,0:0:0:0:
352,96,108732,5,8,0:0:0:0:
160,96,108882,5,0,0:0:0:0:
160,96,109182,5,0,0:0:0:0:
160,96,109482,5,0,0:0:0:0:
352,96,109632,5,8,0:0:0:0:
160,96,109782,5,0,0:0:0:0:
352,96,109932,5,8,0:0:0:0:
160,96,110082,5,0,0:0:0:0:
352,96,110307,5,8,0:0:0:0:
160,96,110382,5,0,0:0:0:0:
160,96,110682,5,0,0:0:0:0:
160,96,110982,5,0,0:0:0:0:
352,96,111132,5,8,0:0:0:0:
352,96,111207,5,8,0:0:0:0:
160,96,111282,5,0,0:0:0:0:
352,96,111432,5,8,0:0:0:0:
160,96,111582,5,0,0:0:0:0:
160,96,111657,5,0,0:0:0:0:
160,96,111732,5,0,0:0:0:0:
352,96,111882,5,8,0:0:0:0:
160,96,112032,5,0,0:0:0:0:
352,96,112182,5,8,0:0:0:0:
160,96,112482,5,0,0:0:0:0:
352,96,112707,5,8,0:0:0:0:
160,96,112782,5,0,0:0:0:0:
352,96,113082,5,8,0:0:0:0:
160,96,113382,5,0,0:0:0:0:
160,96,113532,5,0,0:0:0:0:
160,96,113607,5,0,0:0:0:0:
352,96,113682,5,8,0:0:0:0:
352,96,113832,5,8,0:0:0:0:
160,96,113982,5,0,0:0:0:0:
160,96,114207,5,0,0:0:0:0:
352,96,114282,5,8,0:0:0:0:
352,96,114432,5,8,0:0:0:0:
160,96,114582,5,0,0:0:0:0:
352,96,114882,5,8,0:0:0:0:
160,96,115182,5,0,0:0:0:0:
352,96,115482,5,8,0:0:0:0:
160,96,115632,5,0,0:0:0:0:
352,96,115707,5,8,0:0:0:0:
160,96,115782,5,0,0:0:0:0:
160,96,115932,5,0,0:0:0:0:
352,96,116082,5,8,0:0:0:0:
160,96,116382,5,0,0:0:0:0:
160,96,116532,5,0,0:0:0:0:
352,96,116682,5,8,0:0:0:0:
160,96,116757,5,0,0:0:0:0:
160,96,116832,5,0,0:0:0:0:
160,96,116907,5,0,0:0:0:0:
352,96,116982,5,8,0:0:0:0:
160,96,117282,5,0,0:0:0:0:
352,96,117432,5,8,0:0:0:0:
352,96,117507,5,8,0:0:0:0:
160,96,117582,5,0,0:0:0:0:
352,96,117882,5,8,0:0:0:0:
288,128,118482,6,0,L|320:96,18,35
160,288,119982,5,4,0:0:0:0:
352,96,120432,5,8,0:0:0:0:
160,288,120582,5,4,0:0:0:0:
352,96,121032,5,8,0:0:0:0:
160,288,121182,5,4,0:0:0:0:
352,96,121332,5,8,0:0:0:0:
160,288,121482,5,4,0:0:0:0:
160,96,121632,5,0,0:0:0:0:
352,288,121782,5,12,0:0:0:0:
160,288,122382,5,4,0:0:0:0:
352,96,122682,5,8,0:0:0:0:
352,96,123282,5,8,0:0:0:0:
352,96,123882,5,8,0:0:0:0:
352,96,124482,5,8,0:0:0:0:
160,96,124782,5,0,0:0:0:0:
352,96,125082,5,8,0:0:0:0:
352,96,125682,5,8,0:0:0:0:
352,96,126282,5,8,0:0:0:0:
352,96,126582,5,8,0:0:0:0:
352,96,126882,5,8,0:0:0:0:
160,96,127182,5,0,0:0:0:0:
352,96,127482,5,8,0:0:0:0:
352,96,127632,5,8,0:0:0:0:
352,96,128082,5,8,0:0:0:0:
160,96,128382,5,0,0:0:0:0:
352,96,128682,5,8,0:0:0:0:
352,96,128832,5,8,0:0:0:0:
160,96,129132,5,0,0:0:0:0:
352,96,129282,5,8,0:0:0:0:
352,96,129432,5,8,0:0:0:0:
160,288,129582,5,4,0:0:0:0:
352,96,129882,5,8,0:0:0:0:
160,288,130032,5,4,0:0:0:0:
352,96,130332,5,8,0:0:0:0:
160,288,130632,5,4,0:0:0:0:
160,96,130932,5,0,0:0:0:0:
352,96,131082,5,8,0:0:0:0:
160,96,131232,5,0,0:0:0:0:
352,288,131382,5,12,0:0:0:0:
352,96,131682,5,8,0:0:0:0:
352,96,131832,5,8,0:0:0:0:
352,96,131907,5,8,0:0:0:0:
160,96,131982,5,0,0:0:0:0:
160,96,132282,5,0,0:0:0:0:
160,96,132432,5,0,0:0:0:0:
352,96,132582,5,8,0:0:0:0:
352,96,132882,5,8,0:0:0:0:
352,96,133032,5,8,0:0:0:0:
160,96,133182,5,0,0:0:0:0:
160,96,133332,5,0,0:0:0:0:
352,96,133482,5,8,0:0:0:0:
160,96,133582,5,0,0:0:0:0:
160,96,133682,5,0,0:0:0:0:
352,96,133782,5,8,0:0:0:0:
352,96,133982,5,8,0:0:0:0:
352,96,134082,5,8,0:0:0:0:
352,96,134282,5,8,0:0:0:0:
160,96,134382,5,0,0:0:0:0:
160,96,134682,5,0,0:0:0:0:
160,96,134882,5,0,0:0:0:0:
352,96,134982,5,8,0:0:0:0:
352,96,135182,5,8,0:0:0:0:
352,96,135282,5,8,0:0:0:0:
352,96,135482,5,8,0:0:0:0:
160,96,135582,5,0,0:0:0:0:
160,96,135732,5,0,0:0:0:0:
160,96,136032,5,0,0:0:0:0:
352,96,136182,5,8,0:0:0:0:
352,96,136332,5,8,0:0:0:0:
160,288,136782,5,4,0:0:0:0:
256,192,136857,12,0,138432,0:0:0:0:
352,96,138582,5,8,0:0:0:0:
352,96,138882,5,8,0:0:0:0:
352,288,139182,5,12,0:0:0:0:
160,288,139632,5,4,0:0:0:0:
352,96,139932,5,8,0:0:0:0:
352,96,140007,5,8,0:0:0:0:
352,96,140082,5,8,0:0:0:0:
352,96,140232,5,8,0:0:0:0:
160,288,140382,5,4,0:0:0:0:
352,288,140832,5,12,0:0:0:0:
160,96,141132,5,0,0:0:0:0:
160,96,141207,5,0,0:0:0:0:
160,96,141282,5,0,0:0:0:0:
160,96,141432,5,0,0:0:0:0:
352,96,141582,5,8,0:0:0:0:
352,96,141882,5,8,0:0:0:0:
160,96,142182,5,0,0:0:0:0:
160,96,142482,5,0,0:0:0:0:
352,96,142782,5,8,0:0:0:0:
352,96,143382,5,8,0:0:0:0:
352,96,143682,5,8,0:0:0:0:
352,288,143982,5,12,0:0:0:0:
160,96,144207,5,0,0:0:0:0:
352,96,144282,5,8,0:0:0:0:
160,96,144432,5,0,0:0:0:0:
352,96,144582,5,8,0:0:0:0:
352,96,144657,5,8,0:0:0:0:
160,96,144732,5,0,0:0:0:0:
352,96,144882,5,8,0:0:0:0:
160,96,145032,5,0,0:0:0:0:
160,96,145332,5,0,0:0:0:0:
352,96,145482,5,8,0:0:0:0:
160,96,145632,5,0,0:0:0:0:
160,96,145707,5,0,0:0:0:0:
352,96,145782,5,8,0:0:0:0:
160,96,145932,5,0,0:0:0:0:
352,96,146082,5,8,0:0:0:0:
352,96,146232,5,8,0:0:0:0:
160,96,146382,5,0,0:0:0:0:
352,96,146682,5,8,0:0:0:0:
160,96,146832,5,0,0:0:0:0:
352,96,146982,5,8,0:0:0:0:
160,96,147057,5,0,0:0:0:0:
160,96,147132,5,0,0:0:0:0:
352,96,147282,5,8,0:0:0:0:
160,96,147432,5,0,0:0:0:0:
160,96,147732,5,0,0:0:0:0:
352,96,147882,5,8,0:0:0:0:
352,96,148032,5,8,0:0:0:0:
160,96,148182,5,0,0:0:0:0:
352,96,148332,5,8,0:0:0:0:
160,96,148407,5,0,0:0:0:0:
352,96,148482,5,8,0:0:0:0:
352,96,148632,5,8,0:0:0:0:
352,96,148707,5,8,0:0:0:0:
160,96,148782,5,0,0:0:0:0:
352,96,149082,5,8,0:0:0:0:
160,96,149232,5,0,0:0:0:0:
160,96,149382,5,0,0:0:0:0:
352,96,149532,5,8,0:0:0:0:
352,96,149682,5,8,0:0:0:0:
160,96,149832,5,0,0:0:0:0:
160,96,149982,5,0,0:0:0:0:
352,96,150282,5,8,0:0:0:0:
160,96,150432,5,0,0:0:0:0:
352,96,150582,5,8,0:0:0:0:
160,96,150732,5,0,0:0:0:0:
160,96,150807,5,0,0:0:0:0:
352,96,150882,5,8,0:0:0:0:
352,96,151032,5,8,0:0:0:0:
352,96,151107,5,8,0:0:0:0:
160,96,151182,5,0,0:0:0:0:
352,96,151482,5,8,0:0:0:0:
352,96,151632,5,8,0:0:0:0:
160,96,151782,5,0,0:0:0:0:
160,96,151932,5,0,0:0:0:0:
160,96,152007,5,0,0:0:0:0:
352,96,152082,5,8,0:0:0:0:
160,288,152232,5,4,0:0:0:0:
352,288,152532,5,12,0:0:0:0:
160,288,152832,5,4,0:0:0:0:
352,288,153132,5,12,0:0:0:0:
160,96,153282,5,0,0:0:0:0:
160,96,153432,5,0,0:0:0:0:
160,96,153507,5,0,0:0:0:0:
352,96,153582,5,8,0:0:0:0:
160,96,153807,5,0,0:0:0:0:
352,96,153882,5,8,0:0:0:0:
160,96,154032,5,0,0:0:0:0:
352,96,154182,5,8,0:0:0:0:
352,96,154257,5,8,0:0:0:0:
160,96,154332,5,0,0:0:0:0:
352,96,154482,5,8,0:0:0:0:
160,96,154632,5,0,0:0:0:0:
160,96,154932,5,0,0:0:0:0:
352,96,155082,5,8,0:0:0:0:
160,96,155232,5,0,0:0:0:0:
160,96,155307,5,0,0:0:0:0:
352,96,155382,5,8,0:0:0:0:
160,96,155532,5,0,0:0:0:0:
352,96,155682,5,8,0:0:0:0:
352,96,155832,5,8,0:0:0:0:
160,96,155982,5,0,0:0:0:0:
352,96,156282,5,8,0:0:0:0:
160,96,156432,5,0,0:0:0:0:
352,96,156582,5,8,0:0:0:0:
160,96,156657,5,0,0:0:0:0:
160,96,156732,5,0,0:0:0:0:
352,96,156882,5,8,0:0:0:0:
160,96,157032,5,0,0:0:0:0:
352,288,157182,5,12,0:0:0:0:
160,96,157407,5,0,0:0:0:0:
352,96,157482,5,8,0:0:0:0:
160,96,157632,5,0,0:0:0:0:
160,96,157707,5,0,0:0:0:0:
160,96,157782,5,0,0:0:0:0:
352,96,157932,5,8,0:0:0:0:
352,96,158082,5,8,0:0:0:0:
352,96,158232,5,8,0:0:0:0:
352,96,158307,5,8,0:0:0:0:
160,96,158382,5,0,0:0:0:0:
352,96,158682,5,8,0:0:0:0:
352,96,158832,5,8,0:0:0:0:
160,96,158982,5,0,0:0:0:0:
160,96,159132,5,0,0:0:0:0:
160,96,159207,5,0,0:0:0:0:
352,96,159282,5,8,0:0:0:0:
352,96,159432,5,8,0:0:0:0:
160,96,159582,5,0,0:0:0:0:
352,96,159882,5,8,0:0:0:0:
160,96,160032,5,0,0:0:0:0:
160,96,160332,5,0,0:0:0:0:
352,96,160482,5,8,0:0:0:0:
160,96,160782,5,0,0:0:0:0:
160,96,160932,5,0,0:0:0:0:
352,96,161082,5,8,0:0:0:0:
352,96,161232,5,8,0:0:0:0:
160,96,161382,5,0,0:0:0:0:
160,96,161532,5,0,0:0:0:0:
160,96,161607,5,0,0:0:0:0:
352,96,161682,5,8,0:0:0:0:
352,96,161832,5,8,0:0:0:0:
160,96,161982,5,0,0:0:0:0:
352,96,162282,5,8,0:0:0:0:
352,96,162432,5,8,0:0:0:0:
160,96,162582,5,0,0:0:0:0:
160,96,162732,5,0,0:0:0:0:
160,96,162807,5,0,0:0:0:0:
352,96,162882,5,8,0:0:0:0:
160,96,163032,5,0,0:0:0:0:
352,288,163182,5,12,0:0:0:0:
160,96,163332,5,0,0:0:0:0:
160,96,163482,5,0,0:0:0:0:
352,288,163782,5,12,0:0:0:0:
160,96,163932,5,0,0:0:0:0:
160,96,164232,5,0,0:0:0:0:
352,288,164382,5,12,0:0:0:0:
160,96,164532,5,0,0:0:0:0:
160,96,164682,5,0,0:0:0:0:
352,288,164982,5,12,0:0:0:0:
160,96,165132,5,0,0:0:0:0:
160,96,165432,5,0,0:0:0:0:
352,96,165582,5,8,0:0:0:0:
352,96,165732,5,8,0:0:0:0:
352,96,165882,5,8,0:0:0:0:
352,96,166032,5,8,0:0:0:0:
352,96,166332,5,8,0:0:0:0:
352,96,166482,5,8,0:0:0:0:
352,96,166632,5,8,0:0:0:0:
352,96,166932,5,8,0:0:0:0:
352,96,167082,5,8,0:0:0:0:
352,96,167232,5,8,0:0:0:0:
352,288,167382,5,8,0:0:0:0:
160,288,167982,5,4,0:0:0:0:
256,192,175182,12,0,176232,0:0:0:0:
160,288,176382,5,4,0:0:0:0:
160,96,177282,5,0,0:0:0:0:
352,96,177582,5,8,0:0:0:0:
352,96,178032,5,8,0:0:0:0:
352,96,178482,5,8,0:0:0:0:
160,96,178782,5,0,0:0:0:0:
352,96,179532,5,8,0:0:0:0:
160,96,179682,5,0,0:0:0:0:
352,96,179982,5,8,0:0:0:0:
352,96,180432,5,8,0:0:0:0:
352,96,180732,5,8,0:0:0:0:
352,96,180882,5,8,0:0:0:0:
352,96,181032,5,8,0:0:0:0:
160,96,181182,5,0,0:0:0:0:
352,96,181482,5,8,0:0:0:0:
352,96,181632,5,8,0:0:0:0:
352,96,181932,5,8,0:0:0:0:
160,96,182082,5,0,0:0:0:0:
352,96,182382,5,8,0:0:0:0:
160,96,182682,5,0,0:0:0:0:
352,96,182832,5,8,0:0:0:0:
352,96,183132,5,8,0:0:0:0:
352,96,183432,5,8,0:0:0:0:
352,96,183507,5,8,0:0:0:0:
160,96,183582,5,0,0:0:0:0:
160,96,183882,5,0,0:0:0:0:
352,96,184032,5,8,0:0:0:0:
352,96,184332,5,8,0:0:0:0:
160,96,184482,5,0,0:0:0:0:
160,96,184632,5,0,0:0:0:0:
352,96,184782,5,8,0:0:0:0:
160,96,185382,5,0,0:0:0:0:
352,288,185982,5,12,0:0:0:0:
352,288,186432,5,12,0:0:0:0:
160,96,186882,5,0,0:0:0:0:
352,288,187182,5,12,0:0:0:0:
352,288,187632,5,12,0:0:0:0:
160,96,188082,5,0,0:0:0:0:
160,96,188232,5,0,0:0:0:0:
352,288,188382,5,12,0:0:0:0:
352,288,188832,5,12,0:0:0:0:
160,96,189132,5,0,0:0:0:0:
160,96,189282,5,0,0:0:0:0:
160,96,189432,5,0,0:0:0:0:
352,288,189582,5,12,0:0:0:0:
352,288,190032,5,12,0:0:0:0:
160,96,190482,5,0,0:0:0:0:
160,96,190632,5,0,0:0:0:0:
352,288,190782,5,12,0:0:0:0:
352,96,191382,5,8,0:0:0:0:
352,96,191982,5,8,0:0:0:0:
160,96,192282,5,0,0:0:0:0:
352,96,192582,5,8,0:0:0:0:
160,96,192882,5,0,0:0:0:0:
352,96,193182,5,8,0:0:0:0:
352,96,193782,5,8,0:0:0:0:
352,96,194382,5,8,0:0:0:0:
160,96,194682,5,0,0:0:0:0:
352,96,194982,5,8,0:0:0:0:
160,96,195282,5,0,0:0:0:0:
352,96,195582,5,8,0:0:0:0:
352,96,196182,5,8,0:0:0:0:
352,96,196782,5,8,0:0:0:0:
352,96,196932,5,8,0:0:0:0:
160,96,197082,5,0,0:0:0:0:
160,96,197232,5,0,0:0:0:0:
352,96,197382,5,8,0:0:0:0:
160,96,197532,5,0,0:0:0:0:
160,96,197682,5,0,0:0:0:0:
160,96,197832,5,0,0:0:0:0:
352,288,197982,5,12,0:0:0:0:
160,288,198432,5,4,0:0:0:0:
352,288,199182,5,12,0:0:0:0:
160,288,199632,5,4,0:0:0:0:
352,288,200382,5,12,0:0:0:0:
160,288,200832,5,4,0:0:0:0:
352,288,201582,5,12,0:0:0:0:
160,288,202032,5,4,0:0:0:0:
352,288,202782,5,12,0:0:0:0:
160,96,202982,5,0,0:0:0:0:
160,96,203182,5,0,0:0:0:0:
352,96,203382,5,8,0:0:0:0:
160,96,203582,5,0,0:0:0:0:
160,96,203782,5,0,0:0:0:0:
352,288,203982,5,12,0:0:0:0:
352,96,204182,5,8,0:0:0:0:
160,96,204382,5,0,0:0:0:0:
352,96,204582,5,8,0:0:0:0:
352,96,204782,5,8,0:0:0:0:
160,96,204982,5,0,0:0:0:0:
352,288,205182,5,12,0:0:0:0:
352,288,205382,5,12,0:0:0:0:
352,288,205582,5,12,0:0:0:0:
160,288,205782,5,4,0:0:0:0:
160,288,205982,5,4,0:0:0:0:
160,288,206182,5,4,0:0:0:0:
352,288,206382,5,12,0:0:0:0:
256,192,206532,12,4,207432,0:0:0:0:
352,288,207582,5,12,0:0:0:0:
160,96,215832,5,0,0:0:0:0:
160,96,216132,5,0,0:0:0:0:
160,96,216432,5,0,0:0:0:0:
352,96,216582,5,8,0:0:0:0:
160,96,216732,5,0,0:0:0:0:
160,288,217182,5,4,0:0:0:0:
160,96,217332,5,0,0:0:0:0:
160,96,217632,5,0,0:0:0:0:
352,96,217782,5,8,0:0:0:0:
352,96,218082,5,8,0:0:0:0:
352,96,218232,5,8,0:0:0:0:
160,96,218382,5,0,0:0:0:0:
160,96,218682,5,0,0:0:0:0:
160,96,218832,5,0,0:0:0:0:
352,96,218982,5,8,0:0:0:0:
352,96,219282,5,8,0:0:0:0:
160,96,219582,5,0,0:0:0:0:
352,96,219882,5,8,0:0:0:0:
160,96,220032,5,0,0:0:0:0:
352,96,220182,5,8,0:0:0:0:
352,96,220482,5,8,0:0:0:0:
160,96,220782,5,0,0:0:0:0:
160,96,221082,5,0,0:0:0:0:
160,96,221232,5,0,0:0:0:0:
352,96,221382,5,8,0:0:0:0:
160,96,221532,5,0,0:0:0:0:
160,288,221982,5,4,0:0:0:0:
352,96,222282,5,8,0:0:0:0:
160,96,222432,5,0,0:0:0:0:
352,96,222582,5,8,0:0:0:0:
352,96,222882,5,8,0:0:0:0:
160,96,223182,5,0,0:0:0:0:
160,96,223482,5,0,0:0:0:0:
160,96,223632,5,0,0:0:0:0:
352,96,223782,5,8,0:0:0:0:
352,96,224082,5,8,0:0:0:0:
160,288,224382,5,4,0:0:0:0:
160,96,224832,5,0,0:0:0:0:
352,96,224982,5,8,0:0:0:0:
352,96,225282,5,8,0:0:0:0:
160,96,225582,5,0,0:0:0:0:
352,96,225732,5,8,0:0:0:0:
160,96,225882,5,0,0:0:0:0:
160,96,226032,5,0,0:0:0:0:
352,96,226182,5,8,0:0:0:0:
160,96,226332,5,0,0:0:0:0:
352,96,226482,5,8,0:0:0:0:
160,288,226782,5,4,0:0:0:0:
160,96,227232,5,0,0:0:0:0:
352,96,227382,5,8,0:0:0:0:
160,96,227532,5,0,0:0:0:0:
352,96,227682,5,8,0:0:0:0:
160,96,227982,5,0,0:0:0:0:
352,96,228132,5,8,0:0:0:0:
160,96,228282,5,0,0:0:0:0:
160,96,228432,5,0,0:0:0:0:
352,96,228582,5,8,0:0:0:0:
160,96,228732,5,0,0:0:0:0:
352,96,228882,5,8,0:0:0:0:
160,288,229032,5,4,0:0:0:0:
160,96,229482,5,0,0:0:0:0:
160,96,229782,5,0,0:0:0:0:
352,96,229932,5,8,0:0:0:0:
160,96,230082,5,0,0:0:0:0:
160,96,230382,5,0,0:0:0:0:
352,96,230607,5,8,0:0:0:0:
160,96,230682,5,0,0:0:0:0:
352,96,230832,5,8,0:0:0:0:
160,96,230982,5,0,0:0:0:0:
352,96,231132,5,8,0:0:0:0:
160,96,231282,5,0,0:0:0:0:
352,288,231582,5,12,0:0:0:0:
160,96,231732,5,0,0:0:0:0:
160,96,231882,5,0,0:0:0:0:
160,96,232032,5,0,0:0:0:0:
160,96,232107,5,0,0:0:0:0:
352,96,232182,5,8,0:0:0:0:
160,96,232332,5,0,0:0:0:0:
160,96,232482,5,0,0:0:0:0:
352,288,232632,5,12,0:0:0:0:
352,96,233382,5,8,0:0:0:0:
352,96,233682,5,8,0:0:0:0:
352,288,233982,5,12,0:0:0:0:
160,96,234207,5,0,0:0:0:0:
352,96,234282,5,8,0:0:0:0:
160,96,234432,5,0,0:0:0:0:
352,96,234582,5,8,0:0:0:0:
352,96,234657,5,8,0:0:0:0:
160,96,234732,5,0,0:0:0:0:
352,96,234882,5,8,0:0:0:0:
160,96,235032,5,0,0:0:0:0:
160,96,235332,5,0,0:0:0:0:
352,96,235482,5,8,0:0:0:0:
160,96,235632,5,0,0:0:0:0:
160,96,235707,5,0,0:0:0:0:
352,96,235782,5,8,0:0:0:0:
160,96,235932,5,0,0:0:0:0:
352,96,236082,5,8,0:0:0:0:
352,96,236232,5,8,0:0:0:0:
352,96,236307,5,8,0:0:0:0:
160,96,236382,5,0,0:0:0:0:
352,96,236682,5,8,0:0:0:0:
160,96,236832,5,0,0:0:0:0:
352,96,236982,5,8,0:0:0:0:
160,96,237057,5,0,0:0:0:0:
160,96,237132,5,0,0:0:0:0:
352,96,237282,5,8,0:0:0:0:
160,96,237432,5,0,0:0:0:0:
160,96,237732,5,0,0:0:0:0:
352,96,237882,5,8,0:0:0:0:
352,96,238032,5,8,0:0:0:0:
160,96,238182,5,0,0:0:0:0:
352,96,238332,5,8,0:0:0:0:
160,96,238407,5,0,0:0:0:0:
352,96,238482,5,8,0:0:0:0:
352,96,238632,5,8,0:0:0:0:
352,96,238707,5,8,0:0:0:0:
160,96,238782,5,0,0:0:0:0:
352,96,239082,5,8,0:0:0:0:
160,96,239232,5,0,0:0:0:0:
160,96,239382,5,0,0:0:0:0:
352,96,239532,5,8,0:0:0:0:
352,96,239682,5,8,0:0:0:0:
160,96,239832,5,0,0:0:0:0:
160,96,239982,5,0,0:0:0:0:
352,96,240282,5,8,0:0:0:0:
160,96,240432,5,0,0:0:0:0:
352,96,240582,5,8,0:0:0:0:
160,96,240732,5,0,0:0:0:0:
160,96,240807,5,0,0:0:0:0:
352,96,240882,5,8,0:0:0:0:
352,96,241032,5,8,0:0:0:0:
352,96,241107,5,8,0:0:0:0:
160,96,241182,5,0,0:0:0:0:
352,96,241482,5,8,0:0:0:0:
352,96,241632,5,8,0:0:0:0:
160,96,241782,5,0,0:0:0:0:
160,96,241932,5,0,0:0:0:0:
160,96,242007,5,0,0:0:0:0:
352,96,242082,5,8,0:0:0:0:
160,288,242232,5,4,0:0:0:0:
352,288,242532,5,12,0:0:0:0:
160,288,242832,5,4,0:0:0:0:
352,288,243132,5,12,0:0:0:0:
160,96,243282,5,0,0:0:0:0:
160,96,243432,5,0,0:0:0:0:
160,96,243507,5,0,0:0:0:0:
352,96,243582,5,8,0:0:0:0:
160,96,243807,5,0,0:0:0:0:
352,96,243882,5,8,0:0:0:0:
160,96,244032,5,0,0:0:0:0:
352,96,244182,5,8,0:0:0:0:
352,96,244257,5,8,0:0:0:0:
160,96,244332,5,0,0:0:0:0:
352,96,244482,5,8,0:0:0:0:
160,96,244632,5,0,0:0:0:0:
160,96,244932,5,0,0:0:0:0:
352,96,245082,5,8,0:0:0:0:
160,96,245232,5,0,0:0:0:0:
160,96,245307,5,0,0:0:0:0:
352,96,245382,5,8,0:0:0:0:
160,96,245532,5,0,0:0:0:0:
352,96,245682,5,8,0:0:0:0:
352,96,245832,5,8,0:0:0:0:
160,96,245982,5,0,0:0:0:0:
352,96,246282,5,8,0:0:0:0:
160,96,246432,5,0,0:0:0:0:
352,96,246582,5,8,0:0:0:0:
160,96,246657,5,0,0:0:0:0:
160,96,246732,5,0,0:0:0:0:
352,96,246882,5,8,0:0:0:0:
160,96,247032,5,0,0:0:0:0:
352,288,247182,5,12,0:0:0:0:
160,96,247407,5,0,0:0:0:0:
352,96,247482,5,8,0:0:0:0:
160,96,247632,5,0,0:0:0:0:
160,96,247707,5,0,0:0:0:0:
160,96,247782,5,0,0:0:0:0:
352,96,247932,5,8,0:0:0:0:
160,96,248007,5,0,0:0:0:0:
352,96,248082,5,8,0:0:0:0:
352,96,248232,5,8,0:0:0:0:
352,96,248307,5,8,0:0:0:0:
160,96,248382,5,0,0:0:0:0:
352,96,248682,5,8,0:0:0:0:
352,96,248832,5,8,0:0:0:0:
160,96,248982,5,0,0:0:0:0:
160,96,249132,5,0,0:0:0:0:
160,96,249207,5,0,0:0:0:0:
352,96,249282,5,8,0:0:0:0:
352,96,249432,5,8,0:0:0:0:
160,96,249582,5,0,0:0:0:0:
352,96,249882,5,8,0:0:0:0:
160,96,250032,5,0,0:0:0:0:
160,96,250332,5,0,0:0:0:0:
352,96,250482,5,8,0:0:0:0:
352,96,250632,5,8,0:0:0:0:
352,96,250707,5,8,0:0:0:0:
160,96,250782,5,0,0:0:0:0:
160,96,250932,5,0,0:0:0:0:
352,96,251082,5,8,0:0:0:0:
352,96,251232,5,8,0:0:0:0:
160,96,251382,5,0,0:0:0:0:
160,96,251532,5,0,0:0:0:0:
160,96,251607,5,0,0:0:0:0:
352,96,251682,5,8,0:0:0:0:
352,96,251832,5,8,0:0:0:0:
160,96,251982,5,0,0:0:0:0:
352,96,252282,5,8,0:0:0:0:
352,96,252432,5,8,0:0:0:0:
160,96,252582,5,0,0:0:0:0:
160,96,252732,5,0,0:0:0:0:
160,96,252807,5,0,0:0:0:0:
352,96,252882,5,8,0:0:0:0:
160,96,253032,5,0,0:0:0:0:
352,288,253182,5,12,0:0:0:0:
160,96,253332,5,0,0:0:0:0:
160,96,253482,5,0,0:0:0:0:
352,288,253782,5,12,0:0:0:0:
160,96,253932,5,0,0:0:0:0:
160,96,254232,5,0,0:0:0:0:
352,288,254382,5,12,0:0:0:0:
160,96,254532,5,0,0:0:0:0:
160,96,254682,5,0,0:0:0:0:
352,288,254982,5,12,0:0:0:0:
160,96,255132,5,0,0:0:0:0:
160,96,255432,5,0,0:0:0:0:
352,96,255582,5,8,0:0:0:0:
352,96,255732,5,8,0:0:0:0:
352,96,255882,5,8,0:0:0:0:
352,96,256032,5,8,0:0:0:0:
352,96,256332,5,8,0:0:0:0:
352,96,256482,5,8,0:0:0:0:
352,96,256632,5,8,0:0:0:0:
352,96,256932,5,8,0:0:0:0:
352,96,257082,5,8,0:0:0:0:
352,96,257232,5,8,0:0:0:0:
352,288,257382,5,8,0:0:0:0:
160,288,257982,5,4,0:0:0:0:
352,96,258282,5,8,0:0:0:0:
160,96,258432,5,0,0:0:0:0:
160,96,258507,5,0,0:0:0:0:
352,96,258582,5,8,0:0:0:0:
160,96,258732,5,0,0:0:0:0:
352,96,258882,5,8,0:0:0:0:
160,96,258957,5,0,0:0:0:0:
160,96,259032,5,0,0:0:0:0:
352,96,259182,5,8,0:0:0:0:
352,96,259482,5,8,0:0:0:0:
352,96,259632,5,8,0:0:0:0:
352,96,259707,5,8,0:0:0:0:
160,96,259782,5,0,0:0:0:0:
352,96,259932,5,8,0:0:0:0:
352,96,260082,5,8,0:0:0:0:
160,96,260232,5,0,0:0:0:0:
352,96,260307,5,8,0:0:0:0:
160,96,260382,5,0,0:0:0:0:
160,96,260532,5,0,0:0:0:0:
352,288,260682,5,12,0:0:0:0:
160,96,260982,5,0,0:0:0:0:
160,96,261132,5,0,0:0:0:0:
352,288,261282,5,12,0:0:0:0:
160,96,261582,5,0,0:0:0:0:
160,96,261807,5,0,0:0:0:0:
352,96,261882,5,8,0:0:0:0:
160,96,262032,5,0,0:0:0:0:
352,96,262182,5,8,0:0:0:0:
160,96,262332,5,0,0:0:0:0:
160,96,262407,5,0,0:0:0:0:
352,96,262482,5,8,0:0:0:0:
160,96,262632,5,0,0:0:0:0:
352,96,262707,5,8,0:0:0:0:
160,96,262782,5,0,0:0:0:0:
352,96,263082,5,8,0:0:0:0:
160,96,263232,5,0,0:0:0:0:
160,96,263307,5,0,0:0:0:0:
352,96,263382,5,8,0:0:0:0:
160,96,263532,5,0,0:0:0:0:
352,96,263682,5,8,0:0:0:0:
160,96,263757,5,0,0:0:0:0:
160,96,263832,5,0,0:0:0:0:
352,96,263982,5,8,0:0:0:0:
160,96,264207,5,0,0:0:0:0:
352,96,264282,5,8,0:0:0:0:
160,96,264432,5,0,0:0:0:0:
352,96,264507,5,8,0:0:0:0:
160,96,264582,5,0,0:0:0:0:
352,96,264732,5,8,0:0:0:0:
352,96,264882,5,8,0:0:0:0:
352,96,265032,5,8,0:0:0:0:
352,96,265107,5,8,0:0:0:0:
160,96,265182,5,0,0:0:0:0:
352,288,265482,5,12,0:0:0:0:
160,96,265782,5,0,0:0:0:0:
160,96,265932,5,0,0:0:0:0:
352,288,266082,5,12,0:0:0:0:
160,96,266232,5,0,0:0:0:0:
160,96,266532,5,0,0:0:0:0:
352,288,266682,5,12,0:0:0:0:
160,96,266832,5,0,0:0:0:0:
160,96,266982,5,0,0:0:0:0:
352,288,267132,5,12,0:0:0:0:
352,288,267282,5,12,0:0:0:0:
160,288,267582,5,4,0:0:0:0:
160,288,269982,5,4,0:0:0:0:
352,96,271182,5,8,0:0:0:0:
352,96,271257,5,8,0:0:0:0:
352,96,271332,5,8,0:0:0:0:
352,96,271482,5,8,0:0:0:0:
352,96,271632,5,8,0:0:0:0:
352,96,271707,5,8,0:0:0:0:
352,96,271782,5,8,0:0:0:0:
160,96,271932,5,0,0:0:0:0:
160,96,272082,5,0,0:0:0:0:
160,288,272382,5,4,0:0:0:0:
352,96,273732,5,8,0:0:0:0:
352,96,273882,5,8,0:0:0:0:
352,96,274032,5,8,0:0:0:0:
160,288,274182,5,4,0:0:0:0:
160,288,274482,5,4,0:0:0:0:
160,288,274782,5,4,0:0:0:0:
352,96,274932,5,8,0:0:0:0:
352,96,275082,5,8,0:0:0:0:
352,96,275232,5,8,0:0:0:0:
160,288,275382,5,4,0:0:0:0:
352,96,275532,5,8,0:0:0:0:
352,96,275682,5,8,0:0:0:0:
160,288,275832,5,4,0:0:0:0:
352,96,276582,5,8,0:0:0:0:
352,96,276882,5,8,0:0:0:0:
352,96,277182,5,8,0:0:0:0:
160,288,277782,5,4,0:0:0:0:
256,192,277857,12,0,283182,0:0:0:0:
