osu file format v14

[General]
AudioFilename: audio.ogg
AudioLeadIn: 0
PreviewTime: 143382
Countdown: 0
SampleSet: Normal
StackLeniency: 0.7
Mode: 1
LetterboxInBreaks: 0
WidescreenStoryboard: 0

[Editor]
Bookmarks: 2390,7190,19190,28790,47990,69590,93590,103190,122390,136790,143990,167990,176390,190790,207590,217190,233990,257990,267590
DistanceSpacing: 0.1
BeatDivisor: 2
GridSize: 32
TimelineZoom: 1.7

[Metadata]
Title:Susume! Lovely Idol * La priere
TitleUnicode:進め!ラブリーアイドル☆ラプリエール
Artist:La priere
ArtistUnicode:La prière
Creator:komasy
Version:Futsuu!
Source:osu!
Tags:Japanese 日本語 J-POP J POP Electronic Kawaii 電波 Denpa 棗いつき Natsume Itsuki 藍月なくる Aitsuki Nakuru nayuta ARM IOSYS かたほとり Katahotori Featured Artist FA
BeatmapID:2892591
BeatmapSetID:1400986

[Difficulty]
HPDrainRate:7
CircleSize:7
OverallDifficulty:4
ApproachRate:10
SliderMultiplier:1.4
SliderTickRate:1

[Events]
//Background and Video events
0,0,"Susume! Lovely Idol La priere.jpg",0,90
//Break Periods
2,168182,174732
2,207782,215382
//Storyboard Layer 0 (Background)
//Storyboard Layer 1 (Fail)
//Storyboard Layer 2 (Pass)
//Storyboard Layer 3 (Foreground)
//Storyboard Layer 4 (Overlay)
//Storyboard Sound Samples

[TimingPoints]
2382,300,4,1,0,80,1,0
2382,-105.263157894737,4,1,0,80,0,0
7107,-105.263157894737,4,1,0,90,0,0
19182,-105.263157894737,4,1,0,100,0,1
28782,-105.263157894737,4,1,0,90,0,0
47906,-105.263157894737,4,1,0,80,0,0
62418,-105.263157894737,4,1,0,70,0,0
64106,-105.263157894737,4,1,0,100,0,0
67181,-105.263157894737,4,1,0,90,0,0
68906,-105.263157894737,4,1,0,100,0,0
69582,-105.263157894737,4,1,0,100,0,1
91182,-105.263157894737,4,1,0,100,0,0
93582,-105.263157894737,4,1,0,100,0,1
100782,-105.263157894737,4,1,0,90,0,0
117656,-105.263157894737,4,1,0,80,0,0
119906,-105.263157894737,4,1,0,100,0,0
122306,-105.263157894737,4,1,0,80,0,0
136818,-105.263157894737,4,1,0,70,0,0
138506,-105.263157894737,4,1,0,90,0,0
139106,-105.263157894737,4,1,0,100,0,0
141581,-105.263157894737,4,1,0,90,0,0
143306,-105.263157894737,4,1,0,100,0,0
143982,-105.263157894737,4,1,0,100,0,1
165582,-105.263157894737,4,1,0,100,0,0
168056,-105.263157894737,4,1,0,20,0,0
175106,-105.263157894737,4,1,0,30,0,0
176306,-105.263157894737,4,1,0,70,0,0
185906,-105.263157894737,4,1,0,80,0,0
190706,-105.263157894737,4,1,0,60,0,0
197980,-105.263157894737,4,1,0,90,0,0
205182,-105.263157894737,4,1,0,90,0,1
206454,-105.263157894737,4,1,0,50,0,1
207504,-105.263157894737,4,1,0,80,0,1
207582,-105.263157894737,4,1,0,80,0,0
207656,-105.263157894737,4,1,0,20,0,0
215756,-105.263157894737,4,1,0,80,0,0
228956,-105.263157894737,4,1,0,90,0,0
233307,-105.263157894737,4,1,0,100,0,0
233982,-105.263157894737,4,1,0,100,0,1
255582,-105.263157894737,4,1,0,100,0,0
257982,-105.263157894737,4,1,0,100,0,1
267582,-105.263157894737,4,1,0,100,0,0
267656,-105.263157894737,4,1,0,80,0,0
272306,-105.263157894737,4,1,0,90,0,0
272382,-105.263157894737,4,1,0,90,0,1
276282,-105.263157894737,4,1,0,90,0,0
277782,-105.263157894737,4,1,0,90,0,1
277818,-105.263157894737,4,1,0,80,0,1
278381,-105.263157894737,4,1,0,60,0,1
279581,-105.263157894737,4,1,0,40,0,1
283106,-105.263157894737,4,1,0,10,0,1
283182,-105.263157894737,4,1,0,10,0,0

[HitObjects]
160,288,2382,5,4,0:0:0:0:
160,288,4782,5,4,0:0:0:0:
352,96,5982,5,8,0:0:0:0:
352,96,6132,5,8,0:0:0:0:
352,96,6282,5,8,0:0:0:0:
352,96,6432,5,8,0:0:0:0:
160,96,6582,5,0,0:0:0:0:
160,288,7182,5,4,0:0:0:0:
352,96,7632,5,8,0:0:0:0:
352,96,7932,5,8,0:0:0:0:
160,96,8232,5,0,0:0:0:0:
160,96,8532,5,0,0:0:0:0:
352,96,8682,5,8,0:0:0:0:
160,96,8982,5,0,0:0:0:0:
352,96,9282,5,8,0:0:0:0:
160,96,9582,5,0,0:0:0:0:
352,96,10032,5,8,0:0:0:0:
352,96,10332,5,8,0:0:0:0:
160,96,10632,5,0,0:0:0:0:
160,96,10932,5,0,0:0:0:0:
352,96,11082,5,8,0:0:0:0:
160,96,11382,5,0,0:0:0:0:
352,96,11682,5,8,0:0:0:0:
160,288,11982,5,4,0:0:0:0:
352,96,12282,5,8,0:0:0:0:
160,96,12432,5,0,0:0:0:0:
352,96,12882,5,8,0:0:0:0:
352,96,13182,5,8,0:0:0:0:
160,96,13332,5,0,0:0:0:0:
160,96,13632,5,0,0:0:0:0:
352,96,13782,5,8,0:0:0:0:
160,96,14082,5,0,0:0:0:0:
352,288,14382,5,12,0:0:0:0:
352,288,14982,5,12,0:0:0:0:
160,96,15282,5,0,0:0:0:0:
352,288,15582,5,12,0:0:0:0:
160,96,15732,5,0,0:0:0:0:
160,96,15882,5,0,0:0:0:0:
352,288,16182,5,12,0:0:0:0:
160,96,16482,5,0,0:0:0:0:
352,288,16782,5,12,0:0:0:0:
352,96,18132,5,8,0:0:0:0:
352,96,18282,5,8,0:0:0:0:
352,96,18432,5,8,0:0:0:0:
352,96,18582,5,8,0:0:0:0:
160,288,19182,5,4,0:0:0:0:
160,96,19632,5,0,0:0:0:0:
352,96,19782,5,8,0:0:0:0:
160,96,20082,5,0,0:0:0:0:
352,96,20382,5,8,0:0:0:0:
352,96,20832,5,8,0:0:0:0:
160,96,20982,5,0,0:0:0:0:
352,96,21282,5,8,0:0:0:0:
160,96,21582,5,0,0:0:0:0:
352,288,21882,5,12,0:0:0:0:
160,96,22182,5,0,0:0:0:0:
352,288,22482,5,12,0:0:0:0:
160,96,22782,5,0,0:0:0:0:
352,96,23082,5,8,0:0:0:0:
352,96,23232,5,8,0:0:0:0:
160,96,23382,5,0,0:0:0:0:
160,96,23532,5,0,0:0:0:0:
352,96,23682,5,8,0:0:0:0:
160,288,23982,5,4,0:0:0:0:
160,96,24432,5,0,0:0:0:0:
352,96,24582,5,8,0:0:0:0:
160,96,24882,5,0,0:0:0:0:
352,96,25182,5,8,0:0:0:0:
160,96,25482,5,0,0:0:0:0:
352,96,25632,5,8,0:0:0:0:
352,96,25782,5,8,0:0:0:0:
352,96,26082,5,8,0:0:0:0:
160,288,26382,5,4,0:0:0:0:
160,288,26982,5,4,0:0:0:0:
160,288,27432,5,4,0:0:0:0:
352,96,27882,5,8,0:0:0:0:
160,96,28032,5,0,0:0:0:0:
352,288,28332,5,12,0:0:0:0:
352,288,28482,5,12,0:0:0:0:
160,288,28782,5,4,0:0:0:0:
160,96,29082,5,0,0:0:0:0:
352,96,29232,5,8,0:0:0:0:
160,96,29682,5,0,0:0:0:0:
352,96,29982,5,8,0:0:0:0:
352,96,30282,5,8,0:0:0:0:
160,96,30582,5,0,0:0:0:0:
352,96,30732,5,8,0:0:0:0:
160,96,30882,5,0,0:0:0:0:
160,96,31182,5,0,0:0:0:0:
352,96,31482,5,8,0:0:0:0:
160,96,31782,5,0,0:0:0:0:
352,96,32082,5,8,0:0:0:0:
160,96,32232,5,0,0:0:0:0:
160,96,32982,5,0,0:0:0:0:
352,96,33282,5,8,0:0:0:0:
352,96,33432,5,8,0:0:0:0:
160,96,33582,5,0,0:0:0:0:
352,288,33882,5,12,0:0:0:0:
160,96,34182,5,0,0:0:0:0:
352,96,34482,5,8,0:0:0:0:
352,96,34632,5,8,0:0:0:0:
160,96,34782,5,0,0:0:0:0:
352,288,35082,5,12,0:0:0:0:
160,96,35382,5,0,0:0:0:0:
352,96,35682,5,8,0:0:0:0:
160,96,35832,5,0,0:0:0:0:
352,96,36282,5,8,0:0:0:0:
160,96,36582,5,0,0:0:0:0:
352,96,36882,5,8,0:0:0:0:
160,96,37182,5,0,0:0:0:0:
352,96,37332,5,8,0:0:0:0:
352,96,37632,5,8,0:0:0:0:
160,288,38382,5,4,0:0:0:0:
352,96,38682,5,8,0:0:0:0:
352,96,38832,5,8,0:0:0:0:
160,96,39282,5,0,0:0:0:0:
352,96,39582,5,8,0:0:0:0:
352,96,39882,5,8,0:0:0:0:
160,96,40182,5,0,0:0:0:0:
160,96,40332,5,0,0:0:0:0:
352,96,40482,5,8,0:0:0:0:
160,96,40782,5,0,0:0:0:0:
352,96,41082,5,8,0:0:0:0:
160,96,41382,5,0,0:0:0:0:
352,96,41682,5,8,0:0:0:0:
160,96,41832,5,0,0:0:0:0:
160,96,42582,5,0,0:0:0:0:
352,96,42882,5,8,0:0:0:0:
352,96,43032,5,8,0:0:0:0:
160,96,43182,5,0,0:0:0:0:
352,288,43482,5,12,0:0:0:0:
160,96,43782,5,0,0:0:0:0:
352,96,44082,5,8,0:0:0:0:
352,96,44232,5,8,0:0:0:0:
160,96,44382,5,0,0:0:0:0:
352,288,44682,5,12,0:0:0:0:
160,288,44982,5,4,0:0:0:0:
160,288,45432,5,4,0:0:0:0:
352,96,45882,5,8,0:0:0:0:
160,288,46182,5,4,0:0:0:0:
352,96,46482,5,8,0:0:0:0:
160,288,46782,5,4,0:0:0:0:
160,288,47082,5,4,0:0:0:0:
160,288,47232,5,4,0:0:0:0:
160,288,47982,5,4,0:0:0:0:
352,96,48582,5,8,0:0:0:0:
160,96,49182,5,0,0:0:0:0:
160,96,49632,5,0,0:0:0:0:
352,96,49782,5,8,0:0:0:0:
160,96,50382,5,0,0:0:0:0:
160,96,50682,5,0,0:0:0:0:
352,96,50982,5,8,0:0:0:0:
352,96,51432,5,8,0:0:0:0:
352,96,51732,5,8,0:0:0:0:
160,96,52032,5,0,0:0:0:0:
352,96,52182,5,8,0:0:0:0:
160,96,52782,5,0,0:0:0:0:
352,96,53382,5,8,0:0:0:0:
160,96,53982,5,0,0:0:0:0:
160,96,54432,5,0,0:0:0:0:
352,96,54582,5,8,0:0:0:0:
160,288,55182,5,4,0:0:0:0:
160,288,55632,5,12,0:0:0:0:
352,96,55932,5,0,0:0:0:0:
160,288,56232,5,4,0:0:0:0:
160,96,56532,5,0,0:0:0:0:
160,96,56832,5,0,0:0:0:0:
352,96,56982,5,12,0:0:0:0:
160,288,57582,5,4,0:0:0:0:
352,96,58182,5,8,0:0:0:0:
352,96,58482,5,8,0:0:0:0:
160,96,58782,5,0,0:0:0:0:
352,96,59082,5,8,0:0:0:0:
160,96,59232,5,0,0:0:0:0:
352,96,59382,5,8,0:0:0:0:
352,96,59682,5,8,0:0:0:0:
160,96,59982,5,0,0:0:0:0:
352,96,60582,5,8,0:0:0:0:
352,96,60882,5,8,0:0:0:0:
352,96,61032,5,8,0:0:0:0:
160,96,61182,5,0,0:0:0:0:
160,96,61632,5,0,0:0:0:0:
352,96,61782,5,8,0:0:0:0:
352,96,61932,5,8,0:0:0:0:
160,288,62382,5,4,0:0:0:0:
256,192,62532,12,0,63882,0:0:0:0:
352,96,64182,5,8,0:0:0:0:
352,96,64482,5,8,0:0:0:0:
352,288,64782,5,12,0:0:0:0:
160,288,65232,5,4,0:0:0:0:
352,96,65532,5,8,0:0:0:0:
352,96,65682,5,8,0:0:0:0:
160,288,65982,5,4,0:0:0:0:
352,288,66432,5,12,0:0:0:0:
160,96,66732,5,0,0:0:0:0:
160,96,66882,5,0,0:0:0:0:
352,96,67182,5,8,0:0:0:0:
352,96,67482,5,8,0:0:0:0:
160,96,67782,5,0,0:0:0:0:
160,96,68082,5,0,0:0:0:0:
352,96,68382,5,8,0:0:0:0:
352,96,68982,5,8,0:0:0:0:
352,96,69282,5,8,0:0:0:0:
352,288,69582,5,12,0:0:0:0:
160,96,69882,5,0,0:0:0:0:
352,96,70182,5,8,0:0:0:0:
352,96,70482,5,8,0:0:0:0:
160,96,70632,5,0,0:0:0:0:
160,96,70932,5,0,0:0:0:0:
160,96,71232,5,0,0:0:0:0:
352,96,71382,5,8,0:0:0:0:
160,96,71682,5,0,0:0:0:0:
352,96,71982,5,8,0:0:0:0:
160,96,72282,5,0,0:0:0:0:
352,96,72582,5,8,0:0:0:0:
352,96,72882,5,8,0:0:0:0:
160,96,73032,5,0,0:0:0:0:
160,96,73332,5,0,0:0:0:0:
352,96,73482,5,8,0:0:0:0:
160,96,73782,5,0,0:0:0:0:
352,96,74382,5,8,0:0:0:0:
160,96,74832,5,0,0:0:0:0:
352,96,74982,5,8,0:0:0:0:
160,96,75432,5,0,0:0:0:0:
352,96,75582,5,8,0:0:0:0:
160,96,75882,5,0,0:0:0:0:
352,96,76182,5,8,0:0:0:0:
160,96,76482,5,0,0:0:0:0:
352,96,76782,5,8,0:0:0:0:
160,96,77082,5,0,0:0:0:0:
160,96,77232,5,0,0:0:0:0:
352,96,77382,5,8,0:0:0:0:
352,96,77532,5,8,0:0:0:0:
160,288,77832,5,4,0:0:0:0:
352,288,78132,5,12,0:0:0:0:
160,288,78432,5,4,0:0:0:0:
352,288,78732,5,12,0:0:0:0:
352,288,79182,5,12,0:0:0:0:
160,96,79482,5,0,0:0:0:0:
352,96,79782,5,8,0:0:0:0:
160,96,80082,5,0,0:0:0:0:
160,96,80232,5,0,0:0:0:0:
160,96,80532,5,0,0:0:0:0:
160,96,80832,5,0,0:0:0:0:
352,96,80982,5,8,0:0:0:0:
160,96,81282,5,0,0:0:0:0:
160,96,81432,5,0,0:0:0:0:
352,96,81582,5,8,0:0:0:0:
160,96,81882,5,0,0:0:0:0:
352,96,82182,5,8,0:0:0:0:
160,96,82482,5,0,0:0:0:0:
352,288,82782,5,12,0:0:0:0:
160,96,83232,5,0,0:0:0:0:
352,96,83382,5,8,0:0:0:0:
160,288,83982,5,4,0:0:0:0:
352,96,84282,5,8,0:0:0:0:
160,96,84582,5,0,0:0:0:0:
160,96,84732,5,0,0:0:0:0:
352,96,84882,5,8,0:0:0:0:
160,96,85182,5,0,0:0:0:0:
352,96,85482,5,8,0:0:0:0:
160,96,85632,5,0,0:0:0:0:
352,96,86082,5,8,0:0:0:0:
160,96,86382,5,0,0:0:0:0:
352,96,86682,5,8,0:0:0:0:
352,96,86832,5,8,0:0:0:0:
160,96,86982,5,0,0:0:0:0:
160,96,87132,5,0,0:0:0:0:
352,96,87282,5,8,0:0:0:0:
160,96,87582,5,0,0:0:0:0:
352,96,87882,5,8,0:0:0:0:
160,96,88032,5,0,0:0:0:0:
160,96,88482,5,0,0:0:0:0:
352,288,88782,5,12,0:0:0:0:
160,96,89082,5,0,0:0:0:0:
352,288,89382,5,12,0:0:0:0:
352,288,89982,5,12,0:0:0:0:
160,96,90132,5,0,0:0:0:0:
160,96,90282,5,0,0:0:0:0:
352,288,90582,5,12,0:0:0:0:
160,96,90732,5,0,0:0:0:0:
352,288,91182,5,12,0:0:0:0:
352,96,92532,5,8,0:0:0:0:
352,96,92682,5,8,0:0:0:0:
352,96,92832,5,8,0:0:0:0:
352,96,92982,5,8,0:0:0:0:
160,288,93582,5,4,0:0:0:0:
160,96,94032,5,0,0:0:0:0:
352,96,94182,5,8,0:0:0:0:
160,96,94482,5,0,0:0:0:0:
352,96,94782,5,8,0:0:0:0:
352,96,95232,5,8,0:0:0:0:
160,96,95382,5,0,0:0:0:0:
352,96,95682,5,8,0:0:0:0:
160,96,95982,5,0,0:0:0:0:
352,288,96282,5,12,0:0:0:0:
160,96,96582,5,0,0:0:0:0:
352,288,96882,5,12,0:0:0:0:
160,96,97182,5,0,0:0:0:0:
352,96,97482,5,8,0:0:0:0:
352,96,97632,5,8,0:0:0:0:
160,96,97782,5,0,0:0:0:0:
160,96,97932,5,0,0:0:0:0:
352,96,98082,5,8,0:0:0:0:
160,288,98382,5,4,0:0:0:0:
160,96,98832,5,0,0:0:0:0:
352,96,98982,5,8,0:0:0:0:
160,96,99282,5,0,0:0:0:0:
352,96,99582,5,8,0:0:0:0:
160,96,99882,5,0,0:0:0:0:
352,96,100032,5,8,0:0:0:0:
352,96,100182,5,8,0:0:0:0:
352,96,100482,5,8,0:0:0:0:
160,96,100782,5,0,0:0:0:0:
352,96,101082,5,8,0:0:0:0:
160,96,101382,5,0,0:0:0:0:
352,96,101532,5,8,0:0:0:0:
352,96,101682,5,8,0:0:0:0:
160,96,101982,5,0,0:0:0:0:
352,96,102282,5,8,0:0:0:0:
160,96,102582,5,0,0:0:0:0:
160,96,102732,5,0,0:0:0:0:
352,96,102882,5,8,0:0:0:0:
160,288,103182,5,4,0:0:0:0:
160,96,103782,5,0,0:0:0:0:
160,96,104082,5,0,0:0:0:0:
160,96,104232,5,0,0:0:0:0:
352,96,104382,5,8,0:0:0:0:
160,96,104982,5,0,0:0:0:0:
160,96,105282,5,0,0:0:0:0:
352,96,105582,5,8,0:0:0:0:
352,96,106032,5,8,0:0:0:0:
160,96,106182,5,0,0:0:0:0:
160,96,106482,5,0,0:0:0:0:
352,96,106632,5,8,0:0:0:0:
160,96,106782,5,0,0:0:0:0:
160,96,107382,5,0,0:0:0:0:
160,96,107682,5,0,0:0:0:0:
352,288,107982,5,12,0:0:0:0:
160,96,108282,5,0,0:0:0:0:
160,96,108582,5,0,0:0:0:0:
352,96,108732,5,8,0:0:0:0:
160,96,108882,5,0,0:0:0:0:
160,96,109182,5,0,0:0:0:0:
352,96,109482,5,8,0:0:0:0:
160,96,109782,5,0,0:0:0:0:
352,96,110382,5,8,0:0:0:0:
160,96,110682,5,0,0:0:0:0:
352,96,110982,5,8,0:0:0:0:
352,96,111132,5,8,0:0:0:0:
352,96,111282,5,8,0:0:0:0:
160,96,111582,5,0,0:0:0:0:
352,96,111882,5,8,0:0:0:0:
160,96,112032,5,0,0:0:0:0:
352,96,112182,5,8,0:0:0:0:
160,288,112782,5,4,0:0:0:0:
352,96,113082,5,8,0:0:0:0:
160,96,113382,5,0,0:0:0:0:
160,96,113532,5,0,0:0:0:0:
352,96,113682,5,8,0:0:0:0:
160,96,113982,5,0,0:0:0:0:
352,96,114282,5,8,0:0:0:0:
352,96,114432,5,8,0:0:0:0:
160,96,114582,5,0,0:0:0:0:
352,96,114882,5,8,0:0:0:0:
160,96,115182,5,0,0:0:0:0:
160,96,115782,5,0,0:0:0:0:
352,96,116082,5,8,0:0:0:0:
160,96,116382,5,0,0:0:0:0:
352,96,116682,5,8,0:0:0:0:
160,96,116832,5,0,0:0:0:0:
352,96,116982,5,8,0:0:0:0:
352,96,117282,5,8,0:0:0:0:
160,288,117582,5,4,0:0:0:0:
265,211,118482,6,0,L|321:172,8,66.4999982242585
160,288,119982,5,4,0:0:0:0:
160,288,120582,5,4,0:0:0:0:
160,288,121182,5,4,0:0:0:0:
160,288,121482,5,4,0:0:0:0:
352,288,121782,5,12,0:0:0:0:
160,288,122382,5,4,0:0:0:0:
352,96,122682,5,8,0:0:0:0:
352,96,123282,5,8,0:0:0:0:
352,96,123882,5,8,0:0:0:0:
352,96,124482,5,8,0:0:0:0:
160,96,124782,5,0,0:0:0:0:
352,96,125082,5,8,0:0:0:0:
352,96,125682,5,8,0:0:0:0:
352,96,126282,5,8,0:0:0:0:
352,96,126882,5,8,0:0:0:0:
160,96,127182,5,0,0:0:0:0:
352,96,127482,5,8,0:0:0:0:
352,96,128082,5,8,0:0:0:0:
160,96,128382,5,0,0:0:0:0:
352,96,128682,5,8,0:0:0:0:
352,96,129282,5,8,0:0:0:0:
160,288,129582,5,4,0:0:0:0:
160,288,130032,5,4,0:0:0:0:
352,96,130332,5,8,0:0:0:0:
160,288,130632,5,4,0:0:0:0:
160,96,130932,5,0,0:0:0:0:
160,96,131232,5,0,0:0:0:0:
352,288,131382,5,12,0:0:0:0:
160,288,131982,5,4,0:0:0:0:
352,96,132582,5,8,0:0:0:0:
352,96,132882,5,8,0:0:0:0:
160,96,133182,5,0,0:0:0:0:
352,96,133482,5,8,0:0:0:0:
160,96,133632,5,0,0:0:0:0:
352,96,133782,5,8,0:0:0:0:
352,96,134082,5,8,0:0:0:0:
160,96,134382,5,0,0:0:0:0:
352,96,134982,5,8,0:0:0:0:
352,96,135282,5,8,0:0:0:0:
352,96,135432,5,8,0:0:0:0:
160,96,135582,5,0,0:0:0:0:
160,96,136032,5,0,0:0:0:0:
352,96,136182,5,8,0:0:0:0:
352,96,136332,5,8,0:0:0:0:
160,288,136782,5,4,0:0:0:0:
256,192,136932,12,0,138282,0:0:0:0:
352,96,138582,5,8,0:0:0:0:
352,96,138882,5,8,0:0:0:0:
352,288,139182,5,12,0:0:0:0:
160,288,139632,5,4,0:0:0:0:
352,96,139932,5,8,0:0:0:0:
352,96,140082,5,8,0:0:0:0:
160,288,140382,5,4,0:0:0:0:
352,288,140832,5,12,0:0:0:0:
160,96,141132,5,0,0:0:0:0:
160,96,141282,5,0,0:0:0:0:
352,96,141582,5,8,0:0:0:0:
352,96,141882,5,8,0:0:0:0:
160,96,142182,5,0,0:0:0:0:
160,96,142482,5,0,0:0:0:0:
352,96,142782,5,8,0:0:0:0:
352,96,143382,5,8,0:0:0:0:
352,96,143682,5,8,0:0:0:0:
352,288,143982,5,12,0:0:0:0:
160,96,144282,5,0,0:0:0:0:
352,96,144582,5,8,0:0:0:0:
352,96,144882,5,8,0:0:0:0:
160,96,145032,5,0,0:0:0:0:
160,96,145332,5,0,0:0:0:0:
160,96,145632,5,0,0:0:0:0:
352,96,145782,5,8,0:0:0:0:
160,96,146082,5,0,0:0:0:0:
352,96,146382,5,8,0:0:0:0:
160,96,146682,5,0,0:0:0:0:
352,96,146982,5,8,0:0:0:0:
352,96,147282,5,8,0:0:0:0:
160,96,147432,5,0,0:0:0:0:
160,96,147732,5,0,0:0:0:0:
352,96,147882,5,8,0:0:0:0:
160,96,148182,5,0,0:0:0:0:
352,96,148782,5,8,0:0:0:0:
160,96,149232,5,0,0:0:0:0:
352,96,149382,5,8,0:0:0:0:
160,96,149832,5,0,0:0:0:0:
352,96,149982,5,8,0:0:0:0:
160,96,150282,5,0,0:0:0:0:
352,96,150582,5,8,0:0:0:0:
160,96,150882,5,0,0:0:0:0:
352,96,151182,5,8,0:0:0:0:
160,96,151482,5,0,0:0:0:0:
160,96,151632,5,0,0:0:0:0:
352,96,151782,5,8,0:0:0:0:
352,96,151932,5,8,0:0:0:0:
160,288,152232,5,4,0:0:0:0:
352,288,152532,5,12,0:0:0:0:
160,288,152832,5,4,0:0:0:0:
352,288,153132,5,12,0:0:0:0:
352,288,153582,5,12,0:0:0:0:
160,96,153882,5,0,0:0:0:0:
352,96,154182,5,8,0:0:0:0:
160,96,154482,5,0,0:0:0:0:
160,96,154632,5,0,0:0:0:0:
160,96,154932,5,0,0:0:0:0:
160,96,155232,5,0,0:0:0:0:
352,96,155382,5,8,0:0:0:0:
160,96,155682,5,0,0:0:0:0:
160,96,155832,5,0,0:0:0:0:
352,96,155982,5,8,0:0:0:0:
160,96,156282,5,0,0:0:0:0:
352,96,156582,5,8,0:0:0:0:
160,96,156882,5,0,0:0:0:0:
352,288,157182,5,12,0:0:0:0:
160,96,157632,5,0,0:0:0:0:
352,96,157782,5,8,0:0:0:0:
160,288,158382,5,4,0:0:0:0:
352,96,158682,5,8,0:0:0:0:
160,96,158982,5,0,0:0:0:0:
160,96,159132,5,0,0:0:0:0:
352,96,159282,5,8,0:0:0:0:
160,96,159582,5,0,0:0:0:0:
352,96,159882,5,8,0:0:0:0:
160,96,160032,5,0,0:0:0:0:
352,96,160482,5,8,0:0:0:0:
160,96,160782,5,0,0:0:0:0:
352,96,161082,5,8,0:0:0:0:
352,96,161232,5,8,0:0:0:0:
160,96,161382,5,0,0:0:0:0:
160,96,161532,5,0,0:0:0:0:
352,96,161682,5,8,0:0:0:0:
160,96,161982,5,0,0:0:0:0:
352,96,162282,5,8,0:0:0:0:
160,96,162432,5,0,0:0:0:0:
160,96,162882,5,0,0:0:0:0:
352,288,163182,5,12,0:0:0:0:
160,96,163482,5,0,0:0:0:0:
352,288,163782,5,12,0:0:0:0:
352,288,164382,5,12,0:0:0:0:
160,96,164532,5,0,0:0:0:0:
160,96,164682,5,0,0:0:0:0:
352,288,164982,5,12,0:0:0:0:
160,96,165132,5,0,0:0:0:0:
352,288,165582,5,12,0:0:0:0:
352,96,166932,5,8,0:0:0:0:
352,96,167082,5,8,0:0:0:0:
352,96,167232,5,8,0:0:0:0:
352,96,167382,5,8,0:0:0:0:
160,288,167982,5,4,0:0:0:0:
256,192,175182,12,0,176232,0:0:0:0:
160,288,176382,5,4,0:0:0:0:
160,96,177282,5,0,0:0:0:0:
352,96,177582,5,8,0:0:0:0:
352,96,178032,5,8,0:0:0:0:
352,96,178482,5,8,0:0:0:0:
160,96,178782,5,0,0:0:0:0:
160,96,179682,5,0,0:0:0:0:
352,96,179982,5,8,0:0:0:0:
352,96,180432,5,8,0:0:0:0:
352,96,180732,5,8,0:0:0:0:
352,96,181032,5,8,0:0:0:0:
160,96,181182,5,0,0:0:0:0:
352,96,181482,5,8,0:0:0:0:
352,96,181632,5,8,0:0:0:0:
160,96,182082,5,0,0:0:0:0:
352,96,182382,5,8,0:0:0:0:
160,96,182682,5,0,0:0:0:0:
352,96,182832,5,8,0:0:0:0:
352,96,183132,5,8,0:0:0:0:
160,96,183582,5,0,0:0:0:0:
160,96,183882,5,0,0:0:0:0:
352,96,184032,5,8,0:0:0:0:
352,96,184332,5,8,0:0:0:0:
160,96,184482,5,0,0:0:0:0:
352,96,184782,5,8,0:0:0:0:
160,96,185382,5,0,0:0:0:0:
352,288,185982,5,12,0:0:0:0:
352,288,186432,5,12,0:0:0:0:
160,96,186882,5,0,0:0:0:0:
352,288,187182,5,12,0:0:0:0:
352,288,187632,5,12,0:0:0:0:
160,96,188082,5,0,0:0:0:0:
352,288,188382,5,12,0:0:0:0:
352,288,188832,5,12,0:0:0:0:
160,96,189132,5,0,0:0:0:0:
160,96,189282,5,0,0:0:0:0:
352,288,189582,5,12,0:0:0:0:
352,288,190032,5,12,0:0:0:0:
160,96,190482,5,0,0:0:0:0:
352,288,190782,5,12,0:0:0:0:
352,96,191382,5,8,0:0:0:0:
352,96,191982,5,8,0:0:0:0:
160,96,192282,5,0,0:0:0:0:
352,96,192582,5,8,0:0:0:0:
160,96,192882,5,0,0:0:0:0:
352,96,193182,5,8,0:0:0:0:
352,96,193782,5,8,0:0:0:0:
352,96,194382,5,8,0:0:0:0:
160,96,194682,5,0,0:0:0:0:
352,96,194982,5,8,0:0:0:0:
160,96,195282,5,0,0:0:0:0:
352,96,195582,5,8,0:0:0:0:
352,96,196182,5,8,0:0:0:0:
352,96,196782,5,8,0:0:0:0:
160,96,196932,5,0,0:0:0:0:
160,96,197082,5,0,0:0:0:0:
352,96,197382,5,8,0:0:0:0:
160,96,197682,5,0,0:0:0:0:
160,96,197832,5,0,0:0:0:0:
352,288,197982,5,12,0:0:0:0:
160,288,198432,5,4,0:0:0:0:
160,96,199182,5,12,0:0:0:0:
160,288,199632,5,4,0:0:0:0:
352,288,200382,5,12,0:0:0:0:
160,288,200832,5,4,0:0:0:0:
352,288,201582,5,12,0:0:0:0:
160,288,202032,5,4,0:0:0:0:
352,288,202782,5,12,0:0:0:0:
160,96,203182,5,0,0:0:0:0:
160,96,203382,5,0,0:0:0:0:
160,96,203582,5,0,0:0:0:0:
352,288,203982,5,12,0:0:0:0:
352,96,204382,5,8,0:0:0:0:
160,96,204582,5,0,0:0:0:0:
160,96,204782,5,0,0:0:0:0:
352,288,205182,5,12,0:0:0:0:
352,96,205582,5,8,0:0:0:0:
352,96,205782,5,8,0:0:0:0:
160,96,205982,5,0,0:0:0:0:
352,288,206382,5,12,0:0:0:0:
256,192,206532,12,4,207282,0:0:0:0:
352,288,207582,5,12,0:0:0:0:
160,96,215832,5,0,0:0:0:0:
160,96,216132,5,0,0:0:0:0:
160,96,216432,5,0,0:0:0:0:
352,96,216582,5,8,0:0:0:0:
160,96,216732,5,0,0:0:0:0:
160,288,217182,5,4,0:0:0:0:
160,96,217632,5,0,0:0:0:0:
352,96,217782,5,8,0:0:0:0:
160,96,218382,5,0,0:0:0:0:
160,96,218682,5,0,0:0:0:0:
160,96,218832,5,0,0:0:0:0:
352,96,218982,5,8,0:0:0:0:
160,96,219582,5,0,0:0:0:0:
160,96,220032,5,0,0:0:0:0:
352,96,220182,5,8,0:0:0:0:
160,96,220782,5,0,0:0:0:0:
160,96,221082,5,0,0:0:0:0:
160,96,221232,5,0,0:0:0:0:
352,96,221382,5,8,0:0:0:0:
160,288,221982,5,4,0:0:0:0:
160,96,222432,5,0,0:0:0:0:
352,96,222582,5,8,0:0:0:0:
160,96,223182,5,0,0:0:0:0:
160,96,223482,5,0,0:0:0:0:
160,96,223632,5,0,0:0:0:0:
352,96,223782,5,8,0:0:0:0:
160,288,224382,5,4,0:0:0:0:
160,96,224832,5,0,0:0:0:0:
352,96,224982,5,8,0:0:0:0:
352,96,225282,5,8,0:0:0:0:
160,96,225582,5,0,0:0:0:0:
160,96,225882,5,0,0:0:0:0:
160,96,226032,5,0,0:0:0:0:
352,96,226182,5,8,0:0:0:0:
352,96,226332,5,8,0:0:0:0:
160,288,226782,5,4,0:0:0:0:
160,96,227232,5,0,0:0:0:0:
352,96,227382,5,8,0:0:0:0:
352,96,227682,5,8,0:0:0:0:
160,96,227982,5,0,0:0:0:0:
160,96,228282,5,0,0:0:0:0:
160,96,228432,5,0,0:0:0:0:
352,96,228582,5,8,0:0:0:0:
352,96,228732,5,8,0:0:0:0:
160,288,229032,5,4,0:0:0:0:
160,96,229482,5,0,0:0:0:0:
160,96,229782,5,0,0:0:0:0:
352,96,229932,5,8,0:0:0:0:
160,96,230082,5,0,0:0:0:0:
160,96,230382,5,0,0:0:0:0:
160,96,230682,5,0,0:0:0:0:
160,96,230982,5,0,0:0:0:0:
352,96,231132,5,8,0:0:0:0:
160,96,231282,5,0,0:0:0:0:
352,288,231582,5,12,0:0:0:0:
160,96,231882,5,0,0:0:0:0:
352,96,232182,5,8,0:0:0:0:
160,96,232332,5,0,0:0:0:0:
160,96,232482,5,0,0:0:0:0:
352,288,232632,5,12,0:0:0:0:
352,96,233382,5,8,0:0:0:0:
352,96,233682,5,8,0:0:0:0:
352,288,233982,5,12,0:0:0:0:
160,96,234282,5,0,0:0:0:0:
352,96,234582,5,8,0:0:0:0:
352,96,234882,5,8,0:0:0:0:
160,96,235032,5,0,0:0:0:0:
160,96,235332,5,0,0:0:0:0:
160,96,235632,5,0,0:0:0:0:
352,96,235782,5,8,0:0:0:0:
352,96,235932,5,8,0:0:0:0:
160,96,236082,5,0,0:0:0:0:
352,96,236382,5,8,0:0:0:0:
160,96,236682,5,0,0:0:0:0:
352,96,236982,5,8,0:0:0:0:
352,96,237282,5,8,0:0:0:0:
160,96,237432,5,0,0:0:0:0:
160,96,237732,5,0,0:0:0:0:
160,96,237882,5,0,0:0:0:0:
352,96,238032,5,8,0:0:0:0:
160,96,238182,5,0,0:0:0:0:
352,96,238782,5,8,0:0:0:0:
160,96,239232,5,0,0:0:0:0:
352,96,239382,5,8,0:0:0:0:
160,96,239832,5,0,0:0:0:0:
352,96,239982,5,8,0:0:0:0:
160,96,240282,5,0,0:0:0:0:
352,96,240582,5,8,0:0:0:0:
346,97,240732,5,8,0:0:0:0:
160,96,240882,5,0,0:0:0:0:
352,96,241182,5,8,0:0:0:0:
160,96,241482,5,0,0:0:0:0:
160,96,241632,5,0,0:0:0:0:
352,96,241782,5,8,0:0:0:0:
352,96,241932,5,8,0:0:0:0:
160,288,242232,5,4,0:0:0:0:
352,288,242532,5,12,0:0:0:0:
160,288,242832,5,4,0:0:0:0:
352,288,243132,5,12,0:0:0:0:
352,288,243582,5,12,0:0:0:0:
160,96,243882,5,0,0:0:0:0:
352,96,244182,5,8,0:0:0:0:
160,96,244482,5,0,0:0:0:0:
160,96,244632,5,0,0:0:0:0:
160,96,244932,5,0,0:0:0:0:
160,96,245232,5,0,0:0:0:0:
352,96,245382,5,8,0:0:0:0:
352,96,245532,5,8,0:0:0:0:
160,96,245682,5,0,0:0:0:0:
352,96,245982,5,8,0:0:0:0:
160,96,246282,5,0,0:0:0:0:
352,96,246582,5,8,0:0:0:0:
352,96,246732,5,8,0:0:0:0:
160,96,246882,5,0,0:0:0:0:
352,288,247182,5,12,0:0:0:0:
160,96,247632,5,0,0:0:0:0:
352,96,247782,5,8,0:0:0:0:
160,288,248382,5,4,0:0:0:0:
352,96,248682,5,8,0:0:0:0:
160,96,248982,5,0,0:0:0:0:
160,96,249132,5,0,0:0:0:0:
352,96,249282,5,8,0:0:0:0:
160,96,249582,5,0,0:0:0:0:
352,96,249882,5,8,0:0:0:0:
160,96,250032,5,0,0:0:0:0:
352,96,250482,5,8,0:0:0:0:
160,96,250782,5,0,0:0:0:0:
352,96,251082,5,8,0:0:0:0:
352,96,251232,5,8,0:0:0:0:
160,96,251382,5,0,0:0:0:0:
160,96,251532,5,0,0:0:0:0:
352,96,251682,5,8,0:0:0:0:
160,96,251982,5,0,0:0:0:0:
352,96,252282,5,8,0:0:0:0:
160,96,252432,5,0,0:0:0:0:
160,96,252882,5,0,0:0:0:0:
352,288,253182,5,12,0:0:0:0:
160,96,253482,5,0,0:0:0:0:
352,288,253782,5,12,0:0:0:0:
352,288,254382,5,12,0:0:0:0:
160,96,254532,5,0,0:0:0:0:
160,96,254682,5,0,0:0:0:0:
352,288,254982,5,12,0:0:0:0:
160,96,255132,5,0,0:0:0:0:
352,288,255582,5,12,0:0:0:0:
352,96,256932,5,8,0:0:0:0:
352,96,257082,5,8,0:0:0:0:
352,96,257232,5,8,0:0:0:0:
352,96,257382,5,8,0:0:0:0:
160,288,257982,5,4,0:0:0:0:
160,96,258432,5,0,0:0:0:0:
352,96,258582,5,8,0:0:0:0:
160,96,258882,5,0,0:0:0:0:
352,96,259182,5,8,0:0:0:0:
352,96,259632,5,8,0:0:0:0:
160,96,259782,5,0,0:0:0:0:
352,96,260082,5,8,0:0:0:0:
160,96,260382,5,0,0:0:0:0:
352,288,260682,5,12,0:0:0:0:
160,96,260982,5,0,0:0:0:0:
352,288,261282,5,12,0:0:0:0:
160,96,261582,5,0,0:0:0:0:
352,96,261882,5,8,0:0:0:0:
352,96,262032,5,8,0:0:0:0:
160,96,262182,5,0,0:0:0:0:
160,96,262332,5,0,0:0:0:0:
352,96,262482,5,8,0:0:0:0:
160,288,262782,5,4,0:0:0:0:
160,96,263232,5,0,0:0:0:0:
352,96,263382,5,8,0:0:0:0:
160,96,263682,5,0,0:0:0:0:
352,96,263982,5,8,0:0:0:0:
160,96,264282,5,0,0:0:0:0:
352,96,264432,5,8,0:0:0:0:
352,96,264582,5,8,0:0:0:0:
352,96,264882,5,8,0:0:0:0:
160,96,265182,5,0,0:0:0:0:
352,288,265482,5,12,0:0:0:0:
160,96,265782,5,0,0:0:0:0:
352,288,266082,5,12,0:0:0:0:
160,96,266232,5,0,0:0:0:0:
352,288,266682,5,12,0:0:0:0:
160,96,266832,5,0,0:0:0:0:
352,288,267132,5,12,0:0:0:0:
352,288,267282,5,12,0:0:0:0:
160,288,267582,5,4,0:0:0:0:
160,288,269982,5,4,0:0:0:0:
352,96,271182,5,8,0:0:0:0:
352,96,271332,5,8,0:0:0:0:
352,96,271482,5,8,0:0:0:0:
352,96,271632,5,8,0:0:0:0:
160,96,271782,5,0,0:0:0:0:
160,288,272382,5,4,0:0:0:0:
352,96,273732,5,8,0:0:0:0:
352,96,274032,5,8,0:0:0:0:
160,288,274182,5,4,0:0:0:0:
160,288,274482,5,4,0:0:0:0:
160,288,274782,5,4,0:0:0:0:
352,96,275082,5,8,0:0:0:0:
352,96,275232,5,8,0:0:0:0:
160,288,275382,5,4,0:0:0:0:
352,96,275682,5,8,0:0:0:0:
160,288,275832,5,4,0:0:0:0:
352,96,276582,5,8,0:0:0:0:
352,96,276882,5,8,0:0:0:0:
352,96,277182,5,8,0:0:0:0:
160,288,277782,5,4,0:0:0:0:
256,192,277932,12,0,283182,0:0:0:0:
