osu file format v14

[General]
AudioFilename: audio.mp3
AudioLeadIn: 0
PreviewTime: 135080
Countdown: 0
SampleSet: Soft
StackLeniency: 0.4
Mode: 0
LetterboxInBreaks: 0
WidescreenStoryboard: 1

[Editor]
DistanceSpacing: 1.3
BeatDivisor: 4
GridSize: 8
TimelineZoom: 1.6

[Metadata]
Title:Sore wa Sekai o Koete
TitleUnicode:それは世界を越えて
Artist:La priere
ArtistUnicode:La prière
Creator:Lanzhu
Version:Insane
Source:
Tags:mappers' guild mpg featured artist fa Gemini Syndrome 1st アルバム Album 棗いつき Natsume Itsuki 藍月なくる Aitsuki Nakuru nayuta Japanese Pop Jpop J-pop Full Version Idols Kyōzō Kyozo らぷりえーる なゆた sky_delta ラプリエール erisu mayuzumi fuyuko
BeatmapID:3174658
BeatmapSetID:1553883

[Difficulty]
HPDrainRate:5
CircleSize:3.8
OverallDifficulty:8.2
ApproachRate:9
SliderMultiplier:1.6
SliderTickRate:1

[Events]
//Background and Video events
0,0,"bg.jpg",0,0
//Break Periods
2,196928,200890
2,227248,235572
//Storyboard Layer 0 (Background)
//Storyboard Layer 1 (Fail)
//Storyboard Layer 2 (Pass)
//Storyboard Layer 3 (Foreground)
//Storyboard Layer 4 (Overlay)
//Storyboard Sound Samples

[TimingPoints]
-266,346.820809248555,4,2,1,40,1,0
600,-142.857142857143,4,2,1,40,0,0
1121,-142.857142857143,4,2,1,45,0,0
1814,-142.857142857143,4,2,1,45,0,0
1988,-142.857142857143,4,2,1,45,0,0
2161,-142.857142857143,4,2,1,45,0,0
2334,-142.857142857143,4,2,1,45,0,0
2507,-142.857142857143,4,2,1,45,0,0
2681,-142.857142857143,4,2,1,45,0,0
5109,-142.857142857143,4,2,1,45,0,0
5282,-142.857142857143,4,2,1,45,0,0
5456,-142.857142857143,4,2,1,45,0,0
5629,-142.857142857143,4,2,1,45,0,0
5803,-100,4,2,1,45,0,0
6408,-100,4,2,1,45,0,0
6496,-100,4,2,1,45,0,0
6670,-142.857142857143,4,2,1,45,0,0
9444,-142.857142857143,4,2,1,50,0,0
9617,-142.857142857143,4,2,1,50,0,0
9964,-142.857142857143,4,2,1,50,0,0
10137,-142.857142857143,4,2,1,50,0,0
10485,-142.857142857143,4,2,1,50,0,0
10658,-142.857142857143,4,2,1,50,0,0
11005,-142.857142857143,4,2,1,50,0,0
11178,-142.857142857143,4,2,1,50,0,0
11352,-142.857142857143,4,2,1,50,0,0
11785,-142.857142857143,4,2,1,50,0,0
11872,-142.857142857143,4,2,1,50,0,0
12219,-125,4,2,1,50,0,0
13085,-125,4,2,1,50,0,0
13259,-125,4,2,1,50,0,0
14993,-111.111111111111,4,2,1,50,0,0
15860,-111.111111111111,4,2,1,50,0,0
16034,-111.111111111111,4,2,1,50,0,0
17508,-111.111111111111,4,2,1,50,0,0
17595,-111.111111111111,4,2,1,50,0,0
17768,-100,4,2,1,60,0,0
18288,-100,4,2,1,60,0,0
18462,-100,4,2,1,60,0,0
19675,-100,4,2,1,60,0,0
19849,-100,4,2,1,60,0,0
21063,-100,4,2,1,60,0,0
21236,-100,4,2,1,60,0,0
22450,-100,4,2,1,60,0,0
22623,-100,4,2,1,60,0,0
23837,-100,4,2,1,60,0,0
24011,-100,4,2,1,60,0,0
25224,-100,4,2,1,60,0,0
25398,-100,4,2,1,60,0,0
27305,-100,4,2,1,55,0,0
27565,-100,4,2,1,5,0,0
27652,-100,4,2,1,55,0,0
27912,-100,4,2,1,5,0,0
27999,-100,4,2,1,55,0,0
28866,-117.647058823529,4,2,1,45,0,0
30253,-117.647058823529,4,2,1,45,0,0
30427,-117.647058823529,4,2,1,45,0,0
33028,-117.647058823529,4,2,1,45,0,0
33201,-117.647058823529,4,2,1,45,0,0
35802,-117.647058823529,4,2,1,45,0,0
35976,-117.647058823529,4,2,1,45,0,0
37190,-111.111111111111,4,2,1,45,0,0
39964,-105.263157894737,4,2,1,45,0,0
40485,-105.263157894737,4,2,1,45,0,0
40658,-105.263157894737,4,2,1,45,0,0
40831,-105.263157894737,4,2,1,45,0,0
41005,-105.263157894737,4,2,1,45,0,0
41524,-105.263157894737,4,2,1,45,0,0
41699,-105.263157894737,4,2,1,45,0,0
45340,-95.2380952380952,4,2,1,60,0,0
52537,-95.2380952380952,4,2,1,60,0,0
54704,-95.2380952380952,4,2,1,50,0,0
54964,-95.2380952380952,4,2,1,60,0,0
55225,-90.9090909090909,4,2,1,70,0,0
56698,-90.9090909090909,4,2,1,5,0,0
56785,-90.9090909090909,4,2,1,70,0,0
61034,-90.9090909090909,4,2,1,5,0,0
61121,-90.9090909090909,4,2,1,70,0,0
64068,-90.9090909090909,4,2,1,70,0,0
64242,-90.9090909090909,4,2,1,70,0,0
64849,-90.9090909090909,4,2,1,5,0,0
64936,-90.9090909090909,4,2,1,70,0,0
66062,-90.9090909090909,4,2,1,70,0,0
66149,-90.9090909090909,4,2,1,70,0,0
72045,-90.9090909090909,4,2,1,70,0,0
72219,-90.9090909090909,4,2,1,70,0,0
72392,-90.9090909090909,4,2,1,70,0,0
72566,-90.9090909090909,4,2,1,70,0,0
74647,-100,4,2,1,70,0,0
77421,-117.647058823529,4,2,1,55,0,0
77594,-117.647058823529,4,2,1,55,0,0
77768,-117.647058823529,4,2,1,55,0,0
77941,-117.647058823529,4,2,1,55,0,0
78115,-117.647058823529,4,2,1,55,0,0
80109,-117.647058823529,4,2,1,5,0,0
80196,-117.647058823529,4,2,1,55,0,0
80369,-117.647058823529,4,2,1,55,0,0
80542,-117.647058823529,4,2,1,55,0,0
80715,-117.647058823529,4,2,1,55,0,0
80889,-117.647058823529,4,2,1,55,0,0
82796,-117.647058823529,4,2,1,55,0,0
82970,-117.647058823529,4,2,1,55,0,0
86265,-117.647058823529,4,2,1,55,0,0
86438,-117.647058823529,4,2,1,55,0,0
86611,-117.647058823529,4,2,1,55,0,0
86785,-117.647058823529,4,2,1,55,0,0
86959,-117.647058823529,4,2,1,50,0,0
88519,-111.111111111111,4,2,1,60,0,0
91120,-111.111111111111,4,2,1,60,0,0
91294,-111.111111111111,4,2,1,60,0,0
93895,-111.111111111111,4,2,1,60,0,0
94068,-111.111111111111,4,2,1,60,0,0
94589,-111.111111111111,4,2,1,60,0,0
94762,-111.111111111111,4,2,1,60,0,0
94935,-111.111111111111,4,2,1,60,0,0
95109,-111.111111111111,4,2,1,60,0,0
95455,-111.111111111111,4,2,1,60,0,0
95629,-111.111111111111,4,2,1,60,0,0
96235,-111.111111111111,4,2,1,60,0,0
96323,-111.111111111111,4,2,1,60,0,0
98924,-111.111111111111,4,2,1,60,0,0
99097,-111.111111111111,4,2,1,60,0,0
99618,-200,4,2,1,60,0,0
99704,-200,4,2,1,60,0,0
102392,-117.647058823529,4,2,1,45,0,0
103779,-117.647058823529,4,2,1,45,0,0
103953,-117.647058823529,4,2,1,45,0,0
106553,-117.647058823529,4,2,1,45,0,0
106727,-117.647058823529,4,2,1,45,0,0
109328,-117.647058823529,4,2,1,45,0,0
109502,-117.647058823529,4,2,1,45,0,0
113317,-117.647058823529,4,2,1,45,0,0
113490,-133.333333333333,4,2,1,40,0,0
114010,-133.333333333333,4,2,1,40,0,0
114530,-133.333333333333,4,2,1,40,0,0
117305,-133.333333333333,4,2,1,40,0,0
117652,-133.333333333333,4,2,1,40,0,0
118172,-133.333333333333,4,2,1,40,0,0
119040,-133.333333333333,4,2,1,40,0,0
119560,-133.333333333333,4,2,1,40,0,0
120080,-133.333333333333,4,2,1,40,0,0
122334,-133.333333333333,4,2,1,40,0,0
123028,-133.333333333333,4,2,1,40,0,0
124154,-133.333333333333,4,2,1,40,0,0
124242,-133.333333333333,4,2,1,40,0,0
124589,-111.111111111111,4,2,1,45,0,0
124762,-111.111111111111,4,2,1,45,0,0
124936,-111.111111111111,4,2,1,45,0,0
126149,-111.111111111111,4,2,1,45,0,0
126322,-111.111111111111,4,2,1,45,0,0
126495,-111.111111111111,4,2,1,45,0,0
126669,-111.111111111111,4,2,1,45,0,0
126842,-111.111111111111,4,2,1,45,0,0
127016,-111.111111111111,4,2,1,45,0,0
131004,-111.111111111111,4,2,1,45,0,0
131178,-111.111111111111,4,2,1,45,0,0
134473,-111.111111111111,4,2,1,55,0,0
135687,-90.9090909090909,4,2,1,70,0,0
137160,-90.9090909090909,4,2,1,5,0,0
137248,-90.9090909090909,4,2,1,70,0,0
141496,-90.9090909090909,4,2,1,5,0,0
141583,-90.9090909090909,4,2,1,70,0,0
144530,-90.9090909090909,4,2,1,70,0,0
144704,-90.9090909090909,4,2,1,70,0,0
146524,-90.9090909090909,4,2,1,70,0,0
146612,-90.9090909090909,4,2,1,70,0,0
152507,-90.9090909090909,4,2,1,70,0,0
152681,-90.9090909090909,4,2,1,70,0,0
152854,-90.9090909090909,4,2,1,70,0,0
153028,-90.9090909090909,4,2,1,70,0,0
155109,-100,4,2,1,55,0,0
155282,-100,4,2,1,55,0,0
155629,-100,4,2,1,55,0,0
155802,-100,4,2,1,55,0,0
156149,-100,4,2,1,55,0,0
157884,-125,4,2,1,45,0,0
162912,-125,4,2,1,45,0,0
163086,-125,4,2,1,45,0,0
168982,-111.111111111111,4,2,1,50,0,0
171583,-111.111111111111,4,2,1,50,0,0
171756,-111.111111111111,4,2,1,50,0,0
174531,-95.2380952380952,4,2,1,60,0,0
175744,-95.2380952380952,4,2,1,60,0,0
175918,-95.2380952380952,4,2,1,60,0,0
176438,-95.2380952380952,4,2,1,60,0,0
176612,-95.2380952380952,4,2,1,60,0,0
177132,-95.2380952380952,4,2,1,60,0,0
177305,-95.2380952380952,4,2,1,60,0,0
179213,-95.2380952380952,4,2,1,60,0,0
179386,-95.2380952380952,4,2,1,60,0,0
180600,-95.2380952380952,4,2,1,60,0,0
180774,-95.2380952380952,4,2,1,60,0,0
181294,-95.2380952380952,4,2,1,60,0,0
181467,-95.2380952380952,4,2,1,60,0,0
182681,-95.2380952380952,4,2,1,60,0,0
182855,-95.2380952380952,4,2,1,60,0,0
183028,-95.2380952380952,4,2,1,60,0,0
183201,-95.2380952380952,4,2,1,60,0,0
186149,-95.2380952380952,4,2,1,60,0,0
186323,-95.2380952380952,4,2,1,60,0,0
186843,-95.2380952380952,4,2,1,60,0,0
187016,-95.2380952380952,4,2,1,60,0,0
187537,-95.2380952380952,4,2,1,60,0,0
187710,-95.2380952380952,4,2,1,60,0,0
188230,-95.2380952380952,4,2,1,60,0,0
188404,-95.2380952380952,4,2,1,60,0,0
190311,-95.2380952380952,4,2,1,60,0,0
190485,-95.2380952380952,4,2,1,60,0,0
191699,-95.2380952380952,4,2,1,60,0,0
191872,-95.2380952380952,4,2,1,60,0,0
192392,-95.2380952380952,4,2,1,60,0,0
192566,-95.2380952380952,4,2,1,60,0,0
193086,-95.2380952380952,4,2,1,60,0,0
193259,-95.2380952380952,4,2,1,60,0,0
193779,-95.2380952380952,4,2,1,60,0,0
193953,-95.2380952380952,4,2,1,60,0,0
196554,-95.2380952380952,4,2,1,60,0,0
196727,-166.666666666667,4,2,1,40,0,0
202277,-142.857142857143,4,2,1,45,0,0
202450,-142.857142857143,4,2,1,45,0,0
202623,-142.857142857143,4,2,1,45,0,0
202796,-142.857142857143,4,2,1,45,0,0
202970,-142.857142857143,4,2,1,45,0,0
203143,-142.857142857143,4,2,1,45,0,0
203317,-142.857142857143,4,2,1,45,0,0
203490,-142.857142857143,4,2,1,45,0,0
203664,-142.857142857143,4,2,1,45,0,0
203837,-142.857142857143,4,2,1,45,0,0
204010,-142.857142857143,4,2,1,45,0,0
204183,-142.857142857143,4,2,1,45,0,0
204357,-142.857142857143,4,2,1,45,0,0
204530,-142.857142857143,4,2,1,45,0,0
204704,-142.857142857143,4,2,1,45,0,0
204877,-142.857142857143,4,2,1,45,0,0
205051,-142.857142857143,4,2,1,45,0,0
205571,-142.857142857143,4,2,1,45,0,0
205745,-142.857142857143,4,2,1,45,0,0
205918,-142.857142857143,4,2,1,45,0,0
206092,-142.857142857143,4,2,1,45,0,0
206265,-142.857142857143,4,2,1,45,0,0
206438,-142.857142857143,4,2,1,45,0,0
207652,-142.857142857143,4,2,1,45,0,0
207826,-142.857142857143,4,2,1,45,0,0
207999,-142.857142857143,4,2,1,45,0,0
208173,-142.857142857143,4,2,1,45,0,0
208346,-142.857142857143,4,2,1,45,0,0
208519,-142.857142857143,4,2,1,45,0,0
208692,-142.857142857143,4,2,1,45,0,0
208866,-142.857142857143,4,2,1,45,0,0
209039,-142.857142857143,4,2,1,45,0,0
209213,-142.857142857143,4,2,1,45,0,0
209386,-142.857142857143,4,2,1,45,0,0
209560,-142.857142857143,4,2,1,45,0,0
209733,-142.857142857143,4,2,1,45,0,0
209907,-142.857142857143,4,2,1,45,0,0
210080,-142.857142857143,4,2,1,45,0,0
210253,-142.857142857143,4,2,1,45,0,0
210427,-142.857142857143,4,2,1,45,0,0
210600,-142.857142857143,4,2,1,45,0,0
210773,-142.857142857143,4,2,1,45,0,0
210947,-142.857142857143,4,2,1,45,0,0
211120,-142.857142857143,4,2,1,45,0,0
211294,-142.857142857143,4,2,1,45,0,0
211467,-142.857142857143,4,2,1,45,0,0
211641,-142.857142857143,4,2,1,45,0,0
211727,-142.857142857143,4,2,1,45,0,0
211988,-142.857142857143,4,2,1,45,0,0
212161,-142.857142857143,4,2,1,45,0,0
212334,-142.857142857143,4,2,1,45,0,0
212507,-142.857142857143,4,2,1,45,0,0
212681,-142.857142857143,4,2,1,45,0,0
212767,-142.857142857143,4,2,1,45,0,0
213028,-142.857142857143,4,2,1,45,0,0
213201,-142.857142857143,4,2,1,45,0,0
213375,-142.857142857143,4,2,1,45,0,0
216149,-125,4,2,1,50,0,0
217178,-125,4,2,1,50,0,0
217363,-125,4,2,1,50,0,0
217709,-125,4,2,1,50,0,0
217884,-125,4,2,1,50,0,0
218403,-125,4,2,1,50,0,0
218577,-125,4,2,1,50,0,0
218750,-125,4,2,1,50,0,0
218924,-125,4,2,1,50,0,0
223606,-125,4,2,1,50,0,0
223779,-125,4,2,1,50,0,0
225687,-125,4,2,1,50,0,0
225860,-125,4,2,1,50,0,0
227248,-117.647058823529,4,2,1,45,0,0
237479,-117.647058823529,4,2,1,45,0,0
237826,-153.846153846154,4,2,1,45,0,0
237999,-153.846153846154,4,2,1,45,0,0
238346,-117.647058823529,4,2,1,50,0,0
238519,-117.647058823529,4,2,1,50,0,0
238693,-117.647058823529,4,2,1,50,0,0
241034,-117.647058823529,4,2,1,50,0,0
241121,-117.647058823529,4,2,1,50,0,0
242421,-117.647058823529,4,2,1,50,0,0
242508,-117.647058823529,4,2,1,50,0,0
243374,-117.647058823529,4,2,1,50,0,0
243548,-117.647058823529,4,2,1,50,0,0
243721,-117.647058823529,4,2,1,50,0,0
243895,-117.647058823529,4,2,1,50,0,0
246322,-117.647058823529,4,2,1,50,0,0
246495,-117.647058823529,4,2,1,50,0,0
248056,-117.647058823529,4,2,1,50,0,0
248230,-117.647058823529,4,2,1,50,0,0
248924,-117.647058823529,4,2,1,55,0,0
249097,-117.647058823529,4,2,1,55,0,0
249184,-117.647058823529,4,2,1,60,0,0
249444,-90.9090909090909,4,2,1,75,0,0
250831,-90.9090909090909,4,2,1,75,0,0
251005,-90.9090909090909,4,2,1,75,0,0
252998,-90.9090909090909,4,2,1,75,0,0
253086,-90.9090909090909,4,2,1,75,0,0
258287,-90.9090909090909,4,2,1,75,0,0
258461,-90.9090909090909,4,2,1,75,0,0
260282,-90.9090909090909,4,2,1,75,0,0
260369,-90.9090909090909,4,2,1,75,0,0
263230,-90.9090909090909,4,2,1,75,0,0
263316,-90.9090909090909,4,2,1,75,0,0
266265,-90.9090909090909,4,2,1,75,0,0
266438,-90.9090909090909,4,2,1,75,0,0
266611,-90.9090909090909,4,2,1,75,0,0
266785,-90.9090909090909,4,2,1,75,0,0
267305,-100,4,2,1,75,0,0
267825,-100,4,2,1,55,0,0
269733,-100,4,2,1,55,0,0
269907,-100,4,2,1,55,0,0
270947,-100,4,2,1,60,0,0
271727,-100,4,2,1,60,0,0
271814,-100,4,2,1,60,0,0
273461,-100,4,2,1,60,0,0
273548,-100,4,2,1,60,0,0
274242,-100,4,2,1,60,0,0
274415,-90.9090909090909,4,2,1,75,0,0
275803,-90.9090909090909,4,2,1,75,0,0
275976,-90.9090909090909,4,2,1,75,0,0
276323,-90.9090909090909,4,2,1,75,0,0
276496,-90.9090909090909,4,2,1,75,0,0
277102,-90.9090909090909,4,2,1,75,0,0
277190,-90.9090909090909,4,2,1,75,0,0
277710,-90.9090909090909,4,2,1,75,0,0
277884,-90.9090909090909,4,2,1,75,0,0
280485,-90.9090909090909,4,2,1,75,0,0
280658,-90.9090909090909,4,2,1,75,0,0
281265,-90.9090909090909,4,2,1,5,0,0
281352,-90.9090909090909,4,2,1,75,0,0
287421,-90.9090909090909,4,2,1,75,0,0
287594,-90.9090909090909,4,2,1,75,0,0
290976,-90.9090909090909,4,2,1,75,0,0
291063,-90.9090909090909,4,2,1,75,0,0
291236,-90.9090909090909,4,2,1,75,0,0
291410,-90.9090909090909,4,2,1,75,0,0
291583,-90.9090909090909,4,2,1,75,0,0
291756,-90.9090909090909,4,2,1,75,0,0
292363,-90.9090909090909,4,2,1,75,0,0
292450,-90.9090909090909,4,2,1,75,0,0
294357,-90.9090909090909,4,2,1,75,0,0
294531,-90.9090909090909,4,2,1,75,0,0
296351,-90.9090909090909,4,2,1,5,0,0
296438,-90.9090909090909,4,2,1,75,0,0
299386,-90.9090909090909,4,2,1,80,0,0
300774,-90.9090909090909,4,2,1,60,0,0
301120,-90.9090909090909,4,2,1,60,0,0
301294,-90.9090909090909,4,2,1,60,0,0
302161,-111.111111111111,4,2,1,60,0,0
302248,-111.111111111111,4,2,1,60,0,0

[Colours]
Combo1 : 255,255,0
Combo2 : 255,62,158
Combo3 : 18,124,255

[HitObjects]
79,308,601,6,0,L|63:382,2,55.9999982910157,2|2|2,0:0|0:0|0:0,0:0:0:0:
130,229,1122,6,0,P|175:217|226:263,1,111.999996582031,2|2,0:0|0:0,0:0:0:0:
261,324,1642,2,0,L|331:307,1,55.9999982910157,2|0,0:0|0:0,0:0:0:0:
416,245,1989,2,0,L|361:231,1,55.9999982910157,2|0,0:0|0:0,0:0:0:0:
284,147,2335,2,0,L|338:133,1,55.9999982910157,2|0,0:0|0:0,0:0:0:0:
458,94,2682,5,2,0:0:0:0:
228,49,3029,2,0,P|173:24|124:52,1,111.999996582031,2|2,0:0|0:0,0:0:0:0:
77,100,3549,1,2,0:0:0:0:
13,31,3723,1,2,0:0:0:0:
105,129,3896,6,0,L|181:215,1,111.999996582031,2|2,0:0|0:0,0:0:0:0:
95,337,4416,2,0,L|20:253,1,111.999996582031,2|0,0:0|1:0,0:0:0:0:
157,273,5110,2,0,L|213:262,1,55.9999982910157,2|0,0:3|0:0,0:0:0:0:
303,298,5457,2,0,L|352:264,1,55.9999982910157,0|0,1:0|0:0,0:0:0:0:
411,194,5804,5,0,1:0:0:0:
411,194,5890,1,0,1:0:0:0:
411,194,5977,2,0,L|423:139,1,40,0|0,1:0|1:0,0:0:0:0:
489,108,6150,1,0,1:0:0:0:
489,108,6236,1,0,1:0:0:0:
489,108,6324,2,0,L|480:68,1,40,0|0,1:0|0:0,0:0:0:0:
414,9,6497,1,2,1:2:0:0:
342,52,6671,6,0,P|284:42|229:87,1,111.999996582031,2|2,0:2|0:2,0:0:0:0:
131,199,7364,2,0,P|189:209|244:164,1,111.999996582031,2|2,0:2|0:2,0:0:0:0:
171,115,7885,1,2,0:2:0:0:
291,286,8231,1,2,0:2:0:0:
291,286,8578,5,2,0:2:0:0:
392,308,8752,1,2,0:2:0:0:
264,282,8925,1,2,0:2:0:0:
419,315,9098,1,2,0:2:0:0:
419,315,9272,1,2,0:2:0:0:
394,153,9445,6,0,P|363:135|325:141,1,55.9999982910157,6|0,3:2|0:0,0:0:0:0:
344,135,9965,2,0,P|313:153|275:147,1,55.9999982910157,2|0,3:2|0:0,0:0:0:0:
293,153,10486,2,0,P|262:135|224:141,1,55.9999982910157,2|0,3:2|0:0,0:0:0:0:
242,134,11006,2,0,P|211:152|173:146,1,55.9999982910157,2|0,3:2|0:0,0:0:0:0:
110,96,11353,2,0,L|65:106,1,27.9999991455078,0|0,1:2|1:2,0:0:0:0:
7,119,11526,1,0,3:2:0:0:
56,209,11700,2,0,L|101:219,1,27.9999991455078,0|0,1:2|1:2,0:0:0:0:
159,232,11873,1,0,3:0:0:0:
73,320,12046,1,0,1:2:0:0:
177,346,12220,6,0,P|209:346|248:328,1,64,6|0,3:2|1:2,0:0:0:0:
312,199,12567,2,0,P|296:226|292:269,1,64,0|0,3:2|1:2,0:0:0:0:
370,384,12913,2,0,P|354:356|318:331,1,64,0|0,3:2|0:0,0:0:0:0:
378,265,13260,1,0,3:2:0:0:
378,265,13434,1,0,1:2:0:0:
473,362,13607,6,0,L|491:294,1,64,0|0,3:2|1:2,0:0:0:0:
446,211,13954,2,0,L|429:149,1,64,0|0,3:2|1:2,0:0:0:0:
481,58,14301,1,0,3:2:0:0:
481,58,14474,1,0,1:2:0:0:
364,20,14648,2,0,L|322:33,1,32,0|0,1:0|1:2,0:0:0:0:
275,88,14821,2,0,L|233:75,1,32,0|0,1:2|1:2,0:0:0:0:
182,12,14994,6,0,P|140:10|108:39,1,71.9999978027344,0|0,3:2|1:2,0:0:0:0:
113,193,15341,2,0,P|135:157|126:115,1,71.9999978027344,0|0,3:2|1:2,0:0:0:0:
0,44,15688,2,0,P|19:81|60:94,1,71.9999978027344,0|0,3:2|0:0,0:0:0:0:
19,193,16035,1,0,3:2:0:0:
19,193,16208,6,0,L|37:273,1,71.9999978027344,2|0,0:3|3:2,0:0:0:0:
121,300,16555,1,2,0:3:0:0:
104,370,16728,2,0,L|126:277,1,71.9999978027344,0|2,3:2|0:3,0:0:0:0:
212,235,17075,1,0,1:2:0:0:
212,235,17162,1,0,1:2:0:0:
212,235,17249,2,0,L|261:245,1,35.9999989013672,0|0,1:2|1:2,0:0:0:0:
339,299,17422,1,0,3:2:0:0:
339,299,17509,1,0,3:0:0:0:
339,299,17596,2,0,L|388:289,1,35.9999989013672,8|8,0:2|0:2,0:0:0:0:
462,249,17769,6,0,B|491:197|474:147|474:147|441:111|401:112,1,160,6|8,3:2|0:0,0:0:0:0:
430,116,18289,1,0,0:0:0:0:
257,69,18463,1,2,3:2:0:0:
407,18,18636,1,0,3:0:0:0:
331,43,18809,1,8,0:0:0:0:
186,8,18983,6,0,P|114:9|79:97,1,160,2|0,3:2|3:2,0:0:0:0:
140,234,19503,2,0,P|95:237|46:247,1,80,8|0,0:0|0:0,0:0:0:0:
172,138,19850,2,0,P|217:141|266:151,1,80,0|2,3:2|3:2,0:0:0:0:
325,215,20197,2,0,L|313:271,1,40,8|0,1:2|1:2,0:0:0:0:
420,341,20370,2,0,L|411:301,1,40,0|0,1:2|1:2,0:0:0:0:
303,363,20543,6,0,B|250:304|206:383|142:368,1,160,6|8,3:2|0:2,0:0:0:0:
154,369,21064,1,0,0:0:0:0:
36,291,21237,1,2,3:2:0:0:
191,248,21411,1,0,3:2:0:0:
116,269,21584,1,8,0:2:0:0:
9,362,21757,6,0,P|17:279|25:177,1,160,2|0,3:2|3:2,0:0:0:0:
119,46,22278,2,0,P|87:24|23:38,1,80,10|0,0:2|0:0,0:0:0:0:
161,132,22624,2,0,P|199:134|247:89,1,80,2|0,3:2|3:2,0:0:0:0:
326,35,22971,2,0,L|265:20,1,40,8|0,1:2|1:2,0:0:0:0:
377,123,23145,2,0,L|438:108,1,40,0|0,1:2|1:2,0:0:0:0:
491,28,23318,6,0,P|474:81|461:191,1,160,6|8,3:2|0:0,0:0:0:0:
460,184,23838,1,0,0:0:0:0:
311,280,24012,1,2,3:2:0:0:
410,317,24185,1,0,3:0:0:0:
510,350,24358,1,8,0:0:0:0:
311,280,24532,6,0,B|267:260|227:275|227:275|225:281|225:281|205:317|139:313,1,160,2|0,3:2|3:2,0:0:0:0:
129,134,25052,2,0,P|174:130|219:164,1,80,8|0,0:0|0:0,0:0:0:0:
99,240,25399,2,0,P|54:244|9:210,1,80,0|2,3:2|3:2,0:0:0:0:
30,64,25746,2,0,L|18:102,1,40,8|0,1:2|1:2,0:0:0:0:
118,16,25919,2,0,L|129:54,1,40,0|0,1:2|1:2,0:0:0:0:
200,145,26093,5,6,3:2:0:0:
260,33,26266,2,0,L|318:46,1,40,0|0,1:2|1:2,0:0:0:0:
383,60,26439,1,8,1:2:0:0:
501,183,26613,2,0,L|461:191,1,40,0|0,1:2|1:2,0:0:0:0:
378,210,26786,1,0,3:2:0:0:
464,51,26960,1,0,3:2:0:0:
370,224,27133,1,2,3:2:0:0:
277,108,27306,6,0,P|211:98|173:137,1,120,8|0,0:2|0:0,0:0:0:0:
137,206,27653,2,0,P|203:216|241:177,1,120,8|0,0:2|0:0,0:0:0:0:
277,108,28000,1,8,0:2:0:0:
43,262,28347,1,8,0:2:0:0:
180,305,28520,1,8,0:2:0:0:
17,52,28867,6,0,P|31:117|37:194,1,136.000002593994,2|2,3:2|0:2,0:0:0:0:
109,23,29387,2,0,P|123:88|129:165,1,136.000002593994,2|2,3:2|0:2,0:0:0:0:
205,5,29908,2,0,P|219:70|225:147,1,136.000002593994,2|0,3:2|0:0,0:0:0:0:
145,249,30428,1,0,3:2:0:0:
145,249,30515,1,0,3:2:0:0:
145,249,30601,5,0,3:2:0:0:
239,213,30775,1,0,3:2:0:0:
333,269,30948,1,2,3:3:0:0:
282,336,31122,1,2,0:3:0:0:
381,203,31295,1,2,3:3:0:0:
381,203,31468,1,2,0:3:0:0:
303,49,31642,6,0,P|288:115|283:183,1,136.000002593994,2|2,3:2|0:2,0:0:0:0:
400,68,32162,2,0,P|385:134|380:202,1,136.000002593994,2|2,3:2|0:2,0:0:0:0:
491,96,32681,2,0,P|476:162|471:230,1,136.000002593994,2|0,3:2|0:0,0:0:0:0:
351,297,33202,1,0,3:2:0:0:
351,297,33289,1,0,3:2:0:0:
351,297,33375,5,0,3:2:0:0:
257,261,33549,1,0,3:2:0:0:
163,317,33722,1,2,3:3:0:0:
214,384,33896,1,2,0:3:0:0:
115,251,34069,1,2,3:3:0:0:
115,251,34242,1,2,0:3:0:0:
230,121,34416,6,0,B|286:123|286:123|318:138|318:138|380:136,1,136.000002593994,2|2,3:2|0:2,0:0:0:0:
213,197,34937,2,0,B|269:199|269:199|301:214|301:214|345:212,1,136.000002593994,2|2,3:2|0:2,0:0:0:0:
192,275,35457,2,0,B|248:277|248:277|280:292|280:292|324:290,1,136.000002593994,2|0,3:2|0:0,0:0:0:0:
428,206,35977,1,0,3:2:0:0:
428,206,36064,1,0,3:2:0:0:
428,206,36150,5,0,3:2:0:0:
488,117,36324,1,0,3:2:0:0:
413,32,36497,1,2,3:3:0:0:
292,45,36671,1,2,0:3:0:0:
253,147,36844,1,2,3:3:0:0:
383,132,37017,1,2,0:3:0:0:
194,69,37191,6,0,B|121:51|121:51|44:88,1,143.999995605469,6|0,3:2|3:2,0:0:0:0:
59,81,37885,1,2,3:2:0:0:
11,169,38058,1,2,0:2:0:0:
74,257,38231,1,2,3:2:0:0:
12,348,38405,1,2,0:2:0:0:
135,370,38578,6,0,P|203:343|268:362,1,143.999995605469,2|2,3:2|3:2,0:0:0:0:
391,372,39098,2,0,L|402:287,1,71.9999978027344,2|0,0:2|3:2,0:0:0:0:
485,165,39445,2,0,L|496:250,1,71.9999978027344,2|0,0:2|3:2,0:0:0:0:
387,108,39792,1,0,1:2:0:0:
387,108,39879,1,0,1:2:0:0:
387,108,39965,6,0,B|287:97|287:97|269:125|231:139,1,151.999995941162,2|2,3:2|3:2,0:0:0:0:
249,130,40486,1,0,0:0:0:0:
91,48,40659,2,0,P|126:34|184:38,1,75.9999979705811,2|0,3:2|0:0,0:0:0:0:
145,117,41006,1,2,3:2:0:0:
5,74,41179,6,0,P|30:136|40:228,1,151.999995941162,2|0,0:2|0:0,0:0:0:0:
53,361,41700,1,0,3:2:0:0:
100,290,41873,2,0,P|134:300|206:312,1,75.9999979705811,2|2,0:2|3:2,0:0:0:0:
252,369,42220,2,0,P|286:359|358:347,1,75.9999979705811,2|2,0:2|3:2,0:0:0:0:
488,311,42567,1,2,0:2:0:0:
434,370,42740,6,0,B|406:330|406:330|429:208,1,151.999995941162,2|2,3:2|3:2,0:0:0:0:
352,96,43260,2,0,L|264:120,1,75.9999979705811,2|0,0:2|3:2,0:0:0:0:
164,199,43607,2,0,L|237:218,1,75.9999979705811,2|0,0:2|3:2,0:0:0:0:
165,78,43954,6,0,P|102:70|47:159,1,151.999995941162,2|2,0:2|0:2,0:0:0:0:
128,152,44474,1,2,3:2:0:0:
250,82,44648,1,2,0:2:0:0:
367,148,44821,1,0,3:2:0:0:
367,148,44994,1,2,0:2:0:0:
314,18,45168,1,2,0:2:0:0:
477,118,45341,6,0,P|459:182|453:285,1,167.999994873047,4|2,3:2|3:2,0:0:0:0:
373,349,45861,1,10,0:2:0:0:
373,349,46208,1,10,0:2:0:0:
308,277,46382,1,2,0:2:0:0:
379,221,46555,1,2,0:2:0:0:
237,341,46728,6,0,B|153:364|153:364|64:326,1,167.999994873047,6|2,3:2|3:2,0:0:0:0:
161,263,47249,1,10,0:2:0:0:
161,263,47595,2,0,L|147:175,1,83.9999974365235,10|2,0:2|0:2,0:0:0:0:
113,25,47942,1,2,0:2:0:0:
52,81,48116,6,0,P|142:99|203:19,1,167.999994873047,6|2,3:2|3:2,0:0:0:0:
364,64,48636,1,10,0:2:0:0:
272,11,48809,1,2,0:2:0:0:
279,95,48983,1,8,0:2:0:0:
384,3,49156,1,2,0:2:0:0:
466,79,49330,1,2,3:2:0:0:
447,187,49503,1,2,0:2:0:0:
356,240,49676,6,0,P|274:267|184:216,1,167.999994873047,6|8,3:2|0:2,0:0:0:0:
0,342,50197,2,0,P|82:315|172:366,1,167.999994873047,6|8,3:2|0:2,0:0:0:0:
66,233,50717,2,0,P|82:139|93:48,1,167.999994873047,6|8,3:2|0:2,0:0:0:0:
255,11,51237,2,0,P|271:105|282:196,1,167.999994873047,6|8,3:2|0:2,0:0:0:0:
176,125,51757,1,6,3:2:0:0:
477,177,52104,1,10,0:2:0:0:
273,346,52451,5,2,0:2:0:0:
256,192,52538,12,0,54532,0:0:0:0:
222,146,54705,6,0,L|180:139,1,41.9999987182618,10|8,0:0|0:0,0:0:0:0:
86,27,54879,2,0,L|101:66,1,41.9999987182618,10|8,0:0|0:0,0:0:0:0:
54,193,55052,2,0,L|92:144,1,41.9999987182618,10|8,0:0|0:0,0:0:0:0:
205,51,55226,6,0,B|246:27|291:37|291:37|312:83|400:80,1,176.000005371094,6|10,3:2|0:0,0:0:0:0:
485,212,55746,2,0,P|436:217|375:239,1,88.000002685547,2|0,0:0|3:2,0:0:0:0:
277,333,56093,2,0,P|326:338|387:360,1,88.000002685547,2|8,3:2|0:0,0:0:0:0:
286,221,56439,6,0,P|212:204|169:273,1,132.00000402832,2|0,3:2|0:0,0:0:0:0:
163,267,56786,2,0,P|211:269|248:223,1,88.000002685547,2|8,3:2|0:0,0:0:0:0:
43,110,57133,2,0,P|61:184|75:301,1,176.000005371094,2|2,0:2|3:2,0:0:0:0:
193,116,57653,1,8,0:0:0:0:
26,35,57827,1,2,3:2:0:0:
224,133,58000,6,0,B|301:124|301:124|331:133|331:133|423:125,1,176.000005371094,2|10,3:2|0:0,0:0:0:0:
297,296,58520,2,0,L|268:192,1,88.000002685547,2|0,0:0|3:2,0:0:0:0:
450,367,58867,2,0,L|473:282,1,88.000002685547,2|8,3:2|0:0,0:0:0:0:
339,163,59214,1,2,3:2:0:0:
352,353,59387,6,0,B|264:379|264:379|173:338,1,176.000005371094,2|8,3:2|0:0,0:0:0:0:
15,237,59908,1,2,0:0:0:0:
90,366,60081,2,0,P|102:265|101:174,1,176.000005371094,0|8,3:2|0:0,0:0:0:0:
14,57,60601,1,2,3:2:0:0:
14,57,60688,1,0,3:0:0:0:
14,57,60775,6,0,B|47:33|76:31|76:31|91:57|135:66,1,132.00000402832,2|0,3:2|0:0,0:0:0:0:
165,48,61122,2,0,L|271:33,1,88.000002685547,8|2,0:2|0:2,0:0:0:0:
376,178,61468,1,2,3:2:0:0:
474,129,61642,1,2,3:2:0:0:
425,31,61815,1,10,0:2:0:0:
326,80,61989,1,0,3:2:0:0:
475,208,62162,6,0,P|468:282|461:397,1,176.000005371094,2|10,3:2|0:2,0:0:0:0:
252,276,62682,2,0,P|288:251|355:254,1,88.000002685547,2|0,0:2|3:2,0:0:0:0:
254,372,63029,2,0,B|146:359|147:359,1,88.000002685547,2|8,3:2|0:2,0:0:0:0:
11,236,63376,1,2,3:2:0:0:
165,201,63549,5,2,3:2:0:0:
46,321,63723,2,0,P|43:242|31:113,1,176.000005371094,2|0,0:2|0:0,0:0:0:0:
219,37,64243,1,2,3:2:0:0:
40,23,64416,1,2,3:2:0:0:
219,122,64590,2,0,L|392:113,1,132.00000402832,8|0,0:2|0:0,0:0:0:0:
370,79,64937,5,10,0:2:0:0:
192,91,65110,1,10,0:2:0:0:
203,268,65283,1,10,0:2:0:0:
381,255,65456,1,10,0:2:0:0:
381,255,65804,2,0,P|367:236|340:218,1,44.0000013427735,2|0,3:2|3:2,0:0:0:0:
465,161,65977,2,0,P|441:159|410:168,1,44.0000013427735,8|0,0:2|3:0,0:0:0:0:
370,79,66150,2,0,P|353:96|340:125,1,44.0000013427735,2|0,3:2|3:2,0:0:0:0:
275,204,66324,6,0,B|168:234|213:141|89:196,1,176.000005371094,6|10,3:2|0:0,0:0:0:0:
224,31,66844,2,0,P|229:78|239:136,1,88.000002685547,2|0,0:0|3:2,0:0:0:0:
67,9,67191,2,0,P|62:56|52:114,1,88.000002685547,2|8,3:2|0:0,0:0:0:0:
108,187,67538,6,0,B|208:152|171:240|300:197,1,176.000005371094,2|2,3:2|3:2,0:0:0:0:
405,24,68058,1,8,0:0:0:0:
380,196,68231,1,2,3:2:0:0:
392,104,68405,1,0,3:2:0:0:
503,271,68578,1,2,3:2:0:0:
492,96,68752,2,0,P|483:129|476:206,1,88.000002685547,8|2,0:0|3:2,0:0:0:0:
374,371,69098,6,0,B|350:329|293:333|293:333|264:376|194:365,1,176.000005371094,2|10,3:2|0:0,0:0:0:0:
36,305,69619,2,0,P|73:295|143:283,1,88.000002685547,2|0,0:0|3:2,0:0:0:0:
255,182,69965,2,0,P|218:172|148:160,1,88.000002685547,2|8,3:2|0:0,0:0:0:0:
1,62,70312,1,2,3:2:0:0:
127,41,70486,6,0,P|99:90|68:220,1,176.000005371094,2|8,3:2|0:0,0:0:0:0:
243,283,71006,1,2,3:2:0:0:
247,66,71179,2,0,B|278:21|323:22|323:22|342:67|314:131,1,176.000005371094,2|8,3:2|0:2,0:0:0:0:
238,229,71700,1,0,3:0:0:0:
405,352,71873,6,0,P|450:357|499:334,1,88.000002685547,6|0,3:2|0:0,0:0:0:0:
360,181,72220,2,0,P|333:217|328:271,1,88.000002685547,10|0,0:2|0:0,0:0:0:0:
512,227,72567,2,0,P|493:185|449:154,1,88.000002685547,2|0,3:2|3:2,0:0:0:0:
407,265,72913,1,10,0:2:0:0:
311,375,73087,6,0,L|126:359,1,176.000005371094,10|10,0:2|0:2,0:0:0:0:
252,128,73607,1,10,0:2:0:0:
252,128,73780,1,2,0:2:0:0:
330,166,73954,1,2,0:2:0:0:
292,245,74127,1,2,3:2:0:0:
212,207,74301,1,8,0:3:0:0:
136,161,74474,1,0,1:0:0:0:
54,112,74648,6,0,P|72:197|75:289,2,160,4|10|0,3:2|0:2|3:2,0:0:0:0:
151,17,75515,1,0,3:2:0:0:
15,17,75688,1,8,0:2:0:0:
15,17,75861,1,0,3:2:0:0:
172,87,76035,6,0,B|252:108|252:108|345:67,1,160,0|8,1:2|0:2,0:0:0:0:
446,27,76555,1,0,3:2:0:0:
446,27,76642,1,0,1:2:0:0:
446,27,76728,2,0,L|424:84,1,40,0|0,3:2|1:2,0:0:0:0:
390,141,76902,2,0,L|404:178,1,40,0|0,3:2|1:2,0:0:0:0:
478,131,77075,1,8,0:2:0:0:
478,131,77249,1,0,3:2:0:0:
392,282,77422,6,0,L|306:270,1,68.0000012969971,6|0,3:2|0:0,0:0:0:0:
222,180,77769,2,0,L|289:189,1,68.0000012969971,2|0,3:2|0:0,0:0:0:0:
186,260,78116,2,0,L|118:250,1,68.0000012969971,2|2,3:2|0:2,0:0:0:0:
19,143,78463,1,2,3:2:0:0:
26,246,78636,6,0,B|-6:283|-6:283|39:391,1,136.000002593994,2|2,0:2|0:2,0:0:0:0:
118,250,79156,2,0,L|186:260,1,68.0000012969971,2|2,3:2|0:2,0:0:0:0:
137,138,79503,2,0,L|69:148,1,68.0000012969971,2|2,3:2|0:2,0:0:0:0:
130,41,79850,2,0,P|178:36|230:91,1,102.000001945496,2|0,3:2|0:0,0:0:0:0:
238,94,80197,6,0,L|321:79,1,68.0000012969971,2|0,3:2|0:0,0:0:0:0:
251,172,80543,2,0,L|334:157,1,68.0000012969971,2|0,3:2|0:0,0:0:0:0:
266,249,80890,2,0,L|349:234,1,68.0000012969971,2|2,3:2|0:2,0:0:0:0:
456,146,81237,1,0,3:2:0:0:
473,276,81411,6,0,P|473:354|414:364,1,136.000002593994,2|2,0:2|0:2,0:0:0:0:
254,323,81931,1,2,3:2:0:0:
344,369,82104,2,0,P|343:313|330:224,1,136.000002593994,2|2,0:2|0:2,0:0:0:0:
284,47,82624,2,0,P|322:57|370:63,1,68.0000012969971,2|0,3:2|0:0,0:0:0:0:
229,136,82971,5,2,3:2:0:0:
229,136,83145,1,2,0:2:0:0:
127,77,83318,1,2,3:2:0:0:
38,13,83491,2,0,P|46:81|53:166,1,136.000002593994,2|2,0:2|0:2,0:0:0:0:
38,311,84012,1,2,3:2:0:0:
87,239,84185,6,0,P|155:228|205:293,1,136.000002593994,2|2,0:2|0:2,0:0:0:0:
295,330,84705,2,0,L|311:247,1,68.0000012969971,2|2,3:2|0:2,0:0:0:0:
449,344,85052,2,0,L|436:277,1,68.0000012969971,2|2,3:2|0:2,0:0:0:0:
336,135,85399,1,2,3:2:0:0:
453,94,85572,1,2,0:2:0:0:
313,153,85746,6,0,B|240:129|245:195|171:190,1,136.000002593994,2|0,3:2|3:2,0:0:0:0:
188,189,86266,1,0,0:0:0:0:
77,67,86439,2,0,L|101:152,1,68.0000012969971,0|0,3:2|0:0,0:0:0:0:
176,31,86786,1,2,3:2:0:0:
0,103,86960,6,0,L|44:261,1,136.000002593994,10|10,0:2|0:2,0:0:0:0:
202,379,87653,2,0,P|250:335|320:351,1,136.000002593994,10|10,0:2|0:2,0:0:0:0:
424,355,88174,2,0,L|440:305,1,34.0000006484985,10|8,0:2|0:2,0:0:0:0:
487,253,88347,2,0,L|476:220,1,34.0000006484985,8|8,0:2|0:2,0:0:0:0:
407,161,88520,6,0,P|421:84|426:-3,2,143.999995605469,6|8|2,3:2|0:2|3:2,0:0:0:0:
286,242,89387,1,2,0:2:0:0:
275,108,89561,1,10,0:2:0:0:
374,253,89734,6,0,P|366:330|292:316,1,143.999995605469,2|2,3:2|0:2,0:0:0:0:
123,266,90254,1,10,0:2:0:0:
211,348,90428,2,0,L|221:260,1,71.9999978027344,2|2,3:2|3:2,0:0:0:0:
115,148,90775,1,2,3:2:0:0:
107,77,90948,2,0,L|117:165,1,71.9999978027344,10|0,0:2|0:0,0:0:0:0:
284,44,91295,6,0,P|358:37|417:96,2,143.999995605469,2|8|2,3:2|0:2|3:2,0:0:0:0:
107,77,92162,1,2,0:2:0:0:
290,130,92335,1,10,0:2:0:0:
181,10,92509,2,0,P|189:38|206:173,1,143.999995605469,2|2,3:2|3:2,0:0:0:0:
197,353,93029,1,10,0:2:0:0:
285,243,93202,2,0,L|370:259,1,71.9999978027344,2|2,3:2|3:2,0:0:0:0:
184,260,93549,1,2,3:2:0:0:
326,163,93723,2,0,L|411:179,1,71.9999978027344,10|0,0:2|0:0,0:0:0:0:
278,63,94069,6,0,B|186:42|186:42|168:74|123:87,1,143.999995605469,4|8,3:2|0:2,0:0:0:0:
150,75,94590,1,0,0:0:0:0:
6,31,94763,2,0,P|17:64|27:112,1,71.9999978027344,2|0,3:2|0:0,0:0:0:0:
94,190,95110,1,10,0:2:0:0:
75,260,95283,2,0,P|82:224|94:190,1,71.9999978027344,2|0,3:2|0:0,0:0:0:0:
177,80,95630,6,0,P|191:117|194:163,1,71.9999978027344,2|10,3:2|0:2,0:0:0:0:
261,283,95977,1,2,3:2:0:0:
149,250,96150,2,0,L|186:260,1,35.9999989013672,2|0,3:2|3:0,0:0:0:0:
347,304,96324,1,2,3:2:0:0:
221,363,96497,1,10,0:2:0:0:
221,363,96671,1,2,0:2:0:0:
340,213,96844,6,0,B|369:196|410:205|410:205|431:236|493:229,2,143.999995605469,2|8|0,3:2|0:2|3:2,0:0:0:0:
472,150,97711,1,0,3:2:0:0:
403,67,97885,1,10,0:2:0:0:
292,50,98058,1,2,3:2:0:0:
483,33,98231,5,8,0:2:0:0:
316,137,98405,1,8,0:2:0:0:
496,225,98578,1,8,0:2:0:0:
331,321,98752,2,0,L|255:313,1,71.9999978027344,8|0,0:2|0:0,0:0:0:0:
67,229,99098,2,0,L|111:248,1,35.9999989013672,2|0,3:2|3:2,0:0:0:0:
182,282,99272,1,8,0:2:0:0:
186,161,99445,1,2,3:2:0:0:
186,161,99532,1,0,3:2:0:0:
186,161,99619,5,0,3:2:0:0:
256,192,99705,12,0,102046,0:0:0:0:
36,110,102393,6,0,B|95:73|95:73|182:90,1,136.000002593994,2|2,3:2|0:2,0:0:0:0:
52,198,102913,2,0,B|111:161|111:161|198:178,1,136.000002593994,2|2,3:2|0:2,0:0:0:0:
66,289,103434,2,0,B|125:252|125:252|212:269,1,136.000002593994,2|0,3:2|0:0,0:0:0:0:
272,173,103954,1,0,3:2:0:0:
272,173,104041,1,0,3:2:0:0:
272,173,104127,5,0,3:2:0:0:
247,82,104301,1,0,3:2:0:0:
341,53,104474,1,2,3:3:0:0:
341,53,104648,1,2,0:3:0:0:
248,83,104821,1,2,3:3:0:0:
272,173,104994,1,2,0:3:0:0:
383,259,105168,6,0,P|442:261|512:232,1,136.000002593994,2|2,3:2|0:2,0:0:0:0:
367,177,105688,2,0,P|424:190|493:154,1,136.000002593994,2|2,3:2|0:2,0:0:0:0:
391,78,106208,2,0,P|439:103|392:76,1,136.000002593994,2|0,3:2|0:0,0:0:0:0:
296,18,106728,1,0,3:2:0:0:
296,18,106815,1,0,3:2:0:0:
296,18,106902,5,0,3:2:0:0:
210,65,107075,1,0,3:2:0:0:
305,115,107249,1,2,3:3:0:0:
305,115,107422,1,2,0:3:0:0:
218,166,107595,2,0,P|175:172|132:152,1,68.0000012969971,2|2,3:3|0:3,0:0:0:0:
4,249,107942,6,0,P|22:313|33:405,1,136.000002593994,2|2,3:2|0:2,0:0:0:0:
110,362,108463,2,0,P|100:294|82:229,1,136.000002593994,2|2,3:2|0:2,0:0:0:0:
165,205,108983,2,0,P|183:269|194:361,1,136.000002593994,2|0,3:2|0:0,0:0:0:0:
266,251,109503,1,0,3:2:0:0:
266,251,109590,1,0,3:2:0:0:
266,251,109676,5,0,3:2:0:0:
329,315,109850,1,0,3:2:0:0:
428,311,110023,1,2,3:3:0:0:
473,231,110197,1,2,0:3:0:0:
377,221,110370,1,2,3:3:0:0:
377,221,110543,1,2,0:3:0:0:
307,152,110717,6,0,P|229:136|177:187,2,136.000002593994,6|0|2,3:2|3:2|0:2,0:0:0:0:
389,107,111584,1,2,3:2:0:0:
316,37,111757,2,0,L|228:30,1,68.0000012969971,2|2,0:2|3:2,0:0:0:0:
155,85,112104,6,0,P|78:84|66:23,1,136.000002593994,2|2,0:2|0:2,0:0:0:0:
75,123,112624,1,2,3:2:0:0:
75,123,112798,1,2,3:2:0:0:
86,214,112971,1,2,3:2:0:0:
177,202,113145,1,2,3:2:0:0:
166,113,113318,1,0,0:0:0:0:
151,285,113491,6,0,P|242:311|304:249,2,180.000006866455,2|0|2,0:0|0:0|0:0,0:0:0:0:
151,285,114705,1,2,0:0:0:0:
34,192,114879,6,0,B|44:66|44:66|48:100|81:117,2,180.000006866455,0|2|2,1:0|0:0|0:0,0:0:0:0:
34,192,116093,1,2,0:0:0:0:
168,114,116266,6,0,B|285:104|285:104|291:143|325:162,2,180.000006866455,2|2|0,1:2|0:0|0:0,0:0:0:0:
168,114,117480,1,0,0:0:0:0:
203,220,117653,6,0,B|179:265|184:305|184:305|163:332|163:332|181:355|188:393,2,180.000006866455,0|0|0,1:2|0:0|0:0,0:0:0:0:
203,220,118867,1,0,0:0:0:0:
328,306,119041,6,0,B|361:292|361:292|389:303|389:303|423:337|423:337|456:341|456:341|485:321,2,180.000006866455,2|0|2,1:2|0:0|0:0,0:0:0:0:
328,306,120254,1,2,0:0:0:0:
443,249,120428,6,0,B|388:152|485:169|424:65,2,180.000006866455,2|2|2,1:2|0:0|0:0,0:0:0:0:
443,249,121642,1,2,0:0:0:0:
329,182,121815,6,0,B|277:166|248:202|248:202|209:167|161:199,2,180.000006866455,2|0|0,1:2|0:0|0:0,0:0:0:0:
340,84,123029,1,0,1:2:0:0:
340,84,123116,1,0,1:2:0:0:
340,84,123202,5,0,3:2:0:0:
211,58,123376,1,0,3:2:0:0:
284,7,123549,1,0,3:2:0:0:
148,105,123723,1,0,3:2:0:0:
148,105,124069,2,0,L|115:85,1,30.0000011444092,0|0,1:2|0:0,0:0:0:0:
48,41,124243,1,0,1:2:0:0:
48,41,124590,6,0,L|32:146,1,71.9999978027344,2|0,3:2|0:0,0:0:0:0:
166,251,124937,2,0,L|150:146,1,71.9999978027344,0|2,3:2|0:2,0:0:0:0:
277,53,125283,2,0,L|261:158,1,71.9999978027344,0|2,3:2|0:2,0:0:0:0:
389,219,125630,1,0,3:2:0:0:
389,219,125804,1,2,0:2:0:0:
266,124,125977,6,0,L|277:53,1,71.9999978027344,2|0,3:2|0:0,0:0:0:0:
155,179,126323,2,0,L|166:251,1,71.9999978027344,0|0,3:2|0:0,0:0:0:0:
37,112,126670,2,0,L|48:41,1,71.9999978027344,2|0,3:2|0:0,0:0:0:0:
180,19,127017,1,0,3:2:0:0:
180,19,127364,5,2,3:2:0:0:
346,52,127538,1,2,0:2:0:0:
268,35,127711,1,0,3:2:0:0:
436,71,127885,1,2,0:2:0:0:
354,133,128058,1,2,3:2:0:0:
481,302,128405,1,0,3:2:0:0:
481,302,128752,5,2,3:2:0:0:
403,359,128925,1,2,0:2:0:0:
314,298,129098,1,2,3:2:0:0:
255,368,129272,1,2,0:2:0:0:
368,231,129445,1,2,3:2:0:0:
110,339,129792,1,0,3:2:0:0:
110,339,130139,6,0,P|72:274|116:205,1,143.999995605469,2|0,3:2|3:2,0:0:0:0:
173,149,130659,2,0,B|215:147|215:147|228:161|228:161|326:176,1,143.999995605469,2|0,0:2|0:0,0:0:0:0:
307,49,131179,1,2,3:2:0:0:
54,57,131526,2,0,P|68:131|75:202,1,143.999995605469,2|2,3:2|3:2,0:0:0:0:
239,384,132220,2,0,P|253:310|260:239,1,143.999995605469,2|2,3:2|3:2,0:0:0:0:
298,40,132913,5,2,3:2:0:0:
298,40,133260,1,0,3:2:0:0:
216,93,133434,1,0,3:2:0:0:
216,93,133780,1,0,3:2:0:0:
298,146,133954,1,0,3:2:0:0:
153,278,134474,5,8,0:2:0:0:
84,103,134648,1,8,0:2:0:0:
117,192,134994,1,12,3:2:0:0:
16,334,135688,6,0,P|112:364|168:298,1,176.000005371094,6|10,3:2|0:0,0:0:0:0:
17,165,136208,2,0,P|28:213|37:256,1,88.000002685547,2|0,0:0|3:2,0:0:0:0:
144,122,136555,1,2,3:2:0:0:
11,84,136728,1,8,0:0:0:0:
104,229,136901,6,0,B|172:239|172:239|241:204,1,132.00000402832,2|0,3:2|0:0,0:0:0:0:
254,211,137249,2,0,P|254:166|226:125,1,88.000002685547,2|8,3:2|0:0,0:0:0:0:
265,0,137595,2,0,B|332:18|332:18|366:49|366:49|446:67,1,176.000005371094,2|2,0:2|3:2,0:0:0:0:
497,224,138115,1,8,0:0:0:0:
500,30,138289,1,2,3:2:0:0:
383,179,138462,6,0,B|302:144|297:210|191:195,1,176.000005371094,2|10,3:2|0:0,0:0:0:0:
37,48,138982,2,0,P|10:78|16:152,1,88.000002685547,2|0,0:0|3:2,0:0:0:0:
166,258,139330,2,0,P|161:214|133:182,1,88.000002685547,2|8,3:2|0:0,0:0:0:0:
16,322,139676,1,2,3:2:0:0:
171,357,139850,6,0,B|220:332|220:332|249:353|249:353|357:365,1,176.000005371094,2|8,3:2|0:0,0:0:0:0:
483,245,140370,1,2,0:0:0:0:
364,126,140543,2,0,B|315:172|315:172|344:301,1,176.000005371094,0|8,3:2|0:0,0:0:0:0:
352,108,141063,1,2,3:2:0:0:
352,108,141150,1,0,1:0:0:0:
352,108,141237,6,0,B|319:84|261:132|190:127,1,132.00000402832,2|0,3:2|0:0,0:0:0:0:
193,104,141584,2,0,P|154:100|109:136,1,88.000002685547,8|2,0:2|0:2,0:0:0:0:
14,245,141930,1,2,3:2:0:0:
177,301,142104,1,2,3:2:0:0:
98,274,142277,1,10,0:2:0:0:
264,333,142451,1,0,3:2:0:0:
368,217,142624,6,0,P|423:205|476:300,1,176.000005371094,2|10,3:2|0:2,0:0:0:0:
453,177,143144,2,0,P|456:130|461:80,1,88.000002685547,2|0,0:2|3:2,0:0:0:0:
289,13,143491,2,0,P|292:60|297:110,1,88.000002685547,2|8,3:2|0:2,0:0:0:0:
320,281,143838,1,2,3:2:0:0:
388,97,144011,5,2,3:2:0:0:
261,204,144185,2,0,B|167:227|167:227|72:168,1,176.000005371094,2|0,0:2|0:0,0:0:0:0:
155,28,144705,1,2,3:2:0:0:
6,232,144878,1,2,3:2:0:0:
15,36,145052,2,0,P|20:83|22:145,1,88.000002685547,8|2,0:2|3:2,0:0:0:0:
85,303,145399,5,10,0:2:0:0:
144,135,145572,1,10,0:2:0:0:
311,197,145745,1,10,0:2:0:0:
252,363,145918,1,10,0:2:0:0:
252,363,146266,2,0,L|265:308,1,44.0000013427735,2|0,3:2|3:2,0:0:0:0:
365,275,146439,2,0,L|378:330,1,44.0000013427735,8|0,0:2|3:0,0:0:0:0:
476,363,146613,2,0,L|489:308,1,44.0000013427735,2|0,3:2|3:2,0:0:0:0:
478,210,146786,6,0,P|421:150|314:189,1,176.000005371094,6|10,3:2|0:0,0:0:0:0:
224,31,147306,2,0,B|271:28|271:28|306:56,1,88.000002685547,2|0,0:0|3:2,0:0:0:0:
211,155,147653,2,0,L|99:163,1,88.000002685547,2|8,3:2|0:0,0:0:0:0:
46,29,148000,6,0,B|7:149|7:149|36:220,1,176.000005371094,2|2,3:2|3:2,0:0:0:0:
149,337,148520,1,8,0:0:0:0:
85,259,148693,1,2,3:2:0:0:
30,377,148867,1,0,3:2:0:0:
190,240,149040,1,2,3:2:0:0:
329,114,149214,2,0,P|375:95|432:136,1,88.000002685547,8|2,0:0|3:2,0:0:0:0:
483,255,149561,6,0,B|421:202|381:264|376:294|317:275,1,176.000005371094,2|10,3:2|0:0,0:0:0:0:
468,58,150081,2,0,P|461:97|456:171,1,88.000002685547,2|0,0:0|3:2,0:0:0:0:
294,15,150428,2,0,P|301:54|306:128,1,88.000002685547,2|8,3:2|0:0,0:0:0:0:
305,102,150774,1,2,3:2:0:0:
243,279,150948,6,0,B|178:270|178:270|135:237|135:237|41:231,1,176.000005371094,2|8,3:2|0:0,0:0:0:0:
259,306,151468,1,2,3:2:0:0:
104,148,151642,2,0,B|169:157|169:157|212:190|212:190|306:196,1,176.000005371094,2|8,3:2|0:2,0:0:0:0:
88,121,152162,1,0,3:0:0:0:
253,43,152335,6,0,P|298:52|348:59,1,88.000002685547,6|0,3:2|0:0,0:0:0:0:
507,166,152682,2,0,P|463:172|420:181,1,88.000002685547,10|0,0:2|0:0,0:0:0:0:
281,275,153029,2,0,P|324:281|367:290,1,88.000002685547,2|0,3:2|3:2,0:0:0:0:
495,319,153375,1,10,0:2:0:0:
322,201,153549,6,0,P|226:160|161:225,1,176.000005371094,10|10,0:2|0:2,0:0:0:0:
174,195,154069,1,10,0:2:0:0:
21,134,154243,1,2,0:2:0:0:
30,251,154416,1,2,0:2:0:0:
42,384,154590,1,2,3:2:0:0:
30,251,154763,1,8,0:3:0:0:
21,134,154936,1,0,1:0:0:0:
12,15,155110,6,0,L|95:29,1,80,4|0,3:2|0:0,0:0:0:0:
91,29,155630,2,0,L|174:15,1,80,8|0,0:0|0:0,0:0:0:0:
169,15,156150,1,8,0:0:0:0:
321,79,156324,1,8,0:0:0:0:
245,46,156671,1,8,0:0:0:0:
164,194,157017,1,8,0:0:0:0:
164,194,157364,1,8,0:0:0:0:
205,118,157538,1,8,0:0:0:0:
64,291,157885,6,0,B|106:281|106:281|119:291|119:291|204:313,1,128,4|2,3:2|0:0,0:0:0:0:
185,308,158578,1,0,3:0:0:0:
275,298,158752,1,2,3:2:0:0:
367,291,158925,1,2,3:2:0:0:
267,92,159272,6,0,P|226:50|144:69,2,128,0|2|0,3:2|3:2|3:2,0:0:0:0:
334,152,160139,2,0,L|307:226,1,64,2|2,3:2|0:2,0:0:0:0:
312,212,160486,1,2,0:2:0:0:
216,212,160659,6,0,B|134:196|155:245|77:237,1,128,2|2,3:2|3:2,0:0:0:0:
95,238,161353,1,0,3:2:0:0:
20,173,161526,1,0,3:2:0:0:
60,89,161700,1,0,3:2:0:0:
60,89,162046,6,0,P|119:58|178:89,2,128,0|0|0,3:2|3:2|3:2,0:0:0:0:
20,173,162913,1,0,3:2:0:0:
95,238,163087,1,0,3:2:0:0:
95,238,163260,1,0,1:2:0:0:
185,157,163434,6,0,B|245:162|245:162|259:173|259:173|328:182,1,128,6|2,3:2|0:0,0:0:0:0:
308,179,164127,1,0,3:0:0:0:
301,93,164300,1,2,3:2:0:0:
377,51,164474,1,2,3:2:0:0:
452,224,164821,6,0,P|442:280|436:368,2,128,0|2|0,3:2|3:2|3:2,0:0:0:0:
500,153,165688,2,0,L|473:79,1,64,2|2,3:2|0:2,0:0:0:0:
478,93,166035,1,2,0:2:0:0:
359,25,166208,6,0,P|441:11|507:4,2,128,2|2|0,3:2|3:2|3:2,0:0:0:0:
296,97,167075,1,0,3:2:0:0:
296,97,167249,2,0,P|226:84|141:79,2,128,0|0|0,3:2|3:2|3:2,0:0:0:0:
386,118,168116,1,2,0:2:0:0:
465,145,168289,1,0,3:2:0:0:
426,230,168463,1,2,0:2:0:0:
387,315,168636,1,0,3:2:0:0:
387,315,168809,1,2,0:2:0:0:
309,235,168983,6,0,P|233:217|184:268,1,143.999995605469,0|0,3:2|3:2,0:0:0:0:
85,349,169503,1,2,0:2:0:0:
85,349,169850,2,0,L|160:359,2,71.9999978027344,2|2|2,0:2|3:2|0:2,0:0:0:0:
1,306,170370,6,0,P|8:264|14:209,1,71.9999978027344,0|0,3:2|1:2,0:0:0:0:
102,184,170717,2,0,P|95:142|89:87,1,71.9999978027344,0|0,3:2|1:2,0:0:0:0:
10,17,171064,2,0,P|5:52|0:88,1,71.9999978027344,0|0,3:2|1:2,0:0:0:0:
75,134,171411,2,0,P|79:169|85:205,1,71.9999978027344,0|0,3:2|0:0,0:0:0:0:
163,272,171757,6,0,B|205:283|212:304|212:304|259:311|294:268,1,143.999995605469,2|2,3:2|3:2,0:0:0:0:
380,167,172278,1,2,0:2:0:0:
380,167,172624,2,0,P|416:172|454:181,1,71.9999978027344,2|2,0:2|3:2,0:0:0:0:
450,180,172971,1,2,0:2:0:0:
410,71,173145,6,0,P|340:97|251:114,1,143.999995605469,2|0,3:2|3:2,0:0:0:0:
116,16,173665,2,0,L|162:23,1,35.9999989013672,8|8,0:2|0:2,0:0:0:0:
231,34,173838,1,8,0:2:0:0:
117,157,174012,2,0,L|71:164,1,35.9999989013672,8|8,0:2|0:2,0:0:0:0:
2,175,174185,1,8,0:2:0:0:
201,144,174358,1,8,0:3:0:0:
137,283,174532,6,0,P|78:281|4:365,2,167.999994873047,6|8|2,3:2|0:2|3:2,0:0:0:0:
291,224,175399,1,0,3:2:0:0:
243,378,175572,2,0,P|236:340|225:288,1,83.9999974365235,8|0,0:2|3:2,0:0:0:0:
418,275,175919,6,0,P|409:316|401:357,1,83.9999974365235,2|0,3:2|3:2,0:0:0:0:
291,224,176266,1,8,0:2:0:0:
430,169,176439,1,0,3:2:0:0:
328,80,176613,2,0,L|351:186,1,83.9999974365235,2|0,3:2|3:2,0:0:0:0:
482,100,176960,2,0,L|505:-6,1,83.9999974365235,10|0,0:2|3:2,0:0:0:0:
323,4,177306,6,0,P|227:28|147:41,1,167.999994873047,2|10,3:2|0:2,0:0:0:0:
30,156,177827,2,0,L|125:167,1,83.9999974365235,2|0,0:2|3:2,0:0:0:0:
0,13,178174,2,0,L|95:2,1,83.9999974365235,2|8,3:2|0:2,0:0:0:0:
30,171,178520,6,0,L|216:192,1,167.999994873047,2|0,0:2|3:2,0:0:0:0:
136,71,179041,1,8,0:2:0:0:
260,242,179214,2,0,P|278:207|251:132,1,83.9999974365235,0|0,3:2|3:2,0:0:0:0:
119,223,179561,1,0,3:2:0:0:
119,223,179734,1,8,0:2:0:0:
173,322,179908,1,0,3:2:0:0:
290,357,180081,6,0,B|375:377|375:377|465:333,1,167.999994873047,6|8,3:2|0:2,0:0:0:0:
447,341,180601,1,0,0:0:0:0:
372,185,180775,2,0,P|350:222|356:291,1,83.9999974365235,2|0,3:2|3:2,0:0:0:0:
487,187,181122,2,0,P|483:145|461:109,1,83.9999974365235,8|0,0:2|3:2,0:0:0:0:
306,78,181468,6,0,B|226:30|222:117|135:77,2,167.999994873047,2|8|2,3:2|0:2|3:2,0:0:0:0:
306,78,182335,1,0,3:2:0:0:
461,109,182509,2,0,P|483:145|487:187,1,83.9999974365235,10|0,0:2|3:2,0:0:0:0:
346,262,182856,6,0,P|350:220|372:185,1,83.9999974365235,2|0,3:2|0:0,0:0:0:0:
479,299,183202,1,10,0:2:0:0:
373,368,183376,2,0,B|269:358|270:358,1,83.9999974365235,2|0,0:2|3:2,0:0:0:0:
161,272,183723,1,2,3:2:0:0:
161,272,183896,1,8,0:2:0:0:
213,349,184069,1,2,0:2:0:0:
87,347,184243,5,8,0:2:0:0:
12,272,184416,1,8,0:2:0:0:
87,197,184590,1,8,0:2:0:0:
161,272,184763,1,8,3:2:0:0:
59,103,185110,2,0,L|9:86,2,41.9999987182618,0|0|8,3:2|3:2|0:2,0:0:0:0:
173,18,185457,2,0,L|145:71,1,41.9999987182618,0|0,3:2|3:2,0:0:0:0:
157,159,185630,6,0,B|226:146|226:146|256:164|256:164|338:152,1,167.999994873047,6|8,3:2|0:2,0:0:0:0:
318,154,186150,1,0,0:0:0:0:
467,21,186324,2,0,P|445:52|432:122,1,83.9999974365235,2|0,3:2|3:2,0:0:0:0:
257,0,186671,2,0,P|279:31|292:101,1,83.9999974365235,8|0,0:2|0:0,0:0:0:0:
301,238,187017,6,0,B|238:247|238:247|208:229|208:229|139:242,1,167.999994873047,2|8,3:2|0:2,0:0:0:0:
139,241,187538,1,0,0:0:0:0:
12,179,187711,1,2,3:2:0:0:
30,278,187885,1,0,3:2:0:0:
52,376,188058,1,10,0:2:0:0:
52,376,188231,1,0,0:0:0:0:
181,344,188405,6,0,P|256:305|347:336,1,167.999994873047,2|10,3:2|0:2,0:0:0:0:
444,370,188925,2,0,L|461:273,1,83.9999974365235,2|0,0:2|3:2,0:0:0:0:
354,148,189272,2,0,L|371:245,1,83.9999974365235,2|8,3:2|0:2,0:0:0:0:
432,93,189619,6,0,B|311:71|378:137|246:124,1,167.999994873047,2|0,0:2|3:2,0:0:0:0:
90,25,190139,1,8,0:2:0:0:
197,44,190312,1,0,3:2:0:0:
197,44,190486,1,0,3:2:0:0:
159,168,190659,1,0,3:2:0:0:
52,149,190832,1,8,0:2:0:0:
52,149,191006,1,0,3:2:0:0:
124,102,191179,6,0,B|172:92|172:92|195:117|195:117|295:156,1,167.999994873047,6|8,3:2|0:2,0:0:0:0:
274,147,191700,1,0,0:0:0:0:
447,67,191873,2,0,L|432:168,1,83.9999974365235,2|0,3:2|3:2,0:0:0:0:
314,262,192220,2,0,L|344:341,1,83.9999974365235,8|0,0:2|3:2,0:0:0:0:
385,225,192567,6,0,P|315:186|231:242,1,167.999994873047,2|8,3:2|0:2,0:0:0:0:
91,353,193087,1,0,3:2:0:0:
148,214,193260,2,0,B|174:252|174:252|171:322,1,83.9999974365235,2|0,3:2|3:2,0:0:0:0:
20,220,193607,2,0,B|18:182|18:182|44:144,1,83.9999974365235,10|0,0:2|3:2,0:0:0:0:
149,44,193954,5,6,3:2:0:0:
149,44,194301,1,10,0:2:0:0:
279,94,194474,1,10,0:2:0:0:
279,94,194821,1,10,0:2:0:0:
157,207,195168,1,6,3:2:0:0:
157,207,195515,5,0,3:2:0:0:
116,116,195688,1,0,3:2:0:0:
293,202,196035,1,8,0:3:0:0:
316,185,196208,1,8,0:3:0:0:
354,207,196382,1,8,0:3:0:0:
380,183,196555,1,0,3:2:0:0:
405,211,196728,5,2,0:0:0:0:
40,72,202278,6,0,L|54:144,1,55.9999982910157,2|0,3:2|0:0,0:0:0:0:
149,41,202624,2,0,L|135:113,1,55.9999982910157,0|0,3:0|0:0,0:0:0:0:
240,69,202971,2,0,L|250:123,1,55.9999982910157,2|0,3:2|0:0,0:0:0:0:
150,187,203318,1,0,3:0:0:0:
150,187,203491,1,0,0:0:0:0:
243,320,203665,6,0,L|229:248,1,55.9999982910157,2|0,3:2|0:0,0:0:0:0:
134,351,204011,2,0,L|148:279,1,55.9999982910157,0|0,3:0|0:0,0:0:0:0:
43,323,204358,2,0,L|32:268,1,55.9999982910157,2|0,3:2|0:0,0:0:0:0:
150,187,204705,1,0,3:0:0:0:
150,187,204878,1,0,0:0:0:0:
232,265,205052,6,0,P|290:276|359:241,1,111.999996582031,2|0,3:2|3:0,0:0:0:0:
418,204,205572,1,0,0:0:0:0:
425,130,205746,2,0,L|412:190,1,55.9999982910157,2|0,3:2|0:0,0:0:0:0:
477,271,206093,2,0,L|488:325,1,55.9999982910157,0|0,3:0|0:0,0:0:0:0:
374,367,206439,6,0,P|254:265|119:372,1,335.999989746094,2|0,3:2|3:0,0:0:0:0:
124,351,207653,1,0,0:0:0:0:
31,287,207827,6,0,P|31:256|47:222,1,55.9999982910157,2|0,3:2|0:0,0:0:0:0:
118,191,208174,2,0,P|127:217|126:245,1,55.9999982910157,0|0,3:0|0:0,0:0:0:0:
34,145,208520,2,0,P|34:114|50:80,1,55.9999982910157,2|0,3:2|0:0,0:0:0:0:
121,49,208867,2,0,P|130:75|129:103,1,55.9999982910157,0|0,3:0|0:0,0:0:0:0:
200,173,209214,6,0,L|273:159,1,55.9999982910157,2|0,3:2|0:0,0:0:0:0:
323,83,209561,2,0,L|396:97,1,55.9999982910157,0|0,3:0|0:0,0:0:0:0:
468,193,209908,2,0,L|413:182,1,55.9999982910157,2|0,3:2|0:0,0:0:0:0:
485,76,210254,1,0,3:0:0:0:
485,76,210428,1,0,0:0:0:0:
311,104,210601,6,0,L|384:118,1,55.9999982910157,2|0,3:2|0:0,0:0:0:0:
456,214,210948,2,0,L|401:203,1,55.9999982910157,0|0,3:0|0:0,0:0:0:0:
292,293,211295,2,0,L|346:282,1,55.9999982910157,2|0,3:2|0:0,0:0:0:0:
440,329,211642,2,0,L|483:341,2,27.9999991455078,0|0|0,3:0|0:0|0:0,0:0:0:0:
346,302,211989,6,0,L|292:313,1,55.9999982910157,2|0,3:2|0:0,0:0:0:0:
220,378,212335,2,0,L|166:367,1,55.9999982910157,0|0,3:0|0:0,0:0:0:0:
96,297,212682,2,0,L|56:308,2,27.9999991455078,0|0|0,3:2|0:0|0:0,0:0:0:0:
188,247,213029,1,0,3:0:0:0:
188,247,213202,1,0,0:0:0:0:
100,191,213376,5,2,3:2:0:0:
27,136,213549,1,0,3:0:0:0:
57,51,213723,1,0,3:0:0:0:
146,54,213896,1,2,3:2:0:0:
172,139,214069,1,0,3:0:0:0:
186,160,214416,5,2,3:2:0:0:
173,45,214589,1,0,3:0:0:0:
60,18,214762,1,0,3:0:0:0:
0,120,214936,1,2,3:2:0:0:
80,208,215109,1,0,3:0:0:0:
228,40,215457,5,2,3:2:0:0:
383,212,215804,1,2,3:2:0:0:
336,21,216150,6,0,P|328:72|318:169,1,128,6|2,3:2|3:2,0:0:0:0:
260,207,216671,2,0,P|274:243|281:273,1,64,2|0,0:2|3:2,0:0:0:0:
367,349,217017,2,0,L|379:279,1,64,2|0,0:2|3:2,0:0:0:0:
281,359,217364,2,0,P|219:372|141:328,1,128,2|0,0:2|0:0,0:0:0:0:
71,272,217885,1,0,3:2:0:0:
71,272,218231,2,0,P|50:234|57:198,1,64,2|0,3:2|0:0,0:0:0:0:
161,140,218578,2,0,L|150:210,1,64,0|0,3:2|0:0,0:0:0:0:
90,89,218925,6,0,P|152:56|227:87,1,128,0|2,3:2|3:2,0:0:0:0:
284,132,219445,2,0,P|316:122|369:112,1,64,2|0,0:2|3:2,0:0:0:0:
449,58,219792,1,2,0:2:0:0:
449,58,219965,1,0,3:2:0:0:
426,171,220139,2,0,P|442:296|263:308,1,320,2|0,0:2|3:2,0:0:0:0:
133,276,221353,1,0,3:2:0:0:
83,363,221526,1,0,3:2:0:0:
201,366,221700,6,0,P|208:295|219:238,1,128,2|0,3:2|3:2,0:0:0:0:
221,104,222220,2,0,P|251:102|291:126,1,64,2|0,0:2|3:2,0:0:0:0:
160,176,222567,2,0,P|130:178|90:154,1,64,2|0,0:2|3:2,0:0:0:0:
29,48,222913,1,2,0:2:0:0:
143,11,223087,2,0,B|202:15|202:15|225:27|225:27|281:31,1,128,0|0,3:2|3:2,0:0:0:0:
413,79,223607,1,0,0:0:0:0:
383,7,223780,2,0,P|345:33|358:132,1,128,2|0,3:2|3:2,0:0:0:0:
448,317,224474,6,0,B|384:287|384:287|318:328,1,128,2|2,3:2|3:2,0:0:0:0:
265,191,224994,2,0,L|248:276,1,64,2|0,3:2|3:2,0:0:0:0:
174,310,225341,1,2,3:2:0:0:
194,384,225515,2,0,L|179:322,1,64,0|0,3:2|0:0,0:0:0:0:
43,177,225861,1,8,3:3:0:0:
43,177,226208,1,8,3:3:0:0:
82,314,226382,1,4,3:3:0:0:
38,43,237480,5,0,3:0:0:0:
38,43,237567,1,0,3:0:0:0:
38,43,237653,1,0,3:0:0:0:
94,106,237999,1,0,3:0:0:0:
32,187,238347,6,0,L|44:260,1,68.0000012969971,0|0,3:0|0:0,0:0:0:0:
136,229,238694,1,2,3:2:0:0:
120,384,238866,2,0,L|131:316,1,68.0000012969971,2|0,2:0|3:2,0:0:0:0:
237,237,239214,2,0,P|276:232|317:250,1,68.0000012969971,2|0,2:0|3:2,0:0:0:0:
399,333,239561,6,0,P|366:341|333:336,1,68.0000012969971,2|0,2:0|3:2,0:0:0:0:
448,193,239908,2,0,L|465:268,1,68.0000012969971,2|0,2:0|3:2,0:0:0:0:
380,108,240254,2,0,L|369:175,1,68.0000012969971,2|0,2:0|3:2,0:0:0:0:
473,62,240601,1,2,2:0:0:0:
267,28,240948,1,2,2:0:0:0:
267,28,241035,1,2,0:0:0:0:
267,28,241122,6,0,B|240:63|240:63|136:72,1,136.000002593994,2|2,3:2|3:2,0:0:0:0:
6,24,241642,1,2,3:2:0:0:
6,24,241989,1,2,3:2:0:0:
63,131,242162,1,0,3:2:0:0:
16,250,242335,1,2,2:0:0:0:
16,250,242422,1,2,0:0:0:0:
16,250,242509,6,0,B|95:207|79:282|171:239,1,136.000002593994,2|0,3:2|3:2,0:0:0:0:
230,171,243029,1,2,2:0:0:0:
342,200,243202,2,0,P|307:194|258:181,1,68.0000012969971,2|0,3:2|0:0,0:0:0:0:
175,343,243549,2,0,P|208:334|241:329,1,68.0000012969971,0|0,3:2|0:0,0:0:0:0:
146,248,243896,6,0,P|126:204|154:126,1,136.000002593994,2|2,3:2|3:2,0:0:0:0:
355,15,244590,2,0,P|384:74|363:137,1,136.000002593994,2|2,3:2|3:2,0:0:0:0:
304,213,245110,1,2,3:2:0:0:
304,213,245457,5,2,3:2:0:0:
248,110,245630,1,2,3:2:0:0:
304,213,245804,1,2,3:2:0:0:
357,315,245977,1,2,0:2:0:0:
357,315,246150,2,0,P|394:314|440:338,2,68.0000012969971,2|0|0,3:2|0:0|3:2,0:0:0:0:
263,359,246671,6,0,P|188:380|121:344,1,136.000002593994,2|2,0:3|0:3,0:0:0:0:
44,187,247364,2,0,P|119:166|186:202,2,136.000002593994,2|2|0,0:3|0:3|0:0,0:0:0:0:
105,248,248231,1,8,0:0:0:0:
36,60,248405,1,8,0:0:0:0:
255,203,248752,1,12,3:2:0:0:
238,39,249098,1,10,0:2:0:0:
238,39,249185,1,8,0:2:0:0:
238,39,249272,1,10,0:2:0:0:
238,39,249358,1,8,0:2:0:0:
238,39,249445,6,0,B|319:-12|349:91|424:66,1,176.000005371094,6|10,3:2|0:0,0:0:0:0:
497,162,249965,2,0,P|449:173|406:183,1,88.000002685547,2|0,0:0|3:2,0:0:0:0:
238,189,250312,1,2,3:2:0:0:
390,318,250485,1,8,0:0:0:0:
220,352,250659,6,0,P|175:366|126:333,1,88.000002685547,2|0,3:2|0:0,0:0:0:0:
238,189,251006,2,0,P|272:220|268:279,1,88.000002685547,2|8,3:2|0:0,0:0:0:0:
99,254,251353,2,0,P|78:153|140:95,1,176.000005371094,2|2,0:2|3:2,0:0:0:0:
351,78,251872,1,8,0:0:0:0:
182,194,252046,1,2,3:2:0:0:
267,25,252220,6,0,B|255:92|255:92|273:135|273:135|261:221,1,176.000005371094,2|10,3:2|0:0,0:0:0:0:
497,121,252739,2,0,P|489:81|410:43,1,132.00000402832,2|0,0:0|0:0,0:0:0:0:
351,78,253087,2,0,L|371:184,1,88.000002685547,2|8,3:2|0:0,0:0:0:0:
445,352,253433,1,2,3:2:0:0:
504,286,253607,6,0,B|455:261|455:261|318:294,1,176.000005371094,2|8,3:2|0:0,0:0:0:0:
134,349,254127,1,2,0:0:0:0:
241,176,254301,1,0,3:2:0:0:
53,186,254474,2,0,L|84:216,1,44.0000013427735,2|0,3:2|1:0,0:0:0:0:
241,262,254648,2,0,L|198:274,1,44.0000013427735,8|0,0:0|1:0,0:0:0:0:
182,125,254820,1,2,3:2:0:0:
182,125,254907,1,0,1:0:0:0:
182,125,254994,6,0,B|215:101|273:149|376:149,1,176.000005371094,2|8,3:2|0:2,0:0:0:0:
494,42,255515,1,2,0:2:0:0:
331,43,255687,1,2,3:2:0:0:
183,43,255861,1,2,3:2:0:0:
29,43,256034,1,10,0:2:0:0:
119,227,256208,1,0,3:2:0:0:
185,177,256381,6,0,P|98:148|35:221,1,176.000005371094,2|10,3:2|0:2,0:0:0:0:
148,359,256901,2,0,P|189:370|241:344,1,88.000002685547,2|0,3:2|3:2,0:0:0:0:
361,204,257249,2,0,P|320:193|268:219,1,88.000002685547,2|8,3:2|0:2,0:0:0:0:
370,352,257595,1,2,3:2:0:0:
407,139,257768,5,2,3:2:0:0:
487,324,257942,2,0,P|491:234|502:130,1,176.000005371094,2|0,0:2|0:0,0:0:0:0:
361,18,258462,1,2,3:2:0:0:
292,231,258635,1,2,3:2:0:0:
430,95,258809,2,0,P|375:96|332:142,1,88.000002685547,8|2,0:2|3:2,0:0:0:0:
248,357,259156,5,10,0:2:0:0:
146,139,259329,1,10,0:2:0:0:
305,199,259502,1,10,0:2:0:0:
89,299,259675,1,10,0:2:0:0:
89,299,260023,2,0,L|77:243,1,44.0000013427735,2|0,3:2|3:2,0:0:0:0:
22,152,260197,2,0,L|31:108,1,44.0000013427735,8|0,0:2|3:0,0:0:0:0:
131,23,260370,1,2,3:2:0:0:
131,23,260457,1,0,3:2:0:0:
131,23,260543,6,0,B|174:12|174:12|198:38|198:38|317:63,1,176.000005371094,6|10,3:2|0:0,0:0:0:0:
470,31,261063,2,0,P|424:28|370:18,1,88.000002685547,2|0,0:0|3:2,0:0:0:0:
377,243,261411,2,0,P|420:235|464:233,1,88.000002685547,2|8,3:2|0:0,0:0:0:0:
312,171,261757,6,0,B|271:126|225:140|225:140|199:184|135:182,1,176.000005371094,2|2,3:2|3:2,0:0:0:0:
32,57,262277,1,8,0:0:0:0:
86,278,262450,1,2,0:2:0:0:
57,161,262624,1,0,3:2:0:0:
142,66,262797,1,2,3:2:0:0:
275,50,262971,1,8,0:0:0:0:
408,124,263145,1,2,3:2:0:0:
408,124,263231,1,2,0:0:0:0:
408,124,263318,6,0,B|457:163|457:163|477:222|432:278,1,176.000005371094,2|10,3:2|0:0,0:0:0:0:
279,376,263838,2,0,P|322:382|365:360,1,88.000002685547,2|0,0:0|3:2,0:0:0:0:
225,210,264185,2,0,P|198:244|195:292,1,88.000002685547,2|8,3:2|0:0,0:0:0:0:
381,220,264531,1,2,3:2:0:0:
263,126,264705,6,0,B|142:111|142:111|121:149|69:159,1,176.000005371094,2|8,3:2|0:0,0:0:0:0:
39,5,265225,1,2,3:2:0:0:
228,33,265399,2,0,B|348:49|348:49|359:91|406:115,1,176.000005371094,2|8,3:2|0:2,0:0:0:0:
487,246,265919,1,0,3:0:0:0:
497,167,266093,6,0,P|449:165|416:193,1,88.000002685547,6|0,3:2|0:0,0:0:0:0:
283,316,266439,2,0,P|318:341|361:337,1,88.000002685547,10|0,0:2|0:0,0:0:0:0:
303,199,266786,2,0,P|259:208|216:214,1,88.000002685547,2|0,3:2|3:2,0:0:0:0:
31,313,267132,1,10,0:2:0:0:
144,384,267306,6,0,P|133:302|124:207,1,160,10|10,0:2|0:2,0:0:0:0:
143,10,267826,1,10,0:2:0:0:
202,85,268000,1,2,0:2:0:0:
262,160,268173,1,2,0:2:0:0:
331,240,268347,1,2,3:2:0:0:
391,315,268520,1,10,0:3:0:0:
391,315,268694,1,2,1:2:0:0:
467,247,268867,6,0,P|473:205|450:166,1,80,4|0,3:2|1:2,0:0:0:0:
372,99,269214,2,0,P|355:134|361:173,1,80,2|0,3:2|1:2,0:0:0:0:
474,35,269561,2,0,L|394:22,1,80,0|0,3:2|0:0,0:0:0:0:
274,90,269908,2,0,L|194:102,1,80,0|0,3:2|1:2,0:0:0:0:
52,44,270254,5,0,3:2:0:0:
52,44,270428,1,0,1:2:0:0:
106,146,270601,1,0,3:2:0:0:
106,146,270775,1,0,3:2:0:0:
17,232,270948,1,8,0:2:0:0:
103,298,271122,1,8,0:2:0:0:
7,373,271295,1,8,0:2:0:0:
7,373,271468,1,8,0:2:0:0:
133,281,271642,5,0,0:2:0:0:
133,281,271728,1,8,0:0:0:0:
133,281,271815,2,0,L|193:307,1,40,8|8,0:2|0:2,0:0:0:0:
266,343,271989,2,0,L|229:358,1,40,8|8,0:2|0:2,0:0:0:0:
299,259,272162,2,0,L|359:285,1,40,8|8,0:2|0:2,0:0:0:0:
426,342,272335,5,8,0:2:0:0:
446,326,272421,1,8,0:2:0:0:
457,303,272508,1,8,0:2:0:0:
457,277,272595,1,8,0:2:0:0:
445,255,272682,2,0,L|455:208,1,40,8|8,0:2|0:2,0:0:0:0:
502,123,272856,2,0,L|493:83,1,40,8|8,0:2|0:2,0:0:0:0:
383,26,273029,5,8,0:2:0:0:
358,17,273115,1,8,0:2:0:0:
333,20,273202,1,8,0:2:0:0:
311,34,273289,1,8,0:2:0:0:
299,55,273376,2,0,L|253:71,1,40,8|0,0:2|0:0,0:0:0:0:
101,135,273549,5,8,0:2:0:0:
187,104,273723,1,8,0:2:0:0:
13,168,273896,1,8,0:2:0:0:
32,87,274069,1,10,0:3:0:0:
96,261,274243,1,0,3:0:0:0:
96,261,274330,1,0,3:0:0:0:
96,261,274416,6,0,B|139:282|189:262|175:245|230:215|279:248,2,176.000005371094,6|8|0,3:2|0:2|3:2,0:0:0:0:
267,355,275283,1,2,3:2:0:0:
178,132,275457,2,0,P|188:174|195:223,1,88.000002685547,8|2,0:2|3:2,0:0:0:0:
177,366,275804,5,0,0:0:0:0:
335,265,275977,1,0,3:2:0:0:
499,363,276150,1,8,0:2:0:0:
416,316,276324,1,0,0:0:0:0:
486,223,276497,1,0,3:2:0:0:
410,152,276671,1,2,3:2:0:0:
484,13,276844,1,10,0:2:0:0:
484,13,277017,2,0,L|431:32,1,44.0000013427735,2|0,3:2|3:0,0:0:0:0:
334,81,277191,6,0,P|245:84|135:97,1,176.000005371094,6|10,3:2|0:2,0:0:0:0:
158,93,277711,1,0,0:0:0:0:
24,257,277885,2,0,P|20:208|8:146,1,88.000002685547,2|0,3:2|3:2,0:0:0:0:
65,42,278231,1,10,0:2:0:0:
148,214,278405,6,0,P|231:240|313:185,1,176.000005371094,2|0,3:2|3:2,0:0:0:0:
196,271,278925,2,0,P|209:319|218:364,1,88.000002685547,8|0,0:2|3:2,0:0:0:0:
373,240,279272,1,2,3:2:0:0:
219,155,279445,1,0,3:2:0:0:
361,349,279619,1,10,0:2:0:0:
361,349,279792,1,0,3:2:0:0:
460,161,279965,6,0,B|345:129|345:129|336:162|306:178,1,176.000005371094,6|8,3:2|0:2,0:0:0:0:
312,173,280486,1,0,0:0:0:0:
149,61,280659,2,0,P|191:46|239:42,1,88.000002685547,2|0,3:2|3:2,0:0:0:0:
110,179,281006,2,0,P|51:176|5:109,1,132.00000402832,8|0,0:2|0:0,0:0:0:0:
81,105,281353,6,0,L|106:306,2,176.000005371094,2|10|2,0:2|0:2|0:2,0:0:0:0:
24,250,282220,1,0,3:2:0:0:
172,357,282393,2,0,P|220:365|268:343,1,88.000002685547,8|2,0:2|3:2,0:0:0:0:
252,114,282740,6,0,P|177:178|202:275,1,176.000005371094,6|10,3:2|0:2,0:0:0:0:
350,289,283260,2,0,L|328:183,1,88.000002685547,2|0,0:2|3:2,0:0:0:0:
448,361,283607,2,0,L|465:274,1,88.000002685547,2|8,3:2|0:2,0:0:0:0:
464,274,283954,1,2,3:2:0:0:
444,116,284127,5,8,0:2:0:0:
314,26,284301,1,8,0:2:0:0:
165,70,284474,1,8,0:2:0:0:
140,249,284648,1,8,0:2:0:0:
6,31,284994,5,0,3:2:0:0:
6,31,285081,1,0,3:2:0:0:
6,31,285168,2,0,P|18:73|24:124,1,88.000002685547,8|2,0:2|3:2,0:0:0:0:
45,156,285428,1,0,3:2:0:0:
45,156,285515,6,0,P|31:229|20:357,2,176.000005371094,6|8|0,3:2|0:2|3:2,0:0:0:0:
232,90,286382,1,2,3:2:0:0:
55,21,286555,1,8,0:2:0:0:
203,158,286728,6,0,B|293:188|276:88|392:150,1,176.000005371094,2|0,3:2|3:2,0:0:0:0:
506,303,287249,2,0,P|459:307|417:314,1,88.000002685547,8|0,0:2|0:0,0:0:0:0:
481,149,287595,1,0,3:2:0:0:
481,149,287769,1,2,3:2:0:0:
356,250,287942,2,0,B|330:135,1,88.000002685547,10|2,0:2|3:2,0:0:0:0:
226,36,288289,6,0,B|176:73|176:73|208:210,2,176.000005371094,6|10|2,3:2|0:2|3:2,0:0:0:0:
85,207,289156,1,0,3:2:0:0:
272,115,289330,1,10,0:2:0:0:
272,115,289503,1,2,3:2:0:0:
459,33,289676,6,0,P|446:80|434:225,1,176.000005371094,2|8,0:2|0:2,0:0:0:0:
414,368,290197,1,2,3:2:0:0:
502,339,290370,2,0,P|430:280|332:331,1,176.000005371094,2|8,3:2|0:2,0:0:0:0:
213,374,290890,1,0,3:2:0:0:
213,374,290977,1,0,3:0:0:0:
213,374,291064,6,0,P|206:322|227:280,1,88.000002685547,6|0,3:2|0:0,0:0:0:0:
325,131,291411,2,0,P|339:172|331:214,1,88.000002685547,8|0,0:2|0:0,0:0:0:0:
155,167,291757,1,2,3:2:0:0:
315,43,291931,1,0,3:2:0:0:
242,101,292104,1,8,0:2:0:0:
108,43,292278,1,0,3:2:0:0:
108,43,292364,1,0,3:0:0:0:
108,43,292451,6,0,P|123:119|131:225,1,176.000005371094,2|8,0:2|0:2,0:0:0:0:
36,357,292971,2,0,P|83:350|138:338,1,88.000002685547,2|0,0:2|3:2,0:0:0:0:
323,254,293318,2,0,P|279:244|236:239,1,88.000002685547,2|8,3:2|0:2,0:0:0:0:
270,359,293665,1,0,3:2:0:0:
408,300,293838,6,0,B|446:236|446:236|401:120,1,176.000005371094,6|8,3:2|0:2,0:0:0:0:
409,141,294358,1,0,0:0:0:0:
289,27,294532,2,0,P|257:62|265:128,1,88.000002685547,2|0,3:2|3:2,0:0:0:0:
462,73,294879,2,0,P|447:27|386:1,1,88.000002685547,10|0,0:2|3:2,0:0:0:0:
309,194,295226,6,0,B|249:177|249:177|220:192|220:192|124:183,1,176.000005371094,6|8,3:2|0:2,0:0:0:0:
22,42,295746,1,0,3:2:0:0:
22,42,295832,1,0,3:2:0:0:
22,42,295919,2,0,P|40:87|47:147,1,88.000002685547,8|0,0:2|3:2,0:0:0:0:
52,148,296179,2,0,P|34:193|27:253,1,88.000002685547,2|0,0:2|0:0,0:0:0:0:
35,266,296439,1,2,3:2:0:0:
122,364,296613,6,0,B|156:326|209:338|209:338|242:383|314:348,1,176.000005371094,6|10,3:2|0:2,0:0:0:0:
479,298,297133,1,2,0:2:0:0:
381,329,297306,1,0,3:2:0:0:
381,329,297480,1,0,3:2:0:0:
268,227,297653,2,0,P|321:216|361:204,1,88.000002685547,8|8,0:2|0:2,0:0:0:0:
458,93,298000,5,8,0:2:0:0:
308,59,298174,1,0,3:2:0:0:
308,59,298260,1,0,3:2:0:0:
308,59,298347,2,0,L|259:76,1,44.0000013427735,8|8,0:2|0:2,0:0:0:0:
214,149,298520,2,0,L|165:132,1,44.0000013427735,8|8,0:2|0:2,0:0:0:0:
82,36,298694,5,10,0:2:0:0:
56,44,298780,1,8,0:2:0:0:
37,64,298867,1,8,0:2:0:0:
30,90,298954,1,8,0:2:0:0:
34,117,299041,2,0,L|55:195,1,44.0000013427735,8|8,0:2|0:2,0:0:0:0:
89,243,299214,2,0,L|77:285,1,44.0000013427735,8|8,0:2|0:2,0:0:0:0:
100,369,299387,6,0,P|161:373|202:346,1,88.000002685547,6|0,3:2|3:2,0:0:0:0:
243,302,299648,1,0,3:2:0:0:
243,302,299734,2,0,P|304:298|345:325,1,88.000002685547,8|0,0:2|3:2,0:0:0:0:
353,334,299994,1,0,3:2:0:0:
353,334,300081,1,2,3:2:0:0:
464,273,300254,1,0,3:2:0:0:
464,273,300341,1,0,3:2:0:0:
464,273,300428,1,8,0:2:0:0:
365,226,300601,2,0,L|376:166,1,44.0000013427735,0|0,3:2|3:2,0:0:0:0:
323,93,300775,6,0,P|252:40|153:86,1,176.000005371094,14|0,3:2|0:0,0:0:0:0:
215,257,301295,2,0,P|297:277|364:225,1,176.000005371094,14|2,3:2|0:2,0:0:0:0:
87,185,301989,1,2,0:2:0:0:
87,185,302162,1,2,0:2:0:0:
256,192,302249,12,0,304937,0:0:0:0:
