osu file format v14

[General]
AudioFilename: audio.mp3
AudioLeadIn: 0
PreviewTime: 135080
Countdown: 0
SampleSet: Soft
StackLeniency: 0.4
Mode: 0
LetterboxInBreaks: 0
WidescreenStoryboard: 1

[Editor]
DistanceSpacing: 1.5
BeatDivisor: 4
GridSize: 16
TimelineZoom: 1.5

[Metadata]
Title:Sore wa Sekai o Koete
TitleUnicode:それは世界を越えて
Artist:La priere
ArtistUnicode:La prière
Creator:Lanzhu
Version:Hard
Source:
Tags:mappers' guild mpg featured artist fa Gemini Syndrome 1st アルバム Album 棗いつき Natsume Itsuki 藍月なくる Aitsuki Nakuru nayuta Japanese Pop Jpop J-pop Full Version Idols Kyōzō Kyozo らぷりえーる なゆた sky_delta ラプリエール erisu mayuzumi fuyuko
BeatmapID:3174657
BeatmapSetID:1553883

[Difficulty]
HPDrainRate:4.5
CircleSize:3.4
OverallDifficulty:7.2
ApproachRate:8
SliderMultiplier:1.5
SliderTickRate:1

[Events]
//Background and Video events
0,0,"bg.jpg",0,0
//Break Periods
2,196928,200890
2,227248,235572
//Storyboard Layer 0 (Background)
//Storyboard Layer 1 (Fail)
//Storyboard Layer 2 (Pass)
//Storyboard Layer 3 (Foreground)
//Storyboard Layer 4 (Overlay)
//Storyboard Sound Samples

[TimingPoints]
-266,346.820809248555,4,2,1,40,1,0
600,-142.857142857143,4,2,1,40,0,0
1121,-142.857142857143,4,2,1,45,0,0
1294,-142.857142857143,4,2,1,45,0,0
1467,-142.857142857143,4,2,1,45,0,0
4935,-142.857142857143,4,2,1,45,0,0
5109,-142.857142857143,4,2,1,45,0,0
5629,-142.857142857143,4,2,1,45,0,0
5803,-100,4,2,1,45,0,0
6409,-100,4,2,1,45,0,0
6496,-100,4,2,1,45,0,0
6670,-142.857142857143,4,2,1,45,0,0
8057,-142.857142857143,4,2,1,45,0,0
8230,-142.857142857143,4,2,1,45,0,0
9444,-142.857142857143,4,2,1,50,0,0
9617,-142.857142857143,4,2,1,50,0,0
9964,-142.857142857143,4,2,1,50,0,0
10137,-142.857142857143,4,2,1,50,0,0
10485,-142.857142857143,4,2,1,50,0,0
10658,-142.857142857143,4,2,1,50,0,0
11005,-142.857142857143,4,2,1,50,0,0
11178,-142.857142857143,4,2,1,50,0,0
11352,-142.857142857143,4,2,1,50,0,0
11611,-142.857142857143,4,2,1,50,0,0
11698,-142.857142857143,4,2,1,50,0,0
11958,-142.857142857143,4,2,1,50,0,0
12045,-142.857142857143,4,2,1,50,0,0
12219,-125,4,2,1,50,0,0
14993,-111.111111111111,4,2,1,50,0,0
15860,-111.111111111111,4,2,1,50,0,0
16034,-111.111111111111,4,2,1,50,0,0
17507,-111.111111111111,4,2,1,50,0,0
17594,-111.111111111111,4,2,1,50,0,0
17768,-100,4,2,1,60,0,0
18288,-100,4,2,1,60,0,0
18462,-100,4,2,1,60,0,0
19155,-100,4,2,1,60,0,0
19328,-100,4,2,1,60,0,0
20802,-100,4,2,1,5,0,0
20889,-100,4,2,1,60,0,0
21062,-100,4,2,1,60,0,0
21236,-100,4,2,1,60,0,0
22450,-100,4,2,1,60,0,0
22623,-100,4,2,1,60,0,0
23577,-100,4,2,1,5,0,0
23664,-100,4,2,1,60,0,0
23837,-100,4,2,1,60,0,0
24011,-100,4,2,1,60,0,0
25225,-100,4,2,1,60,0,0
25398,-100,4,2,1,60,0,0
26178,-100,4,2,1,60,0,0
26265,-100,4,2,1,60,0,0
27305,-100,4,2,1,55,0,0
28866,-117.647058823529,4,2,1,45,0,0
37190,-111.111111111111,4,2,1,45,0,0
38750,-111.111111111111,4,2,1,45,0,0
38924,-111.111111111111,4,2,1,45,0,0
39964,-105.263157894737,4,2,1,45,0,0
40485,-105.263157894737,4,2,1,45,0,0
40658,-105.263157894737,4,2,1,45,0,0
40831,-105.263157894737,4,2,1,45,0,0
41005,-105.263157894737,4,2,1,45,0,0
41524,-105.263157894737,4,2,1,45,0,0
41699,-105.263157894737,4,2,1,45,0,0
45340,-95.2380952380952,4,2,1,60,0,0
51929,-95.2380952380952,4,2,1,60,0,0
52103,-95.2380952380952,4,2,1,60,0,0
52276,-95.2380952380952,4,2,1,60,0,0
52450,-95.2380952380952,4,2,1,60,0,0
52537,-95.2380952380952,4,2,1,60,0,0
54704,-95.2380952380952,4,2,1,50,0,0
54964,-95.2380952380952,4,2,1,60,0,0
55225,-90.9090909090909,4,2,1,70,0,0
64068,-90.9090909090909,4,2,1,70,0,0
64242,-90.9090909090909,4,2,1,70,0,0
66496,-90.9090909090909,4,2,1,70,0,0
66670,-90.9090909090909,4,2,1,70,0,0
73259,-90.9090909090909,4,2,1,70,0,0
73433,-90.9090909090909,4,2,1,70,0,0
74647,-100,4,2,1,70,0,0
77421,-117.647058823529,4,2,1,55,0,0
77594,-117.647058823529,4,2,1,55,0,0
77768,-117.647058823529,4,2,1,55,0,0
77941,-117.647058823529,4,2,1,55,0,0
78115,-117.647058823529,4,2,1,55,0,0
80369,-117.647058823529,4,2,1,55,0,0
80542,-117.647058823529,4,2,1,55,0,0
80715,-117.647058823529,4,2,1,55,0,0
80889,-117.647058823529,4,2,1,55,0,0
86959,-117.647058823529,4,2,1,50,0,0
88519,-111.111111111111,4,2,1,60,0,0
88692,-111.111111111111,4,2,1,60,0,0
88866,-111.111111111111,4,2,1,60,0,0
89039,-111.111111111111,4,2,1,60,0,0
89213,-111.111111111111,4,2,1,60,0,0
91207,-111.111111111111,4,2,1,5,0,0
91294,-111.111111111111,4,2,1,60,0,0
92681,-111.111111111111,4,2,1,60,0,0
92855,-111.111111111111,4,2,1,60,0,0
93982,-111.111111111111,4,2,1,5,0,0
94068,-111.111111111111,4,2,1,60,0,0
94241,-111.111111111111,4,2,1,60,0,0
94415,-111.111111111111,4,2,1,60,0,0
94588,-111.111111111111,4,2,1,60,0,0
94762,-111.111111111111,4,2,1,60,0,0
94935,-111.111111111111,4,2,1,60,0,0
95109,-111.111111111111,4,2,1,60,0,0
99618,-200,4,2,1,60,0,0
99704,-200,4,2,1,60,0,0
102392,-142.857142857143,4,2,1,45,0,0
111236,-142.857142857143,4,2,1,45,0,0
111756,-142.857142857143,4,2,1,45,0,0
113317,-142.857142857143,4,2,1,45,0,0
113490,-133.333333333333,4,2,1,40,0,0
114183,-133.333333333333,4,2,1,40,0,0
114878,-133.333333333333,4,2,1,40,0,0
116958,-133.333333333333,4,2,1,40,0,0
117652,-133.333333333333,4,2,1,40,0,0
118345,-133.333333333333,4,2,1,40,0,0
119040,-133.333333333333,4,2,1,40,0,0
119733,-133.333333333333,4,2,1,40,0,0
120427,-133.333333333333,4,2,1,40,0,0
122507,-133.333333333333,4,2,1,40,0,0
123201,-133.333333333333,4,2,1,40,0,0
124415,-133.333333333333,4,2,1,40,0,0
124589,-117.647058823529,4,2,1,45,0,0
124762,-117.647058823529,4,2,1,45,0,0
124936,-117.647058823529,4,2,1,45,0,0
128230,-117.647058823529,4,2,1,45,0,0
128404,-117.647058823529,4,2,1,45,0,0
128577,-117.647058823529,4,2,1,45,0,0
128751,-117.647058823529,4,2,1,45,0,0
129617,-117.647058823529,4,2,1,45,0,0
129791,-117.647058823529,4,2,1,45,0,0
129964,-117.647058823529,4,2,1,45,0,0
130138,-117.647058823529,4,2,1,45,0,0
131004,-117.647058823529,4,2,1,45,0,0
131178,-117.647058823529,4,2,1,45,0,0
131351,-117.647058823529,4,2,1,45,0,0
131525,-117.647058823529,4,2,1,45,0,0
132999,-117.647058823529,4,2,1,45,0,0
134473,-117.647058823529,4,2,1,55,0,0
134993,-117.647058823529,4,2,1,55,0,0
135687,-90.9090909090909,4,2,1,70,0,0
144530,-90.9090909090909,4,2,1,70,0,0
144704,-90.9090909090909,4,2,1,70,0,0
146958,-90.9090909090909,4,2,1,70,0,0
147132,-90.9090909090909,4,2,1,70,0,0
153721,-90.9090909090909,4,2,1,70,0,0
153895,-90.9090909090909,4,2,1,70,0,0
155109,-100,4,2,1,55,0,0
155455,-100,4,2,1,55,0,0
155629,-100,4,2,1,55,0,0
155975,-100,4,2,1,55,0,0
156149,-100,4,2,1,55,0,0
157884,-125,4,2,1,45,0,0
162912,-125,4,2,1,45,0,0
163086,-125,4,2,1,45,0,0
167421,-125,4,2,1,45,0,0
167594,-125,4,2,1,45,0,0
168982,-111.111111111111,4,2,1,50,0,0
171583,-111.111111111111,4,2,1,50,0,0
171756,-111.111111111111,4,2,1,50,0,0
174531,-95.2380952380952,4,2,1,60,0,0
174791,-95.2380952380952,4,2,1,5,0,0
174878,-95.2380952380952,4,2,1,60,0,0
175051,-95.2380952380952,4,2,1,60,0,0
175225,-95.2380952380952,4,2,1,60,0,0
175745,-95.2380952380952,4,2,1,60,0,0
175918,-95.2380952380952,4,2,1,60,0,0
176178,-95.2380952380952,4,2,1,5,0,0
176265,-95.2380952380952,4,2,1,60,0,0
176438,-95.2380952380952,4,2,1,60,0,0
176612,-95.2380952380952,4,2,1,60,0,0
177132,-95.2380952380952,4,2,1,60,0,0
177305,-95.2380952380952,4,2,1,60,0,0
179213,-95.2380952380952,4,2,1,60,0,0
179386,-95.2380952380952,4,2,1,60,0,0
180340,-95.2380952380952,4,2,1,5,0,0
180427,-95.2380952380952,4,2,1,60,0,0
180600,-95.2380952380952,4,2,1,60,0,0
180774,-95.2380952380952,4,2,1,60,0,0
181294,-95.2380952380952,4,2,1,60,0,0
181467,-95.2380952380952,4,2,1,60,0,0
181988,-95.2380952380952,4,2,1,60,0,0
182161,-95.2380952380952,4,2,1,60,0,0
182681,-95.2380952380952,4,2,1,60,0,0
182855,-95.2380952380952,4,2,1,60,0,0
185890,-95.2380952380952,4,2,1,5,0,0
185976,-95.2380952380952,4,2,1,60,0,0
186149,-95.2380952380952,4,2,1,60,0,0
186323,-95.2380952380952,4,2,1,60,0,0
186843,-95.2380952380952,4,2,1,60,0,0
187016,-95.2380952380952,4,2,1,60,0,0
187537,-95.2380952380952,4,2,1,60,0,0
187710,-95.2380952380952,4,2,1,60,0,0
188230,-95.2380952380952,4,2,1,60,0,0
188404,-95.2380952380952,4,2,1,60,0,0
190311,-95.2380952380952,4,2,1,60,0,0
190485,-95.2380952380952,4,2,1,60,0,0
191525,-95.2380952380952,4,2,1,60,0,0
191698,-95.2380952380952,4,2,1,60,0,0
191872,-95.2380952380952,4,2,1,60,0,0
192392,-95.2380952380952,4,2,1,60,0,0
192566,-95.2380952380952,4,2,1,60,0,0
193086,-95.2380952380952,4,2,1,60,0,0
193259,-95.2380952380952,4,2,1,60,0,0
193779,-95.2380952380952,4,2,1,60,0,0
193953,-95.2380952380952,4,2,1,60,0,0
195860,-95.2380952380952,4,2,1,60,0,0
196034,-95.2380952380952,4,2,1,60,0,0
196554,-95.2380952380952,4,2,1,60,0,0
196727,-166.666666666667,4,2,1,40,0,0
202277,-142.857142857143,4,2,1,45,0,0
208346,-142.857142857143,4,2,1,45,0,0
208519,-142.857142857143,4,2,1,45,0,0
208692,-142.857142857143,4,2,1,45,0,0
208866,-142.857142857143,4,2,1,45,0,0
209039,-142.857142857143,4,2,1,45,0,0
209213,-142.857142857143,4,2,1,45,0,0
209733,-142.857142857143,4,2,1,45,0,0
209906,-142.857142857143,4,2,1,45,0,0
210079,-142.857142857143,4,2,1,45,0,0
210253,-142.857142857143,4,2,1,45,0,0
210426,-142.857142857143,4,2,1,45,0,0
210600,-142.857142857143,4,2,1,45,0,0
211121,-142.857142857143,4,2,1,45,0,0
211294,-142.857142857143,4,2,1,45,0,0
211467,-142.857142857143,4,2,1,45,0,0
211641,-142.857142857143,4,2,1,45,0,0
211814,-142.857142857143,4,2,1,45,0,0
211988,-142.857142857143,4,2,1,45,0,0
216149,-125,4,2,1,50,0,0
217709,-125,4,2,1,50,0,0
217884,-125,4,2,1,50,0,0
218403,-125,4,2,1,50,0,0
218577,-125,4,2,1,50,0,0
218750,-125,4,2,1,50,0,0
218924,-125,4,2,1,50,0,0
225686,-125,4,2,1,50,0,0
225860,-125,4,2,1,50,0,0
227248,-117.647058823529,4,2,1,45,0,0
237479,-117.647058823529,4,2,1,45,0,0
237826,-153.846153846154,4,2,1,45,0,0
238346,-117.647058823529,4,2,1,50,0,0
238519,-117.647058823529,4,2,1,50,0,0
238693,-117.647058823529,4,2,1,50,0,0
241034,-117.647058823529,4,2,1,50,0,0
241121,-117.647058823529,4,2,1,50,0,0
241814,-117.647058823529,4,2,1,50,0,0
241988,-117.647058823529,4,2,1,50,0,0
243374,-117.647058823529,4,2,1,50,0,0
243548,-117.647058823529,4,2,1,50,0,0
243721,-117.647058823529,4,2,1,50,0,0
243895,-117.647058823529,4,2,1,50,0,0
245282,-117.647058823529,4,2,1,50,0,0
245456,-117.647058823529,4,2,1,50,0,0
246323,-117.647058823529,4,2,1,50,0,0
246670,-117.647058823529,4,2,1,50,0,0
248924,-117.647058823529,4,2,1,55,0,0
249097,-117.647058823529,4,2,1,55,0,0
249184,-117.647058823529,4,2,1,60,0,0
249444,-90.9090909090909,4,2,1,75,0,0
250831,-90.9090909090909,4,2,1,75,0,0
251005,-90.9090909090909,4,2,1,75,0,0
258288,-90.9090909090909,4,2,1,75,0,0
258461,-90.9090909090909,4,2,1,75,0,0
260715,-90.9090909090909,4,2,1,75,0,0
260889,-90.9090909090909,4,2,1,75,0,0
267305,-100,4,2,1,75,0,0
267478,-100,4,2,1,75,0,0
267652,-100,4,2,1,75,0,0
267825,-100,4,2,1,55,0,0
268779,-100,4,2,1,55,0,0
268866,-100,4,2,1,55,0,0
270947,-100,4,2,1,60,0,0
274241,-100,4,2,1,60,0,0
274415,-90.9090909090909,4,2,1,75,0,0
276322,-90.9090909090909,4,2,1,75,0,0
276496,-90.9090909090909,4,2,1,75,0,0
277450,-90.9090909090909,4,2,1,5,0,0
277537,-90.9090909090909,4,2,1,75,0,0
277710,-90.9090909090909,4,2,1,75,0,0
277884,-90.9090909090909,4,2,1,75,0,0
281612,-90.9090909090909,4,2,1,5,0,0
281699,-90.9090909090909,4,2,1,75,0,0
287421,-90.9090909090909,4,2,1,75,0,0
287594,-90.9090909090909,4,2,1,75,0,0
288548,-90.9090909090909,4,2,1,5,0,0
288635,-90.9090909090909,4,2,1,75,0,0
288808,-90.9090909090909,4,2,1,75,0,0
288982,-90.9090909090909,4,2,1,75,0,0
295485,-90.9090909090909,4,2,1,5,0,0
295571,-90.9090909090909,4,2,1,75,0,0
299386,-90.9090909090909,4,2,1,80,0,0
300774,-90.9090909090909,4,2,1,60,0,0
301120,-90.9090909090909,4,2,1,60,0,0
301294,-90.9090909090909,4,2,1,60,0,0
302161,-111.111111111111,4,2,1,60,0,0
302248,-111.111111111111,4,2,1,60,0,0

[Colours]
Combo1 : 255,255,0
Combo2 : 255,62,158
Combo3 : 18,124,255

[HitObjects]
98,98,601,6,0,L|40:87,2,52.4999983978272,2|2|2,0:0|0:0|0:0,0:0:0:0:
161,145,1122,6,0,L|221:133,1,52.4999983978272,2|0,0:0|0:0,0:0:0:0:
274,86,1468,1,2,0:0:0:0:
326,145,1642,2,0,L|311:251,2,104.999996795654,2|2|2,0:0|0:0|0:0,0:0:0:0:
471,84,2682,1,2,0:0:0:0:
414,201,3029,1,2,0:0:0:0:
482,316,3376,1,2,0:0:0:0:
482,316,3549,1,2,0:0:0:0:
420,366,3723,1,2,0:0:0:0:
361,313,3896,6,0,P|316:305|278:344,1,104.999996795654,2|2,0:0|0:0,0:0:0:0:
198,349,4416,2,0,B|162:276|162:276|196:197,1,157.499995193482,2|0,0:0|0:0,0:0:0:0:
167,131,5110,1,2,0:3:0:0:
27,57,5457,2,0,L|38:120,1,52.4999983978272,0|0,1:0|0:0,0:0:0:0:
82,172,5804,2,0,L|121:161,2,37.5,0|0|0,1:0|1:0|1:0,0:0:0:0:
47,246,6150,1,0,1:0:0:0:
47,246,6237,1,0,1:0:0:0:
47,246,6324,2,0,L|7:235,2,37.5,0|0|2,1:0|1:0|1:2,0:0:0:0:
100,347,6671,6,0,P|61:372|-2:355,2,104.999996795654,2|2|2,0:2|0:2|0:2,0:0:0:0:
230,257,7711,1,2,0:2:0:0:
230,257,7885,2,0,L|283:274,1,52.4999983978272,2|0,0:2|0:0,0:0:0:0:
334,329,8231,2,0,P|385:346|440:316,1,104.999996795654,2|2,0:2|0:2,0:0:0:0:
488,273,8752,1,2,0:2:0:0:
432,217,8925,2,0,L|445:165,1,52.4999983978272,2|2,0:2|0:2,0:0:0:0:
408,96,9272,1,2,0:2:0:0:
362,32,9445,6,0,L|301:47,1,52.4999983978272,6|0,3:2|0:0,0:0:0:0:
311,44,9965,2,0,L|300:101,1,52.4999983978272,2|0,3:2|0:0,0:0:0:0:
301,95,10486,2,0,L|315:153,1,52.4999983978272,2|0,3:2|0:0,0:0:0:0:
313,146,11006,2,0,L|300:208,1,52.4999983978272,2|0,3:2|0:0,0:0:0:0:
230,230,11353,1,0,1:2:0:0:
179,290,11526,2,0,L|141:284,2,26.2499991989136,0|0|0,3:2|1:0|1:2,0:0:0:0:
243,336,11873,2,0,L|281:343,2,26.2499991989136,0|0|0,3:0|1:0|1:2,0:0:0:0:
154,375,12220,6,0,L|95:364,1,60,6|0,3:2|1:2,0:0:0:0:
22,310,12567,2,0,L|7:251,1,60,0|0,3:2|1:2,0:0:0:0:
77,195,12913,1,0,3:2:0:0:
6,48,13260,1,0,3:2:0:0:
6,48,13434,2,0,L|76:65,1,60,0|0,1:2|3:2,0:0:0:0:
138,121,13780,1,0,1:2:0:0:
138,121,13954,1,0,3:2:0:0:
190,48,14127,1,0,1:2:0:0:
273,82,14301,2,0,L|337:72,1,60,0|0,3:2|1:2,0:0:0:0:
319,162,14648,2,0,L|278:169,3,30,0|0|0|0,1:0|1:2|1:2|1:2,0:0:0:0:
232,159,14994,6,0,P|217:190|228:234,1,67.4999979400635,0|0,3:2|1:2,0:0:0:0:
267,312,15341,2,0,P|301:319|350:304,1,67.4999979400635,0|0,3:2|1:2,0:0:0:0:
420,276,15688,2,0,L|450:211,1,67.4999979400635,0|0,3:2|0:0,0:0:0:0:
482,128,16035,1,0,3:2:0:0:
482,128,16208,1,2,0:3:0:0:
319,16,16555,1,2,0:3:0:0:
319,16,16728,2,0,L|240:36,1,67.4999979400635,0|2,3:2|0:3,0:0:0:0:
180,103,17075,2,0,L|143:71,3,33.7499989700318,0|0|0|0,1:2|1:2|1:2|1:2,0:0:0:0:
136,33,17422,2,0,L|103:19,3,33.7499989700318,0|0|8|8,3:2|3:0|0:2|0:2,0:0:0:0:
79,3,17769,6,0,P|18:13|13:105,1,150,6|8,3:2|0:0,0:0:0:0:
34,187,18289,1,0,0:0:0:0:
8,296,18463,2,0,P|81:280|155:272,1,150,2|8,3:2|0:0,0:0:0:0:
267,287,18983,2,0,L|291:368,2,75,2|0|0,3:2|0:0|3:2,0:0:0:0:
273,174,19503,2,0,B|329:199|329:199|346:229|346:229|414:263,1,150,8|0,0:0|3:2,0:0:0:0:
484,184,20023,1,2,3:2:0:0:
402,106,20197,2,0,L|389:70,3,37.5,8|0|0|0,1:2|1:2|1:2|1:2,0:0:0:0:
355,33,20543,6,0,P|280:20|246:55,1,112.5,6|0,3:2|0:0,0:0:0:0:
236,88,20890,2,0,P|194:91|154:71,1,75,8|0,0:2|0:0,0:0:0:0:
61,45,21237,1,2,3:2:0:0:
61,45,21411,1,0,3:2:0:0:
13,146,21584,1,8,0:2:0:0:
95,222,21757,2,0,B|183:190|164:269|248:233,1,150,2|0,3:2|3:2,0:0:0:0:
346,206,22278,2,0,P|338:246|331:300,1,75,10|0,0:2|0:0,0:0:0:0:
257,362,22624,2,0,P|217:354|163:347,1,75,2|0,3:2|3:2,0:0:0:0:
74,317,22971,2,0,L|82:280,3,37.5,8|0|0|0,1:2|1:2|1:2|1:2,0:0:0:0:
126,245,23318,6,0,L|109:112,1,112.5,6|0,3:2|0:0,0:0:0:0:
131,89,23665,2,0,P|168:79|217:100,1,75,8|0,0:0|0:0,0:0:0:0:
316,69,24012,1,2,3:2:0:0:
316,69,24185,1,0,3:0:0:0:
411,127,24358,1,8,0:0:0:0:
422,240,24532,2,0,B|385:217|345:245|358:257|323:298|260:257,1,150,2|0,3:2|3:2,0:0:0:0:
232,175,25052,1,8,0:0:0:0:
232,175,25226,1,0,0:0:0:0:
311,95,25399,2,0,P|354:93|393:119,1,75,0|2,3:2|3:2,0:0:0:0:
302,187,25746,2,0,P|259:189|220:163,1,75,8|0,1:2|1:2,0:0:0:0:
173,69,26093,5,6,3:2:0:0:
173,69,26179,1,0,1:0:0:0:
173,69,26266,1,0,1:2:0:0:
66,102,26439,1,8,1:2:0:0:
112,204,26613,2,0,L|160:212,2,37.5,0|0|0,1:2|1:2|3:2,0:0:0:0:
39,264,26960,1,0,3:2:0:0:
92,362,27133,1,2,3:2:0:0:
196,321,27306,2,0,B|267:306|267:306|290:318|290:318|361:304,2,150,8|8|8,0:2|0:2|0:2,0:0:0:0:
263,105,28347,1,8,0:2:0:0:
288,214,28520,1,8,0:2:0:0:
468,150,28867,6,0,B|468:13|468:13|476:45|502:63,2,191.250003647804,2|2|2,3:2|3:2|3:2,0:0:0:0:
443,242,30081,1,2,0:2:0:0:
312,102,30428,2,0,L|344:112,2,31.8750006079674,0|0|0,3:2|3:2|3:2,0:0:0:0:
233,47,30775,1,0,3:2:0:0:
187,130,30948,2,0,L|105:145,1,63.7500012159348,2|2,3:3|0:3,0:0:0:0:
63,215,31295,2,0,L|-19:200,1,63.7500012159348,2|2,3:3|0:3,0:0:0:0:
27,111,31642,6,0,P|50:204|55:309,2,191.250003647804,2|2|2,3:2|3:2|3:2,0:0:0:0:
77,29,32856,1,2,0:2:0:0:
228,144,33202,2,0,L|219:194,2,31.8750006079674,0|0|0,3:2|3:2|3:2,0:0:0:0:
256,52,33549,1,0,3:2:0:0:
324,118,33723,2,0,L|395:102,1,63.7500012159348,2|2,3:3|0:3,0:0:0:0:
440,25,34069,2,0,L|506:43,1,63.7500012159348,2|2,3:3|0:3,0:0:0:0:
491,137,34416,6,0,P|474:208|464:338,2,191.250003647804,2|2|2,3:2|3:2|3:2,0:0:0:0:
500,41,35630,1,2,0:2:0:0:
308,37,35977,2,0,L|260:12,2,31.8750006079674,0|0|0,3:2|3:2|3:2,0:0:0:0:
366,113,36324,1,0,3:2:0:0:
299,181,36497,1,2,3:3:0:0:
299,181,36671,1,2,0:3:0:0:
233,111,36844,2,0,P|201:102|165:100,1,63.7500012159348,2|2,3:3|0:3,0:0:0:0:
74,131,37191,6,0,L|46:-8,2,134.999995880127,6|0|2,3:2|3:2|3:2,0:0:0:0:
151,219,38058,1,2,0:2:0:0:
105,310,38231,1,2,3:2:0:0:
105,310,38405,1,2,0:2:0:0:
189,365,38578,2,0,P|228:361|280:355,1,67.4999979400635,2|0,3:2|0:0,0:0:0:0:
337,296,38925,1,2,3:2:0:0:
425,344,39098,2,0,L|434:261,1,67.4999979400635,2|0,0:2|3:2,0:0:0:0:
378,174,39445,2,0,P|319:190|253:147,1,134.999995880127,2|0,0:2|1:2,0:0:0:0:
311,49,39965,6,0,B|378:15|378:15|466:40,1,142.49999619484,2|2,3:2|3:2,0:0:0:0:
489,130,40486,1,0,0:0:0:0:
489,130,40659,2,0,P|479:169|475:219,1,71.2499980974198,2|0,3:2|0:0,0:0:0:0:
509,301,41006,1,2,3:2:0:0:
422,362,41179,2,0,B|335:387|362:318|258:350,1,142.49999619484,2|0,0:2|0:0,0:0:0:0:
181,372,41700,1,0,3:2:0:0:
181,372,41873,2,0,P|142:359|104:350,1,71.2499980974198,2|2,0:2|3:2,0:0:0:0:
31,281,42220,2,0,P|70:268|108:259,1,71.2499980974198,2|2,0:2|3:2,0:0:0:0:
189,203,42567,1,2,0:2:0:0:
122,119,42740,6,0,P|125:32|175:37,1,142.49999619484,2|2,3:2|3:2,0:0:0:0:
244,94,43260,2,0,P|276:87|326:81,1,71.2499980974198,2|0,0:2|3:2,0:0:0:0:
402,20,43607,2,0,P|434:27|484:33,1,71.2499980974198,2|0,0:2|3:2,0:0:0:0:
459,138,43954,2,0,B|475:211|475:211|423:288,1,142.49999619484,2|2,0:2|0:2,0:0:0:0:
334,259,44474,1,2,3:2:0:0:
334,259,44648,2,0,P|329:217|321:175,1,71.2499980974198,2|0,0:2|3:2,0:0:0:0:
294,86,44994,1,2,0:2:0:0:
194,46,45168,1,2,0:2:0:0:
107,125,45341,6,0,B|124:178|124:178|113:229|113:229|136:312,1,157.499995193482,4|2,3:2|3:2,0:0:0:0:
224,342,45861,1,10,0:2:0:0:
224,342,46208,2,0,L|312:324,1,78.7499975967408,10|2,0:2|0:2,0:0:0:0:
410,281,46555,1,2,0:2:0:0:
504,351,46728,2,0,P|472:286|494:192,1,157.499995193482,6|2,3:2|3:2,0:0:0:0:
434,97,47249,1,10,0:2:0:0:
434,97,47595,2,0,P|391:89|344:125,1,78.7499975967408,10|2,0:2|0:2,0:0:0:0:
249,61,47942,1,2,0:2:0:0:
130,49,48116,6,0,P|142:126|147:205,1,157.499995193482,6|2,3:2|3:2,0:0:0:0:
235,284,48635,1,10,0:2:0:0:
320,201,48809,2,0,L|297:122,1,78.7499975967408,2|8,0:2|0:2,0:0:0:0:
365,28,49156,1,2,0:2:0:0:
464,92,49330,1,2,3:2:0:0:
464,92,49503,1,2,0:2:0:0:
454,209,49676,6,0,L|429:388,1,157.499995193482,6|8,3:2|0:2,0:0:0:0:
313,374,50197,2,0,L|288:195,1,157.499995193482,6|8,3:2|0:2,0:0:0:0:
179,178,50717,2,0,L|154:357,1,157.499995193482,6|8,3:2|0:2,0:0:0:0:
39,351,51237,2,0,L|14:172,1,157.499995193482,6|8,3:2|0:2,0:0:0:0:
82,95,51757,2,0,L|160:68,1,78.7499975967408,6|0,3:2|0:0,0:0:0:0:
260,11,52104,2,0,L|338:38,1,78.7499975967408,10|0,0:2|0:0,0:0:0:0:
270,136,52451,1,2,0:2:0:0:
256,192,52624,12,0,53838,0:0:0:0:
301,61,54705,5,10,0:0:0:0:
301,61,54792,1,8,0:0:0:0:
301,61,54879,2,0,L|241:47,3,39.3749987983704,10|8|10|8,0:0|0:0|0:0|0:0,0:0:0:0:
226,19,55226,6,0,P|163:22|124:130,1,165.000005035401,6|10,3:2|0:0,0:0:0:0:
56,212,55746,2,0,L|80:321,1,82.5000025177003,2|0,0:0|3:2,0:0:0:0:
173,366,56093,2,0,L|197:257,1,82.5000025177003,2|8,3:2|0:0,0:0:0:0:
312,217,56439,6,0,B|419:190|374:278|486:250,2,165.000005035401,2|2|2,3:2|3:2|0:2,0:0:0:0:
212,142,57306,1,0,3:2:0:0:
296,51,57480,2,0,P|341:45|391:76,1,82.5000025177003,2|8,3:2|0:0,0:0:0:0:
487,109,57827,1,2,3:2:0:0:
447,227,58000,6,0,P|470:312|407:372,1,165.000005035401,2|10,3:2|0:0,0:0:0:0:
328,286,58520,2,0,L|235:309,1,82.5000025177003,2|0,0:0|3:2,0:0:0:0:
130,347,58867,2,0,P|165:372|213:367,1,82.5000025177003,2|8,3:2|0:0,0:0:0:0:
148,259,59214,1,2,3:2:0:0:
41,341,59387,6,0,P|40:263|33:150,1,165.000005035401,2|8,3:2|0:0,0:0:0:0:
58,53,59908,1,2,0:0:0:0:
147,138,60081,2,0,B|219:124|219:124|254:140|254:140|328:129,1,165.000005035401,0|8,3:2|0:0,0:0:0:0:
402,53,60601,1,2,3:2:0:0:
285,8,60775,6,0,B|225:21|225:21|198:48|198:48|126:61,1,165.000005035401,2|8,3:2|0:2,0:0:0:0:
16,99,61295,1,2,0:2:0:0:
89,198,61468,2,0,P|133:228|174:216,1,82.5000025177003,2|2,3:2|3:2,0:0:0:0:
253,143,61815,2,0,P|212:129|171:140,1,82.5000025177003,10|0,0:2|3:2,0:0:0:0:
264,243,62162,6,0,B|353:273|353:273|447:225,1,165.000005035401,2|10,3:2|0:2,0:0:0:0:
477,132,62682,2,0,L|496:237,1,82.5000025177003,2|0,0:2|3:2,0:0:0:0:
387,145,63029,2,0,L|406:40,1,82.5000025177003,2|8,3:2|0:2,0:0:0:0:
283,26,63376,1,2,3:2:0:0:
180,94,63549,6,0,P|217:114|271:108,1,82.5000025177003,2|2,3:2|0:2,0:0:0:0:
187,10,63896,2,0,P|144:8|106:28,1,82.5000025177003,8|0,0:2|0:0,0:0:0:0:
28,119,64243,1,2,3:2:0:0:
28,119,64416,2,0,P|45:189|50:298,1,165.000005035401,2|2,3:2|3:2,0:0:0:0:
150,365,64937,5,10,0:2:0:0:
150,365,65110,1,10,0:2:0:0:
255,300,65283,1,10,0:2:0:0:
357,369,65457,1,10,0:2:0:0:
446,142,65804,1,2,3:2:0:0:
446,142,65890,1,0,3:2:0:0:
446,142,65977,2,0,P|394:112|321:137,1,123.75000377655,8|0,0:2|3:2,0:0:0:0:
300,135,66324,6,0,B|255:146|255:146|203:125,1,82.5000025177003,6|0,3:2|0:0,0:0:0:0:
122,57,66671,1,10,0:0:0:0:
42,151,66844,2,0,L|22:62,1,82.5000025177003,2|0,0:0|3:2,0:0:0:0:
121,147,67191,2,0,L|101:236,1,82.5000025177003,2|8,3:2|0:0,0:0:0:0:
136,355,67538,6,0,P|72:302|-6:328,2,165.000005035401,2|2|2,3:2|3:2|3:2,0:0:0:0:
254,310,68405,1,0,3:2:0:0:
254,310,68578,2,0,L|360:327,1,82.5000025177003,2|8,3:2|0:0,0:0:0:0:
459,315,68925,1,2,3:2:0:0:
467,195,69098,6,0,P|390:149|305:189,1,165.000005035401,2|10,3:2|0:0,0:0:0:0:
263,295,69619,2,0,L|369:312,1,82.5000025177003,2|0,0:0|3:2,0:0:0:0:
232,196,69965,2,0,L|146:182,1,82.5000025177003,2|8,3:2|0:0,0:0:0:0:
149,64,70312,1,2,3:2:0:0:
268,40,70486,6,0,B|388:27|388:27|398:61|443:82,1,165.000005035401,2|8,3:2|0:0,0:0:0:0:
489,160,71006,1,2,3:2:0:0:
405,250,71179,2,0,P|359:250|303:231,1,82.5000025177003,2|0,3:2|3:0,0:0:0:0:
242,147,71526,2,0,P|196:147|140:166,1,82.5000025177003,8|0,0:2|3:0,0:0:0:0:
35,201,71873,6,0,B|59:115|-26:109|35:10,2,165.000005035401,6|10|2,3:2|0:2|3:2,0:0:0:0:
17,323,72740,1,0,3:2:0:0:
140,356,72913,1,10,0:2:0:0:
140,356,73087,2,0,B|180:347|180:347|186:352|186:352|229:342,1,82.5000025177003,10|0,0:2|0:0,0:0:0:0:
336,303,73434,1,10,0:2:0:0:
249,215,73607,1,10,0:2:0:0:
372,36,74127,6,0,P|413:14|474:29,2,82.5000025177003,2|8|0,3:2|0:3|1:0,0:0:0:0:
357,74,74561,1,0,1:0:0:0:
357,74,74648,6,0,B|275:97|275:97|192:60,1,150,4|10,3:2|0:2,0:0:0:0:
0,7,75341,2,0,L|27:108,1,75,0|0,3:2|3:2,0:0:0:0:
82,173,75688,2,0,L|62:245,1,75,8|0,0:2|3:2,0:0:0:0:
100,351,76035,6,0,P|55:286|-4:324,2,150,0|8|0,1:2|0:2|3:2,0:0:0:0:
212,317,76902,1,0,3:2:0:0:
212,317,76989,1,0,1:2:0:0:
212,317,77075,2,0,L|261:330,3,37.5,8|0|0|0,0:2|1:2|3:2|1:2,0:0:0:0:
285,353,77422,6,0,P|324:357|363:326,1,63.7500012159348,6|0,3:2|0:0,0:0:0:0:
406,280,77769,2,0,L|416:200,1,63.7500012159348,2|0,3:2|0:0,0:0:0:0:
482,150,78116,2,0,L|474:86,1,63.7500012159348,2|2,3:2|0:2,0:0:0:0:
396,30,78463,1,2,3:2:0:0:
335,104,78636,2,0,B|271:126|271:126|207:103,1,127.50000243187,2|2,0:2|0:2,0:0:0:0:
120,86,79156,2,0,L|129:170,1,63.7500012159348,2|2,3:2|0:2,0:0:0:0:
31,160,79503,2,0,L|22:96,1,63.7500012159348,2|2,3:2|0:2,0:0:0:0:
67,12,79850,1,2,3:2:0:0:
67,12,80197,6,0,P|104:13|146:40,1,63.7500012159348,2|0,3:2|0:0,0:0:0:0:
177,105,80543,2,0,P|147:116|115:116,1,63.7500012159348,2|0,3:2|0:0,0:0:0:0:
23,142,80890,2,0,L|35:228,1,63.7500012159348,2|2,3:2|0:2,0:0:0:0:
101,271,81237,1,0,3:2:0:0:
172,206,81411,2,0,B|233:197|233:197|248:205|248:205|318:195,1,127.50000243187,2|2,0:2|0:2,0:0:0:0:
391,185,81931,1,2,3:2:0:0:
383,280,82104,2,0,B|334:286|334:286|319:279|319:279|258:287,1,127.50000243187,2|2,0:2|0:2,0:0:0:0:
189,354,82624,1,2,3:2:0:0:
189,354,82971,6,0,P|156:367|115:356,1,63.7500012159348,2|2,3:2|0:2,0:0:0:0:
39,326,83318,1,2,3:2:0:0:
92,247,83491,2,0,L|78:174,1,63.7500012159348,2|0,0:2|3:2,0:0:0:0:
15,113,83838,1,2,0:2:0:0:
35,19,84012,2,0,B|111:-1|92:51|178:26,1,127.50000243187,2|0,3:2|3:2,0:0:0:0:
254,35,84532,1,2,0:2:0:0:
254,35,84705,2,0,L|276:110,1,63.7500012159348,2|2,3:2|0:2,0:0:0:0:
337,166,85052,2,0,L|318:241,1,63.7500012159348,2|2,3:2|0:2,0:0:0:0:
260,302,85399,1,2,3:2:0:0:
260,302,85572,1,2,0:2:0:0:
344,347,85746,6,0,P|410:359|487:362,2,127.50000243187,2|0|0,3:2|3:2|3:2,0:0:0:0:
205,223,86786,1,2,3:2:0:0:
205,223,86960,2,0,P|139:235|62:238,2,127.50000243187,10|10|10,0:2|0:2|0:2,0:0:0:0:
323,72,88000,1,10,0:2:0:0:
236,30,88174,1,10,0:2:0:0:
236,30,88260,1,8,0:2:0:0:
236,30,88347,2,0,L|187:48,1,31.8750006079674,8|8,0:2|0:2,0:0:0:0:
171,71,88520,6,0,P|184:105|197:149,1,67.4999979400635,6|0,3:2|0:0,0:0:0:0:
263,203,88867,2,0,P|250:237|237:281,1,67.4999979400635,8|0,0:2|0:0,0:0:0:0:
169,338,89214,1,2,3:2:0:0:
84,282,89387,2,0,L|60:204,1,67.4999979400635,2|10,0:2|0:2,0:0:0:0:
36,119,89734,2,0,P|100:88|163:114,1,134.999995880127,2|2,3:2|0:2,0:0:0:0:
221,186,90254,1,10,0:2:0:0:
221,186,90428,2,0,L|202:268,2,67.4999979400635,2|2|2,3:2|3:2|3:2,0:0:0:0:
291,112,90948,2,0,P|346:103|394:132,1,101.249996910095,10|0,0:2|0:0,0:0:0:0:
431,143,91295,6,0,B|456:216|400:206|423:296,2,134.999995880127,2|8|2,3:2|0:2|3:2,0:0:0:0:
485,57,92162,1,2,0:2:0:0:
485,57,92335,1,10,0:2:0:0:
392,17,92509,2,0,L|323:31,1,67.4999979400635,2|0,3:2|0:0,0:0:0:0:
274,119,92856,1,2,3:2:0:0:
274,119,93029,1,10,0:2:0:0:
181,159,93203,2,0,L|112:145,1,67.4999979400635,2|2,3:2|3:2,0:0:0:0:
38,79,93549,1,2,3:2:0:0:
0,173,93723,2,0,P|24:237|31:297,1,101.249996910095,10|0,0:2|0:0,0:0:0:0:
21,317,94069,6,0,L|109:330,1,67.4999979400635,4|0,3:2|0:0,0:0:0:0:
181,369,94416,2,0,L|268:356,1,67.4999979400635,8|0,0:2|0:0,0:0:0:0:
294,269,94763,2,0,L|381:281,1,67.4999979400635,2|0,3:2|0:0,0:0:0:0:
447,330,95110,1,10,0:2:0:0:
496,242,95283,2,0,P|507:180|444:115,1,134.999995880127,2|2,3:2|3:2,0:0:0:0:
391,55,95804,1,10,0:2:0:0:
323,130,95977,2,0,L|350:212,1,67.4999979400635,2|2,3:2|3:2,0:0:0:0:
273,267,96324,2,0,L|251:331,1,67.4999979400635,2|10,3:2|0:2,0:0:0:0:
159,372,96671,1,2,0:2:0:0:
75,309,96844,6,0,L|53:164,2,134.999995880127,2|8|0,3:2|0:2|3:2,0:0:0:0:
159,372,97711,1,0,3:2:0:0:
240,312,97885,2,0,P|276:305|326:330,1,67.4999979400635,10|2,0:2|3:2,0:0:0:0:
397,353,98231,1,8,0:2:0:0:
397,353,98405,1,8,0:2:0:0:
467,280,98578,1,8,0:2:0:0:
416,191,98752,1,8,0:2:0:0:
281,40,99098,2,0,L|251:0,2,33.7499989700318,2|0|8,3:2|3:2|0:2,0:0:0:0:
283,149,99445,1,2,3:2:0:0:
283,149,99532,1,0,3:2:0:0:
283,149,99619,5,0,3:2:0:0:
256,192,99705,12,0,102046,0:0:0:0:
72,218,102393,6,0,B|98:311|26:276|63:380,2,157.499995193482,2|2|2,3:2|3:2|3:2,0:0:0:0:
26,149,103607,1,2,0:2:0:0:
140,40,103954,2,0,L|133:10,2,26.2499991989136,0|0|0,3:2|3:2|3:2,0:0:0:0:
202,87,104301,1,0,3:2:0:0:
160,153,104474,2,0,L|176:205,1,52.4999983978272,2|2,3:3|0:3,0:0:0:0:
230,260,104821,2,0,L|269:202,1,52.4999983978272,2|2,3:3|0:3,0:0:0:0:
314,160,105168,6,0,P|345:153|437:240,2,157.499995193482,2|2|2,3:2|3:2|3:2,0:0:0:0:
254,108,106382,1,2,0:2:0:0:
106,55,106728,2,0,L|101:15,2,26.2499991989136,0|0|0,3:2|3:2|3:2,0:0:0:0:
60,119,107075,1,0,3:2:0:0:
121,168,107249,2,0,L|192:152,1,52.4999983978272,2|2,3:3|0:3,0:0:0:0:
215,90,107595,2,0,L|286:106,1,52.4999983978272,2|2,3:3|0:3,0:0:0:0:
335,139,107942,6,0,B|357:221|357:221|313:297,2,157.499995193482,2|2|2,3:2|3:2|3:2,0:0:0:0:
371,69,109156,1,2,0:2:0:0:
469,192,109503,2,0,L|507:183,2,26.2499991989136,0|0|0,3:2|3:2|3:2,0:0:0:0:
437,264,109850,1,0,3:2:0:0:
388,325,110023,2,0,L|323:350,1,52.4999983978272,2|2,3:3|0:3,0:0:0:0:
266,375,110370,2,0,L|201:350,1,52.4999983978272,2|2,3:3|0:3,0:0:0:0:
148,316,110717,6,0,P|86:306|28:392,2,157.499995193482,6|0|2,3:2|0:0|0:2,0:0:0:0:
194,251,111931,1,2,3:2:0:0:
130,204,112104,2,0,L|145:147,1,52.4999983978272,2|0,0:2|3:2,0:0:0:0:
193,92,112451,1,2,0:2:0:0:
129,46,112624,2,0,L|67:71,1,52.4999983978272,2|2,3:2|3:2,0:0:0:0:
27,124,112971,1,2,3:2:0:0:
27,124,113145,1,2,3:2:0:0:
65,192,113318,1,0,0:0:0:0:
23,265,113491,6,0,P|126:310|203:235,1,225.000008583069,2|0,0:0|0:0,0:0:0:0:
470,38,114879,2,0,P|456:135|445:277,1,225.000008583069,0|2,1:0|0:0,0:0:0:0:
175,59,116266,6,0,P|272:50|274:153,1,225.000008583069,2|0,1:2|0:0,0:0:0:0:
462,338,117653,2,0,B|355:283|346:386|243:374,1,225.000008583069,0|0,1:2|0:0,0:0:0:0:
58,97,119041,6,0,B|145:121|145:121|181:163|181:163|277:197,1,225.000008583069,2|0,1:2|0:0,0:0:0:0:
484,134,120428,2,0,P|452:44|338:47,1,225.000008583069,2|2,1:2|0:0,0:0:0:0:
98,361,121815,2,0,B|155:251|36:279|123:125,1,225.000008583069,2|0,1:2|0:0,0:0:0:0:
392,329,123202,2,0,P|429:336|464:349,2,56.2500021457673,0|0|0,3:2|3:2|3:2,0:0:0:0:
318,285,123723,1,0,3:2:0:0:
163,351,124069,1,0,1:2:0:0:
163,351,124243,2,0,L|139:288,1,56.2500021457673,0|0,1:2|0:0,0:0:0:0:
67,239,124590,6,0,L|91:176,1,63.7500012159348,2|0,3:2|0:0,0:0:0:0:
133,94,124937,1,0,3:2:0:0:
201,159,125110,2,0,L|274:151,1,63.7500012159348,2|0,0:2|3:2,0:0:0:0:
330,82,125457,1,2,0:2:0:0:
330,82,125630,1,0,3:2:0:0:
413,129,125804,1,2,0:2:0:0:
496,82,125977,2,0,P|480:137|467:234,1,127.50000243187,2|0,3:2|3:2,0:0:0:0:
360,364,126671,2,0,P|350:301|332:239,1,127.50000243187,2|0,3:2|3:2,0:0:0:0:
185,117,127364,6,0,L|196:50,2,63.7500012159348,2|2|0,3:2|0:2|3:2,0:0:0:0:
129,196,127885,1,2,0:2:0:0:
129,196,128058,2,0,L|148:272,1,63.7500012159348,2|0,3:2|0:0,0:0:0:0:
216,320,128405,2,0,L|235:244,1,63.7500012159348,0|0,3:2|0:0,0:0:0:0:
308,201,128752,2,0,P|343:202|381:222,2,63.7500012159348,2|2|2,3:2|0:2|3:2,0:0:0:0:
264,115,129272,1,2,0:2:0:0:
264,115,129445,2,0,L|300:45,1,63.7500012159348,2|0,3:2|0:0,0:0:0:0:
384,29,129792,2,0,P|403:64|406:101,1,63.7500012159348,0|0,3:2|0:0,0:0:0:0:
472,157,130139,6,0,B|486:226|486:226|457:302,1,127.50000243187,2|0,3:2|3:2,0:0:0:0:
384,330,130659,2,0,B|370:261|370:261|390:207,1,127.50000243187,2|0,0:2|0:0,0:0:0:0:
334,129,131179,2,0,L|256:149,1,63.7500012159348,2|0,3:2|0:0,0:0:0:0:
213,220,131526,2,0,B|145:234|145:234|77:201,2,127.50000243187,2|2|2,3:2|3:2|3:2,0:0:0:0:
152,37,132567,1,2,3:2:0:0:
14,169,132913,1,2,3:2:0:0:
256,192,133000,12,12,134994,3:2:0:0:
27,74,135688,6,0,B|131:42|96:131|210:97,1,165.000005035401,6|10,3:2|0:0,0:0:0:0:
290,42,136208,2,0,P|248:17|181:22,1,82.5000025177003,2|0,0:0|3:2,0:0:0:0:
272,123,136555,2,0,L|365:110,1,82.5000025177003,2|8,3:2|0:0,0:0:0:0:
461,183,136902,6,0,P|460:120|492:15,2,165.000005035401,2|2|2,3:2|3:2|0:2,0:0:0:0:
492,303,137768,1,0,3:2:0:0:
368,290,137942,2,0,L|275:306,1,82.5000025177003,2|8,3:2|0:0,0:0:0:0:
344,194,138289,1,2,3:2:0:0:
232,144,138462,6,0,P|153:127|117:212,1,165.000005035401,2|10,3:2|0:0,0:0:0:0:
150,307,138982,2,0,P|187:295|250:287,1,82.5000025177003,2|0,0:0|3:2,0:0:0:0:
343,237,139330,2,0,P|300:230|259:217,1,82.5000025177003,2|8,3:2|0:0,0:0:0:0:
235,98,139676,1,2,3:2:0:0:
329,18,139850,6,0,B|377:67|377:67|346:168,1,165.000005035401,2|8,3:2|0:0,0:0:0:0:
428,255,140370,1,2,0:0:0:0:
346,347,140543,2,0,B|260:372|260:372|168:327,1,165.000005035401,0|8,3:2|0:0,0:0:0:0:
104,250,141063,1,2,3:2:0:0:
24,345,141237,6,0,P|39:232|42:152,1,165.000005035401,2|8,3:2|0:2,0:0:0:0:
31,57,141757,1,2,0:2:0:0:
146,101,141930,2,0,L|254:115,1,82.5000025177003,2|2,3:2|3:2,0:0:0:0:
318,197,142278,2,0,L|232:208,1,82.5000025177003,10|0,0:2|3:2,0:0:0:0:
315,112,142624,6,0,P|391:120|431:217,1,165.000005035401,2|10,3:2|0:2,0:0:0:0:
407,312,143144,2,0,P|364:331|321:323,1,82.5000025177003,2|0,0:2|3:2,0:0:0:0:
255,227,143491,2,0,P|297:222|335:240,1,82.5000025177003,2|8,3:2|0:2,0:0:0:0:
241,322,143838,1,2,3:2:0:0:
143,245,144011,6,0,L|129:144,1,82.5000025177003,2|2,3:2|0:2,0:0:0:0:
223,80,144358,2,0,L|209:181,1,82.5000025177003,8|0,0:2|0:0,0:0:0:0:
144,63,144705,1,2,3:2:0:0:
144,63,144879,2,0,P|207:4|295:47,1,165.000005035401,2|2,3:2|3:2,0:0:0:0:
338,136,145399,5,10,0:2:0:0:
338,136,145572,1,10,0:2:0:0:
451,87,145745,1,10,0:2:0:0:
355,7,145919,1,10,0:2:0:0:
473,236,146266,1,2,3:2:0:0:
473,236,146352,1,0,3:2:0:0:
473,236,146439,2,0,P|416:248|365:269,1,82.5000025177003,8|2,0:2|3:2,0:0:0:0:
372,277,146700,1,0,3:2:0:0:
372,277,146786,6,0,B|327:288|327:288|275:267,1,82.5000025177003,6|0,3:2|0:0,0:0:0:0:
173,243,147133,1,10,0:0:0:0:
232,134,147306,2,0,L|327:157,1,82.5000025177003,2|0,0:0|3:2,0:0:0:0:
428,198,147653,2,0,L|523:175,1,82.5000025177003,2|8,3:2|0:0,0:0:0:0:
418,92,148000,6,0,P|364:23|270:33,2,165.000005035401,2|2|2,3:2|3:2|3:2,0:0:0:0:
328,177,148867,1,0,3:2:0:0:
328,177,149040,2,0,L|222:160,1,82.5000025177003,2|8,3:2|0:0,0:0:0:0:
170,65,149387,1,2,3:2:0:0:
62,126,149561,6,0,P|72:182|82:313,1,165.000005035401,2|10,3:2|0:0,0:0:0:0:
184,360,150081,2,0,B|231:364|231:364|275:341,1,82.5000025177003,2|0,0:0|3:2,0:0:0:0:
345,256,150427,2,0,L|259:242,1,82.5000025177003,2|8,3:2|0:0,0:0:0:0:
345,335,150774,1,2,3:2:0:0:
469,332,150948,6,0,B|504:258|504:258|466:161,1,165.000005035401,2|8,3:2|0:0,0:0:0:0:
435,62,151468,1,2,3:2:0:0:
366,164,151641,2,0,L|276:190,1,82.5000025177003,2|0,3:2|3:0,0:0:0:0:
171,233,151988,2,0,L|255:258,1,82.5000025177003,8|0,0:2|3:0,0:0:0:0:
203,141,152335,6,0,P|239:77|358:81,2,165.000005035401,6|10|2,3:2|0:2|3:2,0:0:0:0:
93,199,153202,1,0,3:2:0:0:
29,99,153375,1,10,0:2:0:0:
29,99,153549,2,0,B|73:105|73:105|118:85,1,82.5000025177003,10|0,0:2|0:0,0:0:0:0:
208,16,153896,1,10,0:2:0:0:
203,141,154069,1,10,0:2:0:0:
372,36,154590,6,0,L|469:55,2,82.5000025177003,2|8|0,3:2|0:3|1:0,0:0:0:0:
357,74,155023,1,0,1:0:0:0:
357,74,155110,6,0,P|369:146|376:230,1,150,4|0,3:2|0:0,0:0:0:0:
362,334,155630,2,0,P|317:286|213:316,1,150,8|0,0:0|0:0,0:0:0:0:
146,359,156150,1,8,0:0:0:0:
146,359,156324,1,8,0:0:0:0:
6,182,156671,1,8,0:0:0:0:
221,118,157017,1,8,0:0:0:0:
71,286,157364,1,8,0:0:0:0:
71,286,157538,1,8,0:0:0:0:
45,107,157885,6,0,B|186:58|136:186|284:133,1,240,4|0,3:2|3:0,0:0:0:0:
333,74,158752,1,2,3:2:0:0:
333,74,158925,1,2,3:2:0:0:
469,191,159272,2,0,P|462:252|461:324,2,120,0|2|0,3:2|3:2|3:2,0:0:0:0:
498,105,160139,1,2,3:2:0:0:
498,105,160312,1,2,0:2:0:0:
358,218,160659,6,0,P|280:283|172:209,1,240,2|0,3:2|3:2,0:0:0:0:
193,130,161526,1,0,3:2:0:0:
193,130,161700,1,0,3:2:0:0:
34,214,162046,2,0,L|51:346,2,120,0|0|0,3:2|3:2|3:2,0:0:0:0:
82,137,162913,1,0,3:2:0:0:
82,137,163087,1,0,3:2:0:0:
32,62,163260,1,0,1:2:0:0:
119,40,163434,6,0,B|207:25|207:25|271:80|271:80|356:69,1,240,6|0,3:2|3:0,0:0:0:0:
410,132,164301,1,2,3:2:0:0:
404,221,164474,2,0,P|375:268|303:268,1,120,2|0,3:2|3:2,0:0:0:0:
231,239,164994,2,0,L|217:156,2,60,2|2|2,0:2|3:2|0:2,0:0:0:0:
157,292,165515,1,0,3:2:0:0:
92,229,165688,2,0,P|76:196|76:150,1,60,2|2,3:2|0:2,0:0:0:0:
124,100,166035,1,2,0:2:0:0:
124,100,166208,6,0,P|186:71|243:97,1,120,2|2,3:2|3:2,0:0:0:0:
303,141,166728,1,2,0:2:0:0:
303,141,166902,1,0,3:2:0:0:
359,71,167075,2,0,P|387:66|421:76,1,60,0|0,3:2|3:2,0:0:0:0:
500,115,167422,1,0,0:0:0:0:
452,191,167595,2,0,P|441:262|439:332,1,120,0|0,3:2|3:2,0:0:0:0:
371,370,168116,1,2,0:2:0:0:
371,370,168289,2,0,P|338:356|297:348,1,60,0|2,3:2|0:2,0:0:0:0:
262,276,168636,2,0,P|229:290|188:298,1,60,0|2,3:2|0:2,0:0:0:0:
113,339,168983,6,0,P|61:318|77:241,1,134.999995880127,0|0,3:2|3:2,0:0:0:0:
143,181,169503,1,2,0:2:0:0:
143,181,169850,2,0,L|230:167,1,67.4999979400635,2|2,0:2|3:2,0:0:0:0:
145,91,170197,1,2,0:2:0:0:
56,140,170370,2,0,B|27:182|27:182|45:277,1,134.999995880127,0|0,3:2|3:2,0:0:0:0:
83,357,170890,1,0,1:2:0:0:
176,316,171064,2,0,P|212:318|251:334,1,67.4999979400635,0|0,3:2|1:2,0:0:0:0:
337,360,171411,2,0,P|373:358|412:342,1,67.4999979400635,0|0,3:2|0:0,0:0:0:0:
464,268,171757,6,0,B|493:202|493:202|475:109,1,134.999995880127,2|2,3:2|3:2,0:0:0:0:
411,65,172278,1,2,0:2:0:0:
411,65,172624,2,0,L|343:52,1,67.4999979400635,2|2,0:2|3:2,0:0:0:0:
259,107,172971,1,2,0:2:0:0:
157,96,173145,2,0,P|134:43|40:58,1,134.999995880127,2|0,3:2|3:2,0:0:0:0:
22,133,173665,1,8,0:2:0:0:
22,133,173752,1,8,0:2:0:0:
22,133,173838,2,0,L|42:207,1,67.4999979400635,8|8,0:2|0:2,0:0:0:0:
20,298,174185,1,8,0:2:0:0:
20,298,174358,1,8,0:3:0:0:
125,352,174532,6,0,B|183:375|183:375|265:347,1,118.124996395111,6|0,3:2|0:0,0:0:0:0:
261,342,174879,2,0,L|227:249,1,78.7499975967408,8|0,0:2|0:0,0:0:0:0:
230,149,175226,2,0,B|287:108|307:184|389:169,1,157.499995193482,2|8,3:2|0:2,0:0:0:0:
472,241,175746,1,0,3:2:0:0:
431,351,175919,6,0,P|348:350|323:316,1,118.124996395111,2|0,3:2|0:0,0:0:0:0:
303,290,176266,2,0,P|337:292|369:329,1,78.7499975967408,8|0,0:2|3:2,0:0:0:0:
257,368,176613,2,0,L|166:355,1,78.7499975967408,2|0,3:2|3:2,0:0:0:0:
84,285,176960,2,0,L|161:273,1,78.7499975967408,10|0,0:2|3:2,0:0:0:0:
233,180,177306,6,0,B|300:193|300:193|332:217|332:217|403:230,1,157.499995193482,2|10,3:2|0:2,0:0:0:0:
470,147,177827,2,0,L|441:60,1,78.7499975967408,2|0,0:2|3:2,0:0:0:0:
342,12,178174,2,0,L|313:99,1,78.7499975967408,2|8,3:2|0:2,0:0:0:0:
228,8,178520,1,2,0:2:0:0:
185,117,178694,6,0,B|85:137|85:137|40:104,1,157.499995193482,0|8,3:2|0:2,0:0:0:0:
122,19,179214,1,0,3:2:0:0:
41,105,179387,2,0,P|16:139|15:192,1,78.7499975967408,0|0,3:2|3:2,0:0:0:0:
95,270,179734,1,8,0:2:0:0:
95,270,179908,1,0,3:2:0:0:
160,171,180081,6,0,B|234:144|200:204|297:179,1,118.124996395111,6|0,3:2|0:0,0:0:0:0:
308,182,180428,2,0,P|316:227|296:276,1,78.7499975967408,8|0,0:2|0:0,0:0:0:0:
215,333,180775,2,0,P|206:294|214:256,1,78.7499975967408,2|0,3:2|3:2,0:0:0:0:
152,155,181122,1,8,0:2:0:0:
226,63,181295,1,0,3:2:0:0:
331,105,181468,6,0,P|415:120|461:67,1,157.499995193482,2|8,3:2|0:2,0:0:0:0:
360,5,181989,1,0,3:2:0:0:
459,72,182162,2,0,P|482:103|483:146,1,78.7499975967408,2|0,3:2|3:2,0:0:0:0:
383,202,182509,2,0,L|394:279,1,78.7499975967408,10|0,0:2|3:2,0:0:0:0:
503,372,182856,6,0,L|478:210,1,157.499995193482,2|10,3:2|0:2,0:0:0:0:
440,109,183376,2,0,P|398:100|348:132,1,78.7499975967408,2|0,0:2|3:2,0:0:0:0:
271,183,183723,2,0,P|229:192|179:160,1,78.7499975967408,2|8,3:2|0:2,0:0:0:0:
118,91,184069,1,2,0:2:0:0:
118,91,184243,5,8,0:2:0:0:
26,165,184416,1,8,0:2:0:0:
104,254,184590,1,8,0:2:0:0:
26,342,184763,1,8,3:2:0:0:
254,266,185110,1,0,3:2:0:0:
254,266,185197,1,0,3:2:0:0:
254,266,185283,2,0,P|321:292|328:358,1,118.124996395111,8|0,0:2|3:2,0:0:0:0:
313,364,185630,6,0,P|241:376|202:323,1,118.124996395111,6|0,3:2|0:0,0:0:0:0:
186,318,185977,2,0,L|164:235,1,78.7499975967408,8|0,0:2|0:0,0:0:0:0:
84,155,186324,1,2,3:2:0:0:
84,155,186497,1,0,3:2:0:0:
172,76,186671,2,0,L|270:80,1,78.7499975967408,8|0,0:2|0:0,0:0:0:0:
359,34,187017,6,0,B|397:73|397:73|376:204,1,157.499995193482,2|8,3:2|0:2,0:0:0:0:
295,257,187538,1,0,0:0:0:0:
198,189,187711,2,0,P|193:146|215:101,1,78.7499975967408,2|0,3:2|3:2,0:0:0:0:
308,55,188058,2,0,P|313:98|291:143,1,78.7499975967408,10|0,0:2|0:0,0:0:0:0:
226,38,188405,6,0,B|141:20|141:20|64:60,1,157.499995193482,2|10,3:2|0:2,0:0:0:0:
11,150,188925,2,0,L|28:234,1,78.7499975967408,2|0,0:2|3:2,0:0:0:0:
145,261,189272,1,2,3:2:0:0:
145,261,189445,1,8,0:2:0:0:
202,157,189619,6,0,B|267:173|267:173|295:202|295:202|352:220,1,157.499995193482,2|0,0:2|3:2,0:0:0:0:
419,309,190139,2,0,P|381:339|329:336,1,78.7499975967408,8|0,0:2|3:2,0:0:0:0:
255,272,190486,2,0,P|206:277|172:316,1,78.7499975967408,0|0,3:2|3:2,0:0:0:0:
99,377,190832,1,8,0:2:0:0:
15,293,191006,1,0,3:2:0:0:
93,205,191179,6,0,B|95:123|95:123|71:90,1,118.124996395111,6|0,3:2|0:0,0:0:0:0:
58,60,191526,2,0,P|96:44|148:59,1,78.7499975967408,8|0,0:2|0:0,0:0:0:0:
205,142,191873,2,0,L|311:120,1,78.7499975967408,2|0,3:2|3:2,0:0:0:0:
377,55,192220,1,8,0:2:0:0:
377,55,192393,1,0,3:2:0:0:
460,138,192567,6,0,P|482:217|420:264,1,157.499995193482,2|8,3:2|0:2,0:0:0:0:
314,247,193087,1,0,3:2:0:0:
314,247,193260,2,0,L|295:153,1,78.7499975967408,2|0,3:2|3:2,0:0:0:0:
212,88,193607,2,0,L|193:182,1,78.7499975967408,10|0,0:2|3:2,0:0:0:0:
206,283,193954,6,0,P|132:307|77:224,1,157.499995193482,6|10,3:2|0:2,0:0:0:0:
21,154,194474,1,10,0:2:0:0:
19,374,194821,1,10,0:2:0:0:
170,192,195168,2,0,P|253:165|310:229,1,157.499995193482,6|0,3:2|3:2,0:0:0:0:
373,297,195688,1,0,3:2:0:0:
373,297,196035,2,0,L|286:325,1,78.7499975967408,8|8,0:3|0:3,0:0:0:0:
179,311,196382,1,8,0:3:0:0:
99,224,196555,1,0,3:2:0:0:
173,95,196728,5,2,0:0:0:0:
134,98,202278,6,0,L|29:98,2,104.999996795654,2|0|2,3:2|3:0|3:2,0:0:0:0:
257,195,203318,1,0,3:0:0:0:
378,98,203665,2,0,L|487:98,2,104.999996795654,2|0|2,3:2|3:0|3:2,0:0:0:0:
257,195,204705,1,0,3:0:0:0:
377,296,205052,2,0,L|484:296,2,104.999996795654,2|0|2,3:2|3:0|3:2,0:0:0:0:
257,195,206093,1,0,3:0:0:0:
135,296,206439,2,0,L|23:296,2,104.999996795654,2|0|0,3:2|3:0|3:2,0:0:0:0:
257,195,207480,1,0,3:0:0:0:
155,74,207827,6,0,P|105:73|65:111,1,104.999996795654,2|0,3:2|3:0,0:0:0:0:
110,180,208347,1,0,0:0:0:0:
110,180,208520,2,0,L|97:244,1,52.4999983978272,2|0,3:2|0:0,0:0:0:0:
27,264,208867,2,0,L|37:315,1,52.4999983978272,0|0,3:0|0:0,0:0:0:0:
97,366,209214,2,0,P|152:380|200:348,1,104.999996795654,2|0,3:2|3:0,0:0:0:0:
266,326,209734,1,0,0:0:0:0:
266,326,209907,2,0,L|279:262,1,52.4999983978272,2|0,3:2|0:0,0:0:0:0:
346,237,210254,2,0,L|335:185,1,52.4999983978272,0|0,3:0|0:0,0:0:0:0:
335,106,210601,6,0,B|390:104|390:104|436:139,1,104.999996795654,2|0,3:2|3:0,0:0:0:0:
488,202,211122,1,0,0:0:0:0:
488,202,211295,2,0,P|488:236|464:271,1,52.4999983978272,2|0,3:2|0:0,0:0:0:0:
412,296,211642,2,0,P|378:296|343:272,1,52.4999983978272,0|0,3:0|0:0,0:0:0:0:
308,230,211989,2,0,L|192:250,2,104.999996795654,2|0|0,3:2|3:0|3:2,0:0:0:0:
223,96,213029,1,0,3:0:0:0:
67,122,213376,6,0,L|49:63,2,52.4999983978272,2|0|0,3:2|3:0|3:0,0:0:0:0:
120,179,213896,1,2,3:2:0:0:
85,249,214069,1,0,3:0:0:0:
227,316,214416,2,0,L|209:375,2,52.4999983978272,2|0|0,3:2|3:0|3:0,0:0:0:0:
280,259,214936,1,2,3:2:0:0:
245,189,215109,1,0,3:0:0:0:
329,55,215457,2,0,P|377:41|436:66,1,104.999996795654,2|2,3:2|3:2,0:0:0:0:
488,228,216150,6,0,P|435:243|370:215,1,120,6|2,3:2|3:2,0:0:0:0:
294,180,216671,2,0,L|278:102,1,60,2|0,0:2|3:2,0:0:0:0:
204,76,217017,2,0,L|188:154,1,60,2|0,0:2|3:2,0:0:0:0:
151,215,217364,2,0,P|89:228|38:177,1,120,2|0,0:2|0:0,0:0:0:0:
53,105,217885,1,0,3:2:0:0:
53,105,218231,2,0,L|141:97,1,60,2|0,3:2|0:0,0:0:0:0:
179,39,218578,2,0,L|267:47,1,60,0|0,3:2|0:0,0:0:0:0:
317,88,218925,6,0,P|297:142|291:220,1,120,0|2,3:2|3:2,0:0:0:0:
356,265,219445,2,0,P|399:267|435:243,1,60,2|0,0:2|3:2,0:0:0:0:
477,196,219792,2,0,P|479:153|455:117,1,60,2|0,0:2|3:2,0:0:0:0:
409,74,220139,2,0,B|203:38|325:155|121:146,1,300,2|0,0:2|3:2,0:0:0:0:
6,19,221353,1,0,3:2:0:0:
48,98,221526,1,0,3:2:0:0:
19,183,221700,6,0,B|29:243|29:243|27:258|27:258|39:310,1,120,2|0,3:2|3:2,0:0:0:0:
113,349,222220,2,0,P|143:351|176:338,1,60,2|0,0:2|3:2,0:0:0:0:
210,260,222567,2,0,P|240:258|273:271,1,60,2|0,0:2|3:2,0:0:0:0:
346,310,222913,1,2,0:2:0:0:
346,310,223087,2,0,B|366:273|366:273|351:192,1,120,0|0,3:2|3:2,0:0:0:0:
236,58,223780,2,0,B|216:95|216:95|231:176,1,120,2|0,3:2|3:2,0:0:0:0:
357,43,224474,6,0,P|431:42|464:83,1,120,2|2,3:2|3:2,0:0:0:0:
450,162,224994,2,0,L|431:236,1,60,2|0,3:2|3:2,0:0:0:0:
378,290,225341,2,0,L|400:369,2,60,2|0|0,3:2|3:2|0:0,0:0:0:0:
316,223,225861,1,8,3:3:0:0:
316,223,226208,1,8,3:3:0:0:
247,281,226382,1,4,3:3:0:0:
58,338,237480,6,0,L|8:355,2,31.8750006079674,0|0|0,3:0|3:0|3:0,0:0:0:0:
129,274,237827,1,2,0:0:0:0:
129,274,238000,2,0,L|189:295,1,48.7499977684022,0|2,3:0|0:0,0:0:0:0:
252,346,238347,6,0,P|282:348|318:331,1,63.7500012159348,0|0,3:0|0:0,0:0:0:0:
331,241,238694,2,0,P|301:239|265:256,1,63.7500012159348,2|2,3:2|2:0,0:0:0:0:
179,222,239041,2,0,P|147:223|118:211,1,63.7500012159348,0|2,3:2|2:0,0:0:0:0:
99,117,239388,2,0,P|130:115|160:128,1,63.7500012159348,0|2,3:2|2:0,0:0:0:0:
255,133,239734,2,0,L|241:47,1,63.7500012159348,0|2,3:2|2:0,0:0:0:0:
328,24,240081,2,0,L|338:86,1,63.7500012159348,0|2,3:2|2:0,0:0:0:0:
427,120,240428,1,0,3:2:0:0:
507,51,240601,2,0,P|500:124|493:189,1,127.50000243187,2|2,2:0|2:0,0:0:0:0:
509,218,241035,1,2,0:0:0:0:
509,218,241122,6,0,P|455:252|390:235,1,127.50000243187,2|2,3:2|3:2,0:0:0:0:
319,180,241642,2,0,L|236:225,1,63.7500012159348,2|0,3:2|0:0,0:0:0:0:
222,297,241989,1,2,3:2:0:0:
222,297,242162,2,0,L|139:252,1,63.7500012159348,0|2,3:2|2:0,0:0:0:0:
82,313,242509,2,0,L|214:385,1,127.50000243187,2|0,3:2|3:2,0:0:0:0:
289,364,243029,1,2,2:0:0:0:
289,364,243202,2,0,P|318:376|368:355,1,63.7500012159348,2|0,3:2|0:0,0:0:0:0:
391,284,243549,2,0,P|420:272|470:293,1,63.7500012159348,0|0,3:2|0:0,0:0:0:0:
494,363,243896,5,2,3:2:0:0:
334,258,244243,1,2,3:2:0:0:
470,123,244590,1,2,3:2:0:0:
302,31,244937,1,2,3:2:0:0:
302,31,245110,2,0,L|233:51,1,63.7500012159348,2|0,3:2|0:0,0:0:0:0:
202,138,245457,1,2,3:2:0:0:
202,138,245630,2,0,L|133:118,1,63.7500012159348,2|2,3:2|3:2,0:0:0:0:
90,38,245977,2,0,L|21:58,1,63.7500012159348,2|2,0:2|3:2,0:0:0:0:
50,149,246324,1,0,0:0:0:0:
214,247,246671,6,0,P|248:253|341:268,2,127.50000243187,2|2|2,0:3|0:3|0:3,0:0:0:0:
214,247,247711,1,2,0:3:0:0:
418,45,248231,1,8,0:0:0:0:
418,45,248405,2,0,P|409:109|405:178,1,127.50000243187,8|12,0:0|3:2,0:0:0:0:
307,336,249098,5,10,0:2:0:0:
307,336,249185,1,8,0:2:0:0:
307,336,249272,1,10,0:2:0:0:
307,336,249358,1,8,0:2:0:0:
307,336,249445,6,0,B|222:371|222:371|131:326,1,165.000005035401,6|10,3:2|0:0,0:0:0:0:
49,274,249965,2,0,P|42:321|64:371,1,82.5000025177003,2|0,0:0|3:2,0:0:0:0:
135,261,250312,2,0,P|142:214|120:164,1,82.5000025177003,2|8,3:2|0:0,0:0:0:0:
25,117,250659,1,2,3:2:0:0:
25,117,250832,5,0,0:0:0:0:
104,21,251006,2,0,L|204:43,1,82.5000025177003,2|8,3:2|0:0,0:0:0:0:
287,108,251353,2,0,L|206:125,1,82.5000025177003,2|0,0:2|3:2,0:0:0:0:
119,214,251700,2,0,L|199:231,1,82.5000025177003,2|8,3:2|0:0,0:0:0:0:
320,254,252046,1,2,3:2:0:0:
410,170,252220,6,0,B|430:125|395:91|395:91|337:94|323:147,1,165.000005035401,2|10,3:2|0:0,0:0:0:0:
250,32,252739,2,0,P|199:31|157:67,1,82.5000025177003,2|0,0:0|3:2,0:0:0:0:
90,139,253087,2,0,L|65:36,1,82.5000025177003,2|8,3:2|0:0,0:0:0:0:
173,126,253433,1,2,3:2:0:0:
103,228,253607,6,0,P|157:278|249:230,1,165.000005035401,2|8,3:2|0:0,0:0:0:0:
338,179,254127,1,2,0:0:0:0:
240,103,254301,2,0,B|136:88|136:88|124:128|87:148,1,165.000005035401,0|8,3:2|0:0,0:0:0:0:
18,46,254820,1,2,3:2:0:0:
4,169,254994,6,0,B|9:232|9:232|39:279|39:279|28:362,1,165.000005035401,2|8,3:2|0:2,0:0:0:0:
156,345,255514,1,2,0:2:0:0:
235,250,255687,2,0,B|279:240|279:240|343:264,1,82.5000025177003,2|2,3:2|3:2,0:0:0:0:
428,315,256035,1,10,0:2:0:0:
428,315,256208,1,0,3:2:0:0:
476,201,256381,6,0,B|494:107|494:107|422:42,1,165.000005035401,2|10,3:2|0:2,0:0:0:0:
320,81,256901,2,0,P|317:34|340:-3,1,82.5000025177003,2|0,3:2|3:2,0:0:0:0:
389,115,257249,2,0,P|391:161|368:199,1,82.5000025177003,2|8,3:2|0:2,0:0:0:0:
251,207,257595,1,2,3:2:0:0:
336,296,257768,6,0,L|352:391,1,82.5000025177003,2|2,3:2|0:2,0:0:0:0:
224,379,258116,2,0,L|208:284,1,82.5000025177003,8|0,0:2|0:0,0:0:0:0:
113,221,258462,1,2,3:2:0:0:
200,134,258636,2,0,B|292:108|277:193|379:156,1,165.000005035401,2|2,3:2|3:2,0:0:0:0:
484,166,259156,5,10,0:2:0:0:
484,166,259329,1,10,0:2:0:0:
427,56,259502,1,10,0:2:0:0:
307,23,259676,1,10,0:2:0:0:
97,149,260023,1,2,3:2:0:0:
97,149,260109,1,0,3:2:0:0:
97,149,260196,2,0,P|107:199|111:264,1,82.5000025177003,8|2,0:2|3:2,0:0:0:0:
143,259,260457,1,0,3:2:0:0:
143,259,260543,6,0,P|133:309|129:374,1,82.5000025177003,6|0,3:2|0:0,0:0:0:0:
9,372,260890,1,10,0:0:0:0:
0,248,261063,2,0,L|15:156,1,82.5000025177003,2|0,0:0|3:2,0:0:0:0:
87,67,261411,2,0,L|98:159,1,82.5000025177003,2|8,3:2|0:0,0:0:0:0:
1,70,261757,6,0,P|51:-2|149:11,2,165.000005035401,2|2|2,3:2|3:2|0:2,0:0:0:0:
101,152,262624,1,0,3:2:0:0:
101,152,262797,2,0,L|207:135,1,82.5000025177003,2|8,3:2|0:0,0:0:0:0:
296,187,263144,1,2,3:2:0:0:
371,89,263318,6,0,B|416:132|416:132|403:260,1,165.000005035401,2|10,3:2|0:0,0:0:0:0:
337,336,263838,2,0,P|292:342|251:322,1,82.5000025177003,2|0,0:0|3:2,0:0:0:0:
272,187,264185,2,0,P|299:222|302:268,1,82.5000025177003,2|8,3:2|0:0,0:0:0:0:
181,254,264531,1,2,3:2:0:0:
197,130,264705,6,0,B|243:121|274:99|274:99|305:125|351:129,1,165.000005035401,2|8,3:2|0:0,0:0:0:0:
442,46,265225,1,2,3:2:0:0:
318,38,265398,2,0,P|273:21|223:44,1,82.5000025177003,2|0,3:2|3:0,0:0:0:0:
128,80,265745,2,0,L|27:64,1,82.5000025177003,8|0,0:2|3:0,0:0:0:0:
76,187,266092,6,0,B|39:216|41:252|41:252|66:299|37:344,2,165.000005035401,6|10|2,3:2|0:2|3:2,0:0:0:0:
148,287,266959,1,0,3:2:0:0:
247,214,267132,1,10,0:2:0:0:
247,214,267306,2,0,B|291:220|291:220|336:200,1,75,10|0,0:2|0:0,0:0:0:0:
433,156,267653,1,10,0:2:0:0:
438,276,267826,1,10,0:2:0:0:
150,99,268347,6,0,P|108:117|57:128,2,75,2|10|2,3:2|0:3|1:2,0:0:0:0:
189,79,268780,1,0,1:0:0:0:
189,79,268867,6,0,P|261:91|345:98,1,150,4|2,3:2|3:2,0:0:0:0:
485,263,269561,1,0,3:2:0:0:
260,276,269908,1,0,3:2:0:0:
416,114,270254,1,0,3:2:0:0:
403,341,270601,1,0,3:2:0:0:
368,233,270775,1,0,3:2:0:0:
326,128,270948,2,0,L|304:47,1,75,8|8,0:2|0:2,0:0:0:0:
200,95,271295,2,0,L|178:176,1,75,8|8,0:2|0:2,0:0:0:0:
107,253,271642,5,0,0:2:0:0:
203,311,271815,2,0,L|190:353,2,37.5,8|8|8,0:2|0:2|0:2,0:0:0:0:
271,233,272162,2,0,L|258:191,2,37.5,8|8|8,0:2|0:2|0:2,0:0:0:0:
364,296,272509,2,0,L|351:338,2,37.5,8|8|8,0:2|0:2|0:2,0:0:0:0:
441,213,272856,5,8,0:2:0:0:
441,213,272942,1,8,0:2:0:0:
441,213,273029,2,0,P|438:168|421:119,1,75,8|8,0:2|0:2,0:0:0:0:
419,114,273289,1,8,0:2:0:0:
419,114,273376,1,8,0:2:0:0:
336,37,273549,1,8,0:2:0:0:
273,130,273723,2,0,L|176:109,1,75,8|8,0:2|0:2,0:0:0:0:
113,42,274069,2,0,L|210:21,1,75,10|0,0:3|0:0,0:0:0:0:
109,124,274416,6,0,B|133:211|64:191|101:297,2,165.000005035401,6|8|0,3:2|0:2|3:2,0:0:0:0:
212,56,275283,1,2,3:2:0:0:
212,56,275457,1,8,0:2:0:0:
323,109,275630,6,0,P|408:123|441:48,1,165.000005035401,2|0,3:2|3:2,0:0:0:0:
391,176,276150,2,0,L|382:277,1,82.5000025177003,8|0,0:2|0:0,0:0:0:0:
302,351,276497,1,0,3:2:0:0:
302,351,276671,1,2,3:2:0:0:
192,294,276844,1,10,0:2:0:0:
95,370,277017,1,2,3:2:0:0:
38,259,277191,6,0,P|76:190|152:191,1,123.75000377655,6|0,3:2|0:0,0:0:0:0:
152,204,277538,2,0,L|269:190,1,82.5000025177003,10|0,0:2|0:0,0:0:0:0:
315,100,277885,2,0,L|233:90,1,82.5000025177003,2|0,3:2|3:2,0:0:0:0:
117,47,278231,1,10,0:2:0:0:
25,131,278405,6,0,P|35:184|51:306,1,165.000005035401,2|0,3:2|3:2,0:0:0:0:
149,368,278925,1,8,0:2:0:0:
149,368,279272,2,0,B|186:353|186:353|194:356|194:356|230:343,1,82.5000025177003,2|0,3:2|3:2,0:0:0:0:
325,268,279619,1,10,0:2:0:0:
325,268,279792,1,0,3:2:0:0:
415,351,279965,6,0,B|452:308|452:308|423:171,2,165.000005035401,6|8|2,3:2|0:2|3:2,0:0:0:0:
325,268,280832,1,0,3:2:0:0:
226,344,281006,2,0,B|194:356|194:356|186:353|186:353|149:368,1,82.5000025177003,8|0,0:2|3:2,0:0:0:0:
28,339,281353,6,0,L|46:202,1,123.75000377655,2|0,0:2|0:0,0:0:0:0:
72,193,281700,2,0,L|63:89,1,82.5000025177003,10|0,0:2|3:2,0:0:0:0:
151,23,282046,1,2,0:2:0:0:
151,23,282220,1,0,3:2:0:0:
240,108,282393,1,8,0:2:0:0:
332,25,282567,1,2,3:2:0:0:
424,106,282740,6,0,P|449:191|391:241,1,165.000005035401,6|10,3:2|0:2,0:0:0:0:
281,275,283260,2,0,P|236:277|189:240,1,82.5000025177003,2|0,0:2|3:2,0:0:0:0:
235,126,283607,2,0,P|259:163|250:223,1,82.5000025177003,2|8,3:2|0:2,0:0:0:0:
138,172,283954,1,2,3:2:0:0:
138,172,284127,5,8,0:2:0:0:
32,237,284301,1,8,0:2:0:0:
89,346,284474,1,8,0:2:0:0:
194,280,284648,1,8,0:2:0:0:
35,90,284994,1,0,3:2:0:0:
35,90,285081,1,0,3:2:0:0:
35,90,285168,2,0,L|127:69,1,82.5000025177003,8|2,0:2|3:2,0:0:0:0:
235,38,285515,6,0,P|217:97|212:234,2,165.000005035401,6|8|0,3:2|0:2|3:2,0:0:0:0:
357,17,286382,1,2,3:2:0:0:
311,131,286555,1,8,0:2:0:0:
423,181,286728,6,0,P|456:275|418:323,1,165.000005035401,2|0,3:2|3:2,0:0:0:0:
310,376,287249,2,0,P|305:328|299:284,1,82.5000025177003,8|0,0:2|0:0,0:0:0:0:
216,211,287595,1,0,3:2:0:0:
216,211,287769,1,2,3:2:0:0:
131,288,287942,1,10,0:2:0:0:
131,288,288116,1,2,3:2:0:0:
144,156,288289,6,0,B|196:119|196:119|256:137,1,123.75000377655,6|0,3:2|0:0,0:0:0:0:
290,148,288636,2,0,P|338:155|379:132,1,82.5000025177003,10|0,0:2|0:0,0:0:0:0:
296,40,288983,2,0,P|257:25|217:33,1,82.5000025177003,2|0,3:2|3:2,0:0:0:0:
93,37,289330,1,10,0:2:0:0:
93,37,289503,1,2,3:2:0:0:
15,133,289676,6,0,P|30:200|39:305,1,165.000005035401,2|8,0:2|0:2,0:0:0:0:
143,363,290197,1,2,3:2:0:0:
197,252,290370,2,0,B|203:217|261:214|261:214|296:248|276:293,1,165.000005035401,2|8,3:2|0:2,0:0:0:0:
370,373,290890,1,0,3:2:0:0:
449,277,291064,6,0,B|457:202|457:202|471:182|471:182|482:86,2,165.000005035401,6|8|2,3:2|0:2|3:2,0:0:0:0:
366,184,291931,1,0,3:2:0:0:
268,259,292104,2,0,P|217:271|166:236,1,82.5000025177003,8|0,0:2|3:2,0:0:0:0:
92,184,292451,6,0,B|163:134|163:134|259:155,1,165.000005035401,2|8,0:2|0:2,0:0:0:0:
302,43,292971,2,0,P|345:30|396:54,1,82.5000025177003,2|0,0:2|3:2,0:0:0:0:
474,130,293318,1,2,3:2:0:0:
474,130,293491,1,8,0:2:0:0:
319,221,293838,6,0,L|342:397,2,165.000005035401,6|8|2,3:2|0:2|3:2,0:0:0:0:
386,126,294705,1,0,3:2:0:0:
321,44,294879,2,0,P|280:47|254:78,1,82.5000025177003,10|0,0:2|3:2,0:0:0:0:
209,170,295226,6,0,B|141:184|141:184|75:158,1,123.75000377655,6|0,3:2|0:0,0:0:0:0:
51,159,295572,2,0,P|63:207|72:257,1,82.5000025177003,8|0,0:2|3:2,0:0:0:0:
82,264,295832,1,0,3:2:0:0:
82,264,295919,2,0,B|68:326|68:326|74:345|74:345|62:399,2,123.75000377655,8|2|2,0:2|0:2|3:2,0:0:0:0:
179,328,296613,6,0,B|262:275|253:373|360:310,1,165.000005035401,6|10,3:2|0:2,0:0:0:0:
408,221,297133,1,2,0:2:0:0:
287,194,297306,2,0,P|279:152|297:102,1,82.5000025177003,0|0,3:2|3:2,0:0:0:0:
384,34,297653,2,0,P|423:23|463:31,1,82.5000025177003,8|8,0:2|0:2,0:0:0:0:
483,62,297913,1,8,0:2:0:0:
483,62,298000,5,8,0:2:0:0:
396,150,298174,2,0,L|350:156,2,41.2500012588501,0|0|8,3:2|3:2|0:2,0:0:0:0:
471,247,298520,2,0,L|517:253,2,41.2500012588501,8|8|10,0:2|0:2|0:2,0:0:0:0:
380,332,298867,2,0,L|334:338,2,41.2500012588501,8|8|8,0:2|0:2|0:2,0:0:0:0:
329,218,299214,1,8,0:2:0:0:
329,218,299301,1,8,0:2:0:0:
329,218,299387,6,0,P|280:232|233:239,1,82.5000025177003,6|0,3:2|3:2,0:0:0:0:
181,341,299734,2,0,P|132:327|85:320,1,82.5000025177003,8|0,0:2|3:2,0:0:0:0:
82,305,299994,1,0,3:2:0:0:
82,305,300081,1,2,3:2:0:0:
38,189,300254,2,0,L|-12:205,2,41.2500012588501,0|0|8,3:2|3:2|0:2,0:0:0:0:
125,101,300601,1,0,3:2:0:0:
125,101,300688,1,0,3:2:0:0:
125,101,300775,6,0,P|201:83|273:139,1,165.000005035401,14|0,3:2|0:0,0:0:0:0:
360,213,301295,2,0,P|294:259|216:241,1,165.000005035401,14|2,3:2|0:2,0:0:0:0:
389,63,301989,1,2,0:2:0:0:
389,63,302162,1,2,0:2:0:0:
256,192,302249,12,0,304937,0:0:0:0:
