osu file format v14

[General]
AudioFilename: audio.mp3
AudioLeadIn: 0
PreviewTime: 135080
Countdown: 0
SampleSet: Soft
StackLeniency: 0.7
Mode: 0
LetterboxInBreaks: 0
WidescreenStoryboard: 1

[Editor]
DistanceSpacing: 1
BeatDivisor: 4
GridSize: 4
TimelineZoom: 1.6

[Metadata]
Title:Sore wa Sekai o Koete
TitleUnicode:それは世界を越えて
Artist:La priere
ArtistUnicode:La prière
Creator:Lanzhu
Version:Easy
Source:
Tags:mappers' guild mpg featured artist fa Gemini Syndrome 1st アルバム Album 棗いつき Natsume Itsuki 藍月なくる Aitsuki Nakuru nayuta Japanese Pop Jpop J-pop Full Version Idols Kyōzō Kyozo らぷりえーる なゆた sky_delta ラプリエール erisu mayuzumi fuyuko
BeatmapID:3174655
BeatmapSetID:1553883

[Difficulty]
HPDrainRate:3
CircleSize:2
OverallDifficulty:3
ApproachRate:4
SliderMultiplier:0.899999999999999
SliderTickRate:1

[Events]
//Background and Video events
0,0,"bg.jpg",0,0
//Break Periods
2,99818,101072
2,196927,200890
2,227248,235572
//Storyboard Layer 0 (Background)
//Storyboard Layer 1 (Fail)
//Storyboard Layer 2 (Pass)
//Storyboard Layer 3 (Foreground)
//Storyboard Layer 4 (Overlay)
//Storyboard Sound Samples

[TimingPoints]
-266,346.820809248555,4,2,1,40,1,0
600,-100,4,2,1,40,0,0
1121,-100,4,2,1,45,0,0
4935,-100,4,2,1,45,0,0
5109,-100,4,2,1,45,0,0
5803,-100,4,2,1,45,0,0
9444,-100,4,2,1,50,0,0
12219,-100,4,2,1,50,0,0
14993,-100,4,2,1,50,0,0
17768,-100,4,2,1,60,0,0
19155,-100,4,2,1,60,0,0
19848,-100,4,2,1,60,0,0
21930,-100,4,2,1,60,0,0
22276,-100,4,2,1,60,0,0
24704,-100,4,2,1,60,0,0
25397,-100,4,2,1,60,0,0
27305,-100,4,2,1,55,0,0
28866,-100,4,2,1,45,0,0
37190,-100,4,2,1,45,0,0
39964,-100,4,2,1,45,0,0
45340,-100,4,2,1,60,0,0
54531,-100,4,2,1,60,0,0
54704,-100,4,2,1,50,0,0
54964,-100,4,2,1,60,0,0
55225,-100,4,2,1,70,0,0
74647,-100,4,2,1,70,0,0
77421,-100,4,2,1,55,0,0
86959,-100,4,2,1,50,0,0
88519,-100,4,2,1,60,0,0
98923,-100,4,2,1,60,0,0
99271,-100,4,2,1,60,0,0
99618,-100,4,2,1,60,0,0
102392,-100,4,2,1,45,0,0
113490,-100,4,2,1,40,0,0
114183,-100,4,2,1,40,0,0
114877,-100,4,2,1,40,0,0
116958,-100,4,2,1,40,0,0
117652,-100,4,2,1,40,0,0
119733,-100,4,2,1,40,0,0
120427,-100,4,2,1,40,0,0
122507,-100,4,2,1,40,0,0
123201,-100,4,2,1,40,0,0
124589,-100,4,2,1,45,0,0
133086,-100,4,2,1,45,0,0
134473,-100,4,2,1,55,0,0
134993,-100,4,2,1,55,0,0
135687,-100,4,2,1,70,0,0
155109,-100,4,2,1,55,0,0
157884,-100,4,2,1,45,0,0
168982,-100,4,2,1,50,0,0
174531,-100,4,2,1,60,0,0
184935,-100,4,2,1,60,0,0
185282,-100,4,2,1,60,0,0
196727,-100,4,2,1,40,0,0
202277,-100,4,2,1,45,0,0
216149,-100,4,2,1,50,0,0
227248,-100,4,2,1,45,0,0
238346,-100,4,2,1,50,0,0
246322,-100,4,2,1,50,0,0
246670,-100,4,2,1,50,0,0
248924,-100,4,2,1,55,0,0
249184,-100,4,2,1,60,0,0
249444,-100,4,2,1,75,0,0
267305,-100,4,2,1,75,0,0
267825,-100,4,2,1,55,0,0
270946,-100,4,2,1,60,0,0
274415,-100,4,2,1,75,0,0
299386,-100,4,2,1,80,0,0
300773,-100,4,2,1,60,0,0
302161,-100,4,2,1,60,0,0
304936,-100,4,2,1,60,0,0

[Colours]
Combo1 : 255,255,0
Combo2 : 255,62,158
Combo3 : 18,124,255

[HitObjects]
46,313,1120,6,0,B|123:282|108:333|183:302,1,135,2|2,0:0|0:0,0:0:0:0:
246,246,1988,1,2,0:0:0:0:
325,287,2334,2,0,L|312:391,2,89.9999999999999,2|2|2,0:0|0:0|0:0,0:0:0:0:
447,229,3549,1,2,0:0:0:0:
390,159,3895,6,0,B|381:53,1,89.9999999999999,2|2,0:0|0:0,0:0:0:0:
302,27,4589,2,0,P|227:39|198:99,1,135,0|2,0:0|0:3,0:0:0:0:
129,143,5456,1,0,1:0:0:0:
52,94,5803,2,0,L|68:243,1,135,0|0,1:0|1:0,0:0:0:0:
110,306,6670,6,0,L|206:288,1,89.9999999999999,2|2,0:2|0:2,0:0:0:0:
239,209,7363,2,0,L|380:185,1,135,2|2,0:2|0:2,0:0:0:0:
424,112,8231,1,2,0:2:0:0:
215,28,9097,1,2,0:2:0:0:
127,44,9444,6,0,B|40:35|77:88|-18:69,2,135,6|2|2,3:2|3:2|3:2,0:0:0:0:
74,168,11005,2,0,P|94:243|98:312,1,135,2|0,3:2|3:2,0:0:0:0:
140,379,11872,1,0,3:0:0:0:
218,334,12219,6,0,B|290:333|290:333|314:358|314:358|396:375,1,180,6|0,3:2|3:2,0:0:0:0:
474,358,13259,1,0,3:2:0:0:
475,271,13606,2,0,L|486:171,2,89.9999999999999,0|0|0,3:2|3:2|3:2,0:0:0:0:
474,358,14647,1,0,3:0:0:0:
397,311,14993,6,0,P|298:271|250:330,1,180,0|0,3:2|3:2,0:0:0:0:
168,340,16034,1,0,3:2:0:0:
82,311,16381,2,0,L|66:205,1,89.9999999999999,0|0,3:2|3:2,0:0:0:0:
75,132,17074,2,0,P|121:125|159:146,1,89.9999999999999,0|0,3:2|3:2,0:0:0:0:
200,224,17768,6,0,B|270:202|270:202|323:220|323:220|375:203,1,180,6|2,3:2|3:2,0:0:0:0:
427,133,18808,1,8,0:0:0:0:
367,67,19155,2,0,P|264:40|229:95,1,180,0|0,3:0|3:2,0:0:0:0:
185,167,20196,1,8,1:2:0:0:
222,248,20542,6,0,P|171:335|88:327,1,180,6|2,3:2|3:2,0:0:0:0:
50,259,21583,1,8,0:2:0:0:
94,180,21930,2,0,L|79:73,2,89.9999999999999,0|10|2,3:0|0:2|3:2,0:0:0:0:
50,259,22970,1,8,1:2:0:0:
100,334,23318,6,0,P|186:326|221:247,1,180,6|2,3:2|3:2,0:0:0:0:
283,182,24357,1,8,0:0:0:0:
295,92,24704,2,0,B|403:116|371:28|482:86,1,180,0|0,3:0|3:2,0:0:0:0:
497,162,25745,1,8,1:2:0:0:
472,248,26092,6,0,P|435:278|386:278,1,89.9999999999999,6|8,3:2|1:2,0:0:0:0:
331,215,26786,1,0,3:2:0:0:
202,257,27306,2,0,L|100:288,2,89.9999999999999,8|8|8,0:2|0:2|0:2,0:0:0:0:
256,185,28346,1,8,0:0:0:0:
182,71,28866,6,0,P|135:34|68:55,2,135,2|2|2,3:2|3:2|3:2,0:0:0:0:
396,237,30947,2,0,P|389:195|379:144,1,89.9999999999999,2|2,3:3|3:3,0:0:0:0:
376,58,31641,2,0,P|423:21|490:42,2,135,2|2|2,3:2|3:2|3:2,0:0:0:0:
165,318,34415,2,0,P|118:355|51:334,2,135,2|2|2,3:2|3:2|3:2,0:0:0:0:
366,231,37190,6,0,L|462:242,2,89.9999999999999,6|0|2,3:2|3:2|3:2,0:0:0:0:
293,177,38230,1,2,3:2:0:0:
218,227,38577,2,0,P|112:239|62:175,1,180,2|0,3:2|3:2,0:0:0:0:
188,57,39964,6,0,P|294:45|344:109,1,180,2|2,3:2|3:2,0:0:0:0:
420,132,41005,1,2,3:2:0:0:
421,222,41352,2,0,B|328:245|328:245|243:200,1,180,0|2,3:2|3:2,0:0:0:0:
177,156,42392,1,2,3:2:0:0:
107,213,42739,6,0,P|124:314|124:315,2,89.9999999999999,2|2|0,3:2|3:2|3:2,0:0:0:0:
38,155,43779,1,0,3:2:0:0:
84,77,44126,2,0,B|169:63|169:63|201:91|201:91|272:103,1,180,0|0,3:2|3:2,0:0:0:0:
373,41,45340,6,0,B|425:96|425:96|396:251,1,225,4|10,3:2|0:2,0:0:0:0:
467,358,46727,2,0,P|393:341|347:377,1,135,6|10,3:2|0:2,0:0:0:0:
284,310,47594,1,10,0:2:0:0:
154,347,48115,2,0,L|19:363,1,135,6|10,3:2|0:2,0:0:0:0:
21,272,48982,1,8,0:2:0:0:
91,216,49329,1,2,3:2:0:0:
43,139,49675,6,0,L|25:-7,2,135,6|6|6,3:2|3:2|3:2,0:0:0:0:
161,74,51236,2,0,B|247:53|223:104|301:85,1,135,6|6,3:2|3:2,0:0:0:0:
372,127,52103,1,10,0:2:0:0:
256,192,52450,12,0,53837,0:0:0:0:
411,339,55225,6,0,P|363:293|299:303,1,135,6|2,3:2|0:0,0:0:0:0:
221,349,56092,1,2,3:2:0:0:
137,315,56439,2,0,L|42:338,2,89.9999999999999,2|2|2,3:2|3:2|0:2,0:0:0:0:
221,349,57479,1,2,3:2:0:0:
338,282,57999,6,0,L|327:129,1,135,2|2,3:2|0:0,0:0:0:0:
269,79,58866,1,2,3:2:0:0:
146,22,59386,2,0,P|49:15|7:85,1,180,2|0,3:2|3:2,0:0:0:0:
41,160,60427,1,8,0:0:0:0:
121,199,60774,6,0,B|234:155|199:238|312:192,1,180,2|2,3:2|3:2,0:0:0:0:
368,146,61814,1,10,0:2:0:0:
438,202,62161,2,0,P|426:269|422:349,2,135,2|2|8,3:2|0:2|0:2,0:0:0:0:
482,122,63548,6,0,P|454:34|372:57,1,180,2|2,3:2|3:2,0:0:0:0:
292,37,64589,1,8,0:2:0:0:
236,107,64936,2,0,B|166:123|166:123|100:86,1,135,10|10,0:2|0:2,0:0:0:0:
25,196,65976,1,8,0:2:0:0:
86,261,66323,6,0,P|151:293|211:256,1,135,6|2,3:2|0:0,0:0:0:0:
273,212,67190,1,2,3:2:0:0:
348,260,67537,2,0,L|336:360,2,89.9999999999999,2|2|2,3:2|3:2|3:2,0:0:0:0:
415,200,68577,1,2,3:2:0:0:
329,95,69097,6,0,P|256:85|217:135,1,135,2|2,3:2|0:0,0:0:0:0:
261,206,69964,1,2,3:2:0:0:
173,308,70485,2,0,P|76:315|34:245,1,180,2|2,3:2|3:2,0:0:0:0:
24,163,71525,1,8,0:2:0:0:
95,108,71872,6,0,B|135:81|135:81|183:89,1,89.9999999999999,6|10,3:2|0:2,0:0:0:0:
234,157,72566,1,2,3:2:0:0:
356,186,73086,2,0,P|393:132|379:52,1,135,10|10,0:2|0:2,0:0:0:0:
298,81,73953,1,2,0:2:0:0:
219,36,74300,1,8,0:3:0:0:
132,61,74647,6,0,B|42:41,2,89.9999999999999,4|10|0,3:2|0:2|3:2,0:0:0:0:
163,145,75687,1,8,0:2:0:0:
131,229,76034,2,0,B|211:273|211:273|312:250,1,180,0|0,1:2|3:2,0:0:0:0:
378,292,77074,1,8,0:2:0:0:
323,363,77421,6,0,P|226:376|132:348,1,180,6|2,3:2|3:2,0:0:0:0:
124,268,78462,1,2,3:2:0:0:
187,204,78808,2,0,P|273:168|358:208,1,180,2|2,3:2|3:2,0:0:0:0:
477,325,80196,6,0,P|480:238|488:128,1,180,2|2,3:2|3:2,0:0:0:0:
452,61,81236,1,0,3:2:0:0:
365,81,81583,2,0,P|370:170|374:260,1,180,0|0,3:2|3:2,0:0:0:0:
192,341,82970,6,0,P|112:371|44:318,1,180,2|0,3:2|3:2,0:0:0:0:
63,229,84011,1,2,3:2:0:0:
144,190,84357,2,0,B|224:186|224:186|261:211|261:211|329:217,1,180,0|2,3:2|3:2,0:0:0:0:
376,149,85398,1,2,3:2:0:0:
328,72,85745,6,0,B|244:43|244:43|149:86,1,180,2|0,3:2|3:2,0:0:0:0:
35,131,86959,2,0,L|22:31,2,89.9999999999999,10|10|10,0:2|0:2|0:2,0:0:0:0:
85,256,88173,1,10,0:2:0:0:
152,196,88519,6,0,P|195:187|236:213,1,89.9999999999999,6|8,3:2|0:2,0:0:0:0:
291,277,89213,1,2,3:2:0:0:
172,341,89733,2,0,P|101:365|59:313,1,135,2|10,3:2|0:2,0:0:0:0:
63,238,90601,1,2,3:2:0:0:
4,170,90947,1,10,0:2:0:0:
70,108,91294,6,0,B|113:122|113:122|166:114,1,89.9999999999999,2|8,3:2|0:2,0:0:0:0:
236,72,91988,1,2,3:2:0:0:
367,39,92508,2,0,B|407:70|407:70|391:160,1,135,2|10,3:2|0:2,0:0:0:0:
419,239,93375,1,2,3:2:0:0:
358,305,93722,1,10,0:2:0:0:
270,274,94069,6,0,L|283:165,2,89.9999999999999,4|8|2,3:2|0:2|3:2,0:0:0:0:
154,344,95282,2,0,P|83:342|32:288,1,135,2|10,3:2|0:2,0:0:0:0:
29,211,96149,1,2,3:2:0:0:
49,123,96496,1,10,0:2:0:0:
110,56,96843,6,0,B|215:30|182:103|286:82,1,180,2|0,3:2|3:2,0:0:0:0:
365,50,97884,1,10,0:2:0:0:
426,115,98230,2,0,P|434:182|447:265,2,135,8|8|8,0:2|0:2|0:2,0:0:0:0:
365,50,99618,5,0,3:2:0:0:
168,86,102392,6,0,L|18:62,2,135,2|2|2,3:2|3:2|3:2,0:0:0:0:
424,169,104473,2,0,L|409:271,1,89.9999999999999,2|2,3:3|3:3,0:0:0:0:
371,339,105167,2,0,P|452:353|509:369,2,135,2|2|2,3:2|3:2|3:2,0:0:0:0:
379,41,107941,6,0,P|446:36|520:23,2,135,2|2|2,3:2|3:2|3:2,0:0:0:0:
139,165,110022,2,0,P|81:177|56:216,1,89.9999999999999,2|2,3:3|3:3,0:0:0:0:
49,288,110716,6,0,L|70:393,2,89.9999999999999,6|0|2,3:2|3:2|0:2,0:0:0:0:
60,153,111930,2,0,P|142:121|225:171,1,180,2|2,0:2|3:2,0:0:0:0:
332,233,113144,1,2,3:2:0:0:
421,233,113490,6,0,P|282:272|92:384,1,360,2|0,0:0|1:0,0:0:0:0:
286,74,116265,2,0,B|401:73|332:18|447:7|447:7|503:125|413:78|450:174,1,360,2|0,1:2|1:2,0:0:0:0:
285,362,119040,6,0,B|157:316|157:316|136:217|136:217|19:176,1,360,2|2,1:2|1:2,0:0:0:0:
334,6,121814,2,0,B|273:131|342:200|399:144|474:245|423:321,1,360,2|0,1:2|3:2,0:0:0:0:
297,344,123722,1,0,3:2:0:0:
193,144,124589,6,0,P|143:125|93:138,2,89.9999999999999,2|0|0,3:2|3:2|3:2,0:0:0:0:
236,65,125629,1,0,3:2:0:0:
326,57,125976,2,0,P|370:52|410:70,2,89.9999999999999,2|0|2,3:2|3:2|3:2,0:0:0:0:
303,144,127016,1,0,3:2:0:0:
376,200,127363,6,0,L|471:186,2,89.9999999999999,2|0|2,3:2|3:2|3:2,0:0:0:0:
212,275,128751,2,0,L|187:363,2,89.9999999999999,2|2|2,3:2|3:2|3:2,0:0:0:0:
277,212,129791,1,0,3:2:0:0:
231,134,130138,6,0,B|161:116|161:116|95:153,2,135,2|2|2,3:2|0:2|3:2,0:0:0:0:
318,153,131525,2,0,L|421:136,2,89.9999999999999,2|2|2,3:2|3:2|3:2,0:0:0:0:
231,134,132566,1,2,3:2:0:0:
168,198,132913,2,0,L|189:345,2,135,2|0|0,3:2|3:2|3:2,0:0:0:0:
46,138,134473,1,0,3:2:0:0:
55,15,134993,1,12,3:2:0:0:
234,23,135687,6,0,P|309:33|332:84,1,135,6|2,3:2|0:0,0:0:0:0:
268,144,136554,1,2,3:2:0:0:
190,189,136901,2,0,L|95:212,2,89.9999999999999,2|2|2,3:2|3:2|0:2,0:0:0:0:
272,225,137941,1,2,3:2:0:0:
386,153,138461,6,0,B|363:83|418:100|397:6,1,135,2|2,3:2|0:0,0:0:0:0:
488,43,139329,1,2,3:2:0:0:
479,177,139849,2,0,L|474:285,1,89.9999999999999,2|8,3:2|0:0,0:0:0:0:
430,345,140542,1,0,3:2:0:0:
341,360,140889,1,8,0:0:0:0:
278,295,141236,6,0,B|190:331|190:331|110:288,1,180,2|2,3:2|3:2,0:0:0:0:
39,242,142276,1,10,0:2:0:0:
100,174,142623,2,0,L|78:36,2,135,2|2|8,3:2|0:2|0:2,0:0:0:0:
182,213,144011,2,0,P|276:240|355:191,1,180,2|2,3:2|3:2,0:0:0:0:
362,115,145051,1,8,0:2:0:0:
300,48,145398,2,0,P|229:24|175:72,1,135,10|10,0:2|0:2,0:0:0:0:
80,142,146438,1,8,0:2:0:0:
141,207,146785,6,0,L|129:344,1,135,6|2,3:2|0:0,0:0:0:0:
218,354,147652,1,2,3:2:0:0:
292,303,147999,2,0,L|392:315,2,89.9999999999999,2|2|2,3:2|3:2|3:2,0:0:0:0:
240,228,149039,1,2,3:2:0:0:
306,110,149559,6,0,B|373:99|373:99|432:134,1,135,2|2,3:2|0:0,0:0:0:0:
458,219,150426,1,2,3:2:0:0:
387,334,150947,2,0,B|290:294|310:387|210:345,1,180,2|2,3:2|3:2,0:0:0:0:
139,301,151987,1,8,0:2:0:0:
56,336,152334,6,0,B|46:228,1,89.9999999999999,6|10,3:2|0:2,0:0:0:0:
41,156,153028,1,2,3:2:0:0:
42,21,153548,2,0,P|107:21|149:71,1,135,10|10,0:2|0:2,0:0:0:0:
367,231,155109,6,0,B|512:213,2,135,4|8|8,3:2|0:0|0:0,0:0:0:0:
236,265,156670,2,0,L|140:257,2,89.9999999999999,8|8|8,0:0|0:0|0:0,0:0:0:0:
340,350,157884,6,0,P|432:366|484:306,1,180,4|0,3:2|3:0,0:0:0:0:
326,151,159271,2,0,B|257:128|204:207|152:209,1,180,0|0,3:2|3:2,0:0:0:0:
70,209,160311,1,2,0:2:0:0:
56,298,160658,6,0,B|130:321|130:321|148:348|148:348|223:377,1,180,2|0,3:2|3:2,0:0:0:0:
277,310,161699,1,0,3:2:0:0:
360,344,162045,2,0,L|467:355,2,89.9999999999999,0|0|0,3:2|3:2|3:2,0:0:0:0:
275,309,163086,1,0,3:2:0:0:
205,251,163433,6,0,L|214:60,1,180,6|0,3:2|3:0,0:0:0:0:
45,21,164820,2,0,L|54:212,1,180,0|0,3:2|3:2,0:0:0:0:
103,275,165860,1,2,0:2:0:0:
52,349,166207,6,0,P|137:313|211:351,1,180,2|0,3:2|3:2,0:0:0:0:
299,340,167248,1,0,3:2:0:0:
323,253,167595,2,0,L|315:151,2,89.9999999999999,0|0|0,3:2|3:2|3:2,0:0:0:0:
396,305,168635,1,2,0:2:0:0:
450,232,168982,6,0,P|468:171|430:93,1,135,0|2,3:2|0:2,0:0:0:0:
375,47,169849,1,2,0:2:0:0:
242,21,170369,2,0,B|193:74|193:74|218:182,1,180,0|0,3:2|3:2,0:0:0:0:
175,259,171410,1,0,3:2:0:0:
85,248,171756,6,0,L|59:107,1,135,2|2,3:2|0:2,0:0:0:0:
77,26,172623,1,2,0:2:0:0:
185,106,173144,2,0,B|265:88|265:88|292:112|292:112|371:116,1,180,2|8,3:2|0:2,0:0:0:0:
437,81,174184,1,8,0:2:0:0:
481,159,174531,6,0,P|511:258|470:333,1,180,6|2,3:2|3:2,0:0:0:0:
406,374,175571,1,8,0:2:0:0:
350,303,175918,2,0,B|247:277|279:357|177:335,1,180,2|2,3:2|3:2,0:0:0:0:
108,282,176959,1,10,0:2:0:0:
32,330,177305,6,0,P|13:244|48:158,1,180,2|0,3:2|3:2,0:0:0:0:
101,37,178519,2,0,P|181:19|220:51,1,135,2|8,0:2|0:2,0:0:0:0:
260,128,179386,1,0,3:2:0:0:
341,90,179733,1,8,0:2:0:0:
425,119,180080,6,0,B|442:172|442:172|418:310,1,180,6|2,3:2|3:2,0:0:0:0:
330,299,181121,1,8,0:2:0:0:
262,240,181467,2,0,B|150:226|150:226|132:259|92:277,1,180,2|2,3:2|3:2,0:0:0:0:
62,190,182508,1,10,0:2:0:0:
99,107,182855,6,0,P|183:71|250:120,1,180,2|0,3:2|3:2,0:0:0:0:
341,124,183895,1,8,0:2:0:0:
326,212,184242,2,0,L|310:349,1,135,8|8,0:2|3:2,0:0:0:0:
442,374,185282,1,8,0:2:0:0:
501,306,185629,6,0,L|479:120,1,180,6|2,3:2|3:2,0:0:0:0:
456,40,186670,1,8,0:2:0:0:
366,29,187016,2,0,B|287:37|287:37|264:55|264:55|182:65,1,180,2|2,3:2|3:2,0:0:0:0:
104,46,188057,1,10,0:2:0:0:
45,114,188404,6,0,P|60:198|69:303,1,180,2|0,3:2|3:2,0:0:0:0:
173,375,189618,2,0,P|243:350|304:375,1,135,2|8,0:2|0:2,0:0:0:0:
387,376,190485,1,0,3:2:0:0:
469,341,190831,1,8,0:2:0:0:
471,251,191178,6,0,P|499:167|438:95,1,180,6|2,3:2|3:2,0:0:0:0:
365,132,192219,1,8,0:2:0:0:
323,211,192566,2,0,P|243:202|135:192,1,180,2|2,3:2|3:2,0:0:0:0:
95,116,193606,1,10,0:2:0:0:
153,47,193953,2,0,P|242:55|293:62,1,135,6|10,3:2|0:2,0:0:0:0:
363,109,194820,1,10,0:2:0:0:
434,53,195167,6,0,P|423:122|421:204,1,135,6|0,3:2|3:2,0:0:0:0:
381,268,196034,2,0,P|343:283|288:270,1,89.9999999999999,8|8,0:3|0:3,0:0:0:0:
228,214,196727,1,2,0:0:0:0:
42,28,202277,6,0,L|62:207,1,180,2|2,3:2|3:2,0:0:0:0:
162,356,203664,2,0,L|182:177,1,180,2|2,3:2|3:2,0:0:0:0:
309,49,205051,2,0,L|329:228,1,180,2|2,3:2|3:2,0:0:0:0:
427,378,206438,2,0,P|375:326|274:348,1,180,2|0,3:2|3:2,0:0:0:0:
191,371,207479,1,0,3:0:0:0:
113,325,207826,6,0,B|72:244|72:244|112:161,1,180,2|2,3:2|3:2,0:0:0:0:
284,115,209213,2,0,B|322:195|322:195|281:276,1,180,2|2,3:2|3:2,0:0:0:0:
461,291,210600,2,0,L|438:93,1,180,2|2,3:2|3:2,0:0:0:0:
286,17,211988,2,0,B|218:40|218:40|189:74|189:74|122:100,1,180,2|0,3:2|3:2,0:0:0:0:
55,147,213028,1,0,3:0:0:0:
82,232,213375,6,0,P|144:251|214:211,1,135,2|2,3:2|3:2,0:0:0:0:
304,131,214415,2,0,P|366:112|436:152,1,135,2|2,3:2|3:2,0:0:0:0:
486,261,215456,1,2,3:2:0:0:
442,339,215803,1,2,3:2:0:0:
352,338,216149,6,0,L|214:328,1,135,6|2,3:2|0:2,0:0:0:0:
159,258,217016,1,2,0:2:0:0:
223,195,217363,2,0,L|357:204,1,135,2|0,0:2|3:2,0:0:0:0:
441,170,218230,2,0,P|451:129|427:78,1,89.9999999999999,2|0,3:2|3:2,0:0:0:0:
365,26,218924,6,0,L|219:47,1,135,0|2,3:2|0:2,0:0:0:0:
146,75,219791,1,2,0:2:0:0:
66,32,220138,2,0,P|84:115|88:179,1,135,2|0,0:2|3:2,0:0:0:0:
166,209,221005,2,0,L|153:312,1,89.9999999999999,0|0,3:2|3:2,0:0:0:0:
216,364,221699,6,0,P|266:327|335:346,1,135,2|2,3:2|0:2,0:0:0:0:
420,361,222566,1,2,0:2:0:0:
460,280,222912,2,0,L|428:146,1,135,2|0,0:2|3:2,0:0:0:0:
392,66,223780,2,0,P|344:59|307:86,1,89.9999999999999,2|0,3:2|3:2,0:0:0:0:
269,161,224473,6,0,B|196:179|196:179|127:151,1,135,2|2,3:2|3:2,0:0:0:0:
60,114,225340,1,2,3:2:0:0:
157,20,225860,2,0,P|223:29|301:42,1,135,8|4,3:3|3:3,0:0:0:0:
467,62,238346,6,0,P|426:88|334:101,1,135,0|2,3:0|2:0,0:0:0:0:
272,44,239213,1,2,2:0:0:0:
204,103,239560,2,0,L|103:87,2,89.9999999999999,2|2|2,2:0|2:0|2:0,0:0:0:0:
274,159,240600,1,2,2:0:0:0:
195,269,241121,6,0,P|124:286|83:242,1,135,2|2,3:2|3:2,0:0:0:0:
37,169,241988,1,2,3:2:0:0:
94,46,242508,2,0,B|155:45|155:45|183:62|183:62|286:75,1,180,2|2,3:2|3:2,0:0:0:0:
347,29,243548,1,0,3:2:0:0:
406,97,243895,6,0,L|511:112,2,89.9999999999999,2|2|2,3:2|3:2|3:2,0:0:0:0:
281,146,245109,2,0,P|253:193|278:281,1,135,2|2,3:2|3:2,0:0:0:0:
311,347,245976,1,2,0:2:0:0:
223,371,246323,1,0,0:0:0:0:
256,192,246670,12,0,248057,0:0:0:0:
276,38,249444,6,0,P|267:102|259:192,1,135,6|2,3:2|0:0,0:0:0:0:
215,250,250311,1,2,3:2:0:0:
152,184,250658,2,0,L|62:172,2,89.9999999999999,2|2|2,3:2|3:2|0:2,0:0:0:0:
226,133,251698,1,2,3:2:0:0:
335,212,252218,6,0,P|304:273|314:346,1,135,2|2,3:2|0:0,0:0:0:0:
393,373,253086,1,2,3:2:0:0:
476,266,253606,2,0,B|476:224|476:224|473:216|473:216|470:159,1,89.9999999999999,2|8,3:2|0:0,0:0:0:0:
437,92,254300,1,0,3:2:0:0:
350,68,254646,1,8,0:0:0:0:
301,143,254993,6,0,P|219:176|146:133,1,180,2|2,3:2|3:2,0:0:0:0:
75,77,256033,1,10,0:2:0:0:
153,33,256380,2,0,L|296:16,1,135,2|2,3:2|3:2,0:0:0:0:
377,13,257248,1,2,3:2:0:0:
470,110,257768,6,0,B|511:176|511:176|487:285,1,180,2|2,3:2|3:2,0:0:0:0:
400,294,258808,1,8,0:2:0:0:
323,341,259155,2,0,L|180:315,1,135,10|10,0:2|0:2,0:0:0:0:
75,244,260195,1,8,0:2:0:0:
129,173,260542,6,0,L|262:189,1,135,6|2,3:2|0:0,0:0:0:0:
334,134,261409,1,2,3:2:0:0:
392,202,261756,2,0,L|492:214,2,89.9999999999999,2|2|2,3:2|3:2|0:2,0:0:0:0:
337,273,262796,1,2,3:2:0:0:
220,340,263317,6,0,B|156:329|156:329|144:312|144:312|95:302,1,135,2|2,3:2|0:0,0:0:0:0:
46,226,264183,1,2,3:2:0:0:
136,125,264704,2,0,B|233:165|213:72|313:114,1,180,2|2,3:2|3:2,0:0:0:0:
365,43,265744,1,8,0:2:0:0:
451,68,266092,6,0,P|452:121|460:247,1,180,6|2,3:2|3:2,0:0:0:0:
384,359,267305,2,0,B|321:343|305:370|239:366,1,135,10|10,0:2|0:2,0:0:0:0:
120,175,268866,6,0,P|75:244|0:213,1,180,4|0,3:2|3:2,0:0:0:0:
56,42,270253,2,0,P|153:25|200:96,1,180,0|8,3:2|0:2,0:0:0:0:
264,142,271294,1,8,0:2:0:0:
345,102,271641,2,0,L|334:0,2,89.9999999999999,0|8|8,0:2|0:2|0:2,0:0:0:0:
416,156,272681,1,8,0:2:0:0:
370,233,273028,2,0,P|325:245|274:227,1,89.9999999999999,8|8,0:2|0:2,0:0:0:0:
225,164,273722,1,8,0:2:0:0:
142,199,274068,1,10,0:3:0:0:
63,153,274415,6,0,P|89:227|96:302,1,135,6|0,3:2|3:2,0:0:0:0:
121,369,275282,1,2,3:2:0:0:
209,350,275629,2,0,B|279:368|279:368|352:332,1,135,2|8,3:2|0:2,0:0:0:0:
423,356,276496,1,0,3:2:0:0:
476,283,276843,1,10,0:2:0:0:
437,201,277190,6,0,P|390:190|337:207,1,89.9999999999999,6|10,3:2|0:2,0:0:0:0:
275,250,277884,1,2,3:2:0:0:
191,284,278230,2,0,P|125:292|88:199,1,180,10|8,0:2|0:2,0:0:0:0:
104,111,279271,1,2,3:2:0:0:
182,67,279618,1,10,0:2:0:0:
260,115,279964,6,0,B|349:149|349:149|439:105,1,180,6|2,3:2|3:2,0:0:0:0:
420,23,281005,1,8,0:2:0:0:
332,3,281352,2,0,B|244:16|244:16|229:32|229:32|161:45,1,180,2|2,0:2|0:2,0:0:0:0:
71,37,282392,1,8,0:2:0:0:
23,115,282739,6,0,P|38:197|43:264,1,135,6|2,3:2|0:2,0:0:0:0:
75,332,283606,1,2,3:2:0:0:
160,301,283953,2,0,B|205:301|204:325|251:319,1,89.9999999999999,2|8,3:2|0:2,0:0:0:0:
337,323,284647,1,8,0:2:0:0:
461,271,285167,1,8,0:2:0:0:
422,189,285514,6,0,P|384:173|326:159,1,89.9999999999999,6|8,3:2|0:2,0:0:0:0:
246,161,286207,1,0,3:2:0:0:
200,238,286554,2,0,P|133:256|70:171,1,180,8|8,0:2|0:2,0:0:0:0:
19,103,287595,1,0,3:2:0:0:
80,37,287942,1,10,0:2:0:0:
163,71,288289,6,0,B|208:77|208:77|221:84|221:84|262:90,2,89.9999999999999,6|10|2,3:2|0:2|3:2,0:0:0:0:
72,69,289329,1,10,0:2:0:0:
44,154,289675,2,0,P|55:222|68:336,1,180,2|2,0:2|3:2,0:0:0:0:
146,376,290716,1,8,0:2:0:0:
209,310,291063,6,0,P|295:267|379:312,1,180,6|2,3:2|3:2,0:0:0:0:
443,347,292104,1,8,0:2:0:0:
508,284,292451,2,0,B|489:139,1,135,2|2,0:2|0:2,0:0:0:0:
433,81,293317,1,2,3:2:0:0:
313,16,293838,6,0,P|231:36|119:44,1,180,6|2,3:2|3:2,0:0:0:0:
88,120,294878,1,10,0:2:0:0:
8,77,295225,2,0,P|31:160|47:271,1,180,6|8,3:2|0:2,0:0:0:0:
41,342,296266,1,10,0:2:0:0:
130,354,296613,6,0,B|229:312|207:390|315:349,1,180,6|0,3:2|3:2,0:0:0:0:
391,370,297652,1,8,0:2:0:0:
472,332,297999,2,0,L|486:238,1,89.9999999999999,8|8,0:2|0:2,0:0:0:0:
406,198,298693,2,0,L|392:108,1,89.9999999999999,10|8,0:2|0:2,0:0:0:0:
309,74,299386,6,0,P|239:24|143:50,1,180,6|2,3:2|3:2,0:0:0:0:
83,100,300427,1,8,0:2:0:0:
130,176,300774,1,14,3:2:0:0:
54,287,301294,1,14,3:2:0:0:
256,192,302161,12,0,304936,0:0:0:0:
