osu file format v14

[General]
AudioFilename: audio.mp3
AudioLeadIn: 0
PreviewTime: 135080
Countdown: 0
SampleSet: Soft
StackLeniency: 0.3
Mode: 0
LetterboxInBreaks: 0
WidescreenStoryboard: 1

[Editor]
DistanceSpacing: 1.3
BeatDivisor: 4
GridSize: 4
TimelineZoom: 1.6

[Metadata]
Title:Sore wa Sekai o Koete
TitleUnicode:それは世界を越えて
Artist:La priere
ArtistUnicode:La prière
Creator:Lanzhu
Version:Advanced
Source:
Tags:mappers' guild mpg featured artist fa Gemini Syndrome 1st アルバム Album 棗いつき Natsume Itsuki 藍月なくる Aitsuki Nakuru nayuta Japanese Pop Jpop J-pop Full Version Idols Kyōzō Kyozo らぷりえーる なゆた sky_delta ラプリエール erisu mayuzumi fuyuko
BeatmapID:3180373
BeatmapSetID:1553883

[Difficulty]
HPDrainRate:4.2
CircleSize:3.2
OverallDifficulty:6
ApproachRate:7
SliderMultiplier:1.25
SliderTickRate:1

[Events]
//Background and Video events
0,0,"bg.jpg",0,0
//Break Periods
2,196928,200890
2,227248,235572
//Storyboard Layer 0 (Background)
//Storyboard Layer 1 (Fail)
//Storyboard Layer 2 (Pass)
//Storyboard Layer 3 (Foreground)
//Storyboard Layer 4 (Overlay)
//Storyboard Sound Samples

[TimingPoints]
-266,346.820809248555,4,2,1,40,1,0
600,-142.857142857143,4,2,1,40,0,0
1121,-142.857142857143,4,2,1,45,0,0
5109,-142.857142857143,4,2,1,45,0,0
5803,-142.857142857143,4,2,1,45,0,0
9444,-142.857142857143,4,2,1,50,0,0
12219,-125,4,2,1,50,0,0
14993,-117.647058823529,4,2,1,50,0,0
17768,-100,4,2,1,60,0,0
27305,-100,4,2,1,55,0,0
28866,-125,4,2,1,45,0,0
37190,-117.647058823529,4,2,1,45,0,0
39964,-111.111111111111,4,2,1,45,0,0
45340,-105.263157894737,4,2,1,60,0,0
54704,-100,4,2,1,50,0,0
54964,-100,4,2,1,60,0,0
55225,-100,4,2,1,70,0,0
74647,-125,4,2,1,70,0,0
77421,-117.647058823529,4,2,1,55,0,0
86959,-117.647058823529,4,2,1,50,0,0
88519,-111.111111111111,4,2,1,60,0,0
99618,-125,4,2,1,60,0,0
102392,-125,4,2,1,45,0,0
113490,-142.857142857143,4,2,1,40,0,0
124589,-142.857142857143,4,2,1,45,0,0
134473,-142.857142857143,4,2,1,55,0,0
135687,-100,4,2,1,70,0,0
155109,-142.857142857143,4,2,1,55,0,0
157884,-133.333333333333,4,2,1,45,0,0
168982,-117.647058823529,4,2,1,50,0,0
174531,-105.263157894737,4,2,1,60,0,0
196727,-142.857142857143,4,2,1,40,0,0
202277,-142.857142857143,4,2,1,45,0,0
216149,-125,4,2,1,50,0,0
227248,-142.857142857143,4,2,1,45,0,0
238346,-111.111111111111,4,2,1,50,0,0
248924,-111.111111111111,4,2,1,55,0,0
249184,-111.111111111111,4,2,1,60,0,0
249444,-100,4,2,1,75,0,0
267826,-100,4,2,1,55,0,0
270947,-100,4,2,1,60,0,0
274415,-90.9090909090909,4,2,1,75,0,0
299386,-90.9090909090909,4,2,1,80,0,0
300774,-90.9090909090909,4,2,1,60,0,0
302161,-142.857142857143,4,2,1,60,0,0

[Colours]
Combo1 : 255,255,0
Combo2 : 255,62,158
Combo3 : 18,124,255

[HitObjects]
432,312,601,6,0,L|476:301,2,43.749998664856,2|2|2,0:0|0:0|0:0,0:0:0:0:
365,268,1122,6,0,L|310:256,1,43.749998664856,2|0,0:0|0:0,0:0:0:0:
253,221,1468,1,2,0:0:0:0:
301,158,1642,2,0,L|406:171,2,87.499997329712,2|2|2,0:0|0:0|0:0,0:0:0:0:
219,66,2682,2,0,P|167:62|133:82,1,87.499997329712,2|2,0:0|0:0,0:0:0:0:
49,164,3376,2,0,L|42:120,2,43.749998664856,2|2|2,0:0|0:0|0:0,0:0:0:0:
96,226,3896,6,0,P|145:229|186:233,1,87.499997329712,2|2,0:0|0:0,0:0:0:0:
177,311,4416,2,0,P|133:306|89:304,2,87.499997329712,2|0|2,0:0|1:0|0:3,0:0:0:0:
291,356,5457,2,0,L|339:344,1,43.749998664856,0|0,1:0|0:0,0:0:0:0:
382,283,5804,2,0,L|413:291,2,21.874999332428,0|0|0,1:0|1:0|1:0,0:0:0:0:
314,243,6150,2,0,L|283:251,2,21.874999332428,0|0|0,1:0|1:0|1:0,0:0:0:0:
381,202,6497,1,2,1:2:0:0:
450,163,6671,6,0,P|491:181|503:226,2,87.499997329712,2|2|2,0:2|0:2|0:2,0:0:0:0:
367,80,7711,1,2,0:2:0:0:
367,80,7885,2,0,L|322:94,1,43.749998664856,2|0,0:2|0:0,0:0:0:0:
274,152,8231,2,0,P|230:166|184:141,1,87.499997329712,2|2,0:2|0:2,0:0:0:0:
109,129,8752,1,2,0:2:0:0:
109,128,8925,2,0,L|56:144,1,43.749998664856,2|2,0:2|0:2,0:0:0:0:
96,46,9272,1,2,0:2:0:0:
96,46,9445,6,0,P|172:38|212:88,1,131.249995994568,6|2,3:2|3:2,0:0:0:0:
359,175,10486,2,0,P|283:167|243:217,1,131.249995994568,2|2,3:2|3:2,0:0:0:0:
119,228,11353,2,0,L|114:206,2,21.874999332428,0|0|0,1:2|1:2|3:2,0:0:0:0:
108,313,11699,1,0,1:2:0:0:
28,271,11873,2,0,L|12:212,1,43.749998664856,0|0,3:0|1:2,0:0:0:0:
40,142,12220,6,0,L|53:83,1,50,6|0,3:2|1:2,0:0:0:0:
91,19,12567,2,0,P|119:17|152:35,1,50,0|0,3:2|1:2,0:0:0:0:
163,110,12913,1,0,3:2:0:0:
272,22,13260,1,0,3:2:0:0:
272,22,13434,2,0,L|339:37,1,50,0|0,1:2|3:2,0:0:0:0:
382,97,13780,2,0,L|449:82,1,50,0|0,1:2|3:2,0:0:0:0:
510,116,14127,1,0,1:2:0:0:
499,197,14301,2,0,L|450:209,1,50,0|0,3:2|1:2,0:0:0:0:
369,163,14648,2,0,L|375:133,3,25,0|0|0|0,1:0|1:2|1:2|1:2,0:0:0:0:
334,197,14994,6,0,L|352:258,1,53.125001013279,0|0,3:2|1:2,0:0:0:0:
300,336,15341,2,0,P|263:345|226:337,1,53.125001013279,0|0,3:2|1:2,0:0:0:0:
190,258,15688,2,0,L|126:279,1,53.125001013279,0|0,3:2|0:0,0:0:0:0:
87,349,16035,1,0,3:2:0:0:
87,349,16208,1,2,0:3:0:0:
12,239,16555,1,2,0:3:0:0:
12,239,16728,2,0,L|26:178,1,53.125001013279,0|2,3:2|0:3,0:0:0:0:
78,114,17075,2,0,L|111:119,3,26.5625005066395,0|0|0|0,1:2|1:2|1:2|1:2,0:0:0:0:
144,140,17422,2,0,L|175:131,3,26.5625005066395,0|0|8|8,3:2|0:0|0:2|0:2,0:0:0:0:
198,88,17769,6,0,P|261:71|328:113,1,125,6|8,3:2|0:0,0:0:0:0:
387,152,18289,1,0,0:0:0:0:
446,224,18463,2,0,L|421:355,1,125,2|8,3:2|0:0,0:0:0:0:
331,369,18983,2,0,P|295:372|261:356,1,62.5,2|0,3:2|0:0,0:0:0:0:
212,289,19330,1,0,3:2:0:0:
212,289,19503,2,0,P|245:246|324:255,1,125,8|0,0:0|3:2,0:0:0:0:
390,286,20023,1,2,3:2:0:0:
451,211,20197,2,0,L|440:170,3,31.25,8|0|0|0,1:2|1:2|1:2|1:2,0:0:0:0:
405,158,20543,6,0,L|414:72,1,62.5,6|0,3:2|0:0,0:0:0:0:
333,44,20890,2,0,L|326:106,1,62.5,8|0,0:2|0:0,0:0:0:0:
266,172,21237,2,0,P|225:174|197:158,1,62.5,2|0,3:2|3:2,0:0:0:0:
150,97,21584,1,8,0:2:0:0:
124,20,21757,2,0,P|59:27|29:89,1,125,2|0,3:2|3:2,0:0:0:0:
65,155,22278,2,0,L|43:232,1,62.5,10|0,0:2|0:0,0:0:0:0:
13,294,22624,2,0,L|30:354,1,62.5,2|0,3:2|3:2,0:0:0:0:
134,330,22971,2,0,L|178:338,3,31.25,8|0|0|0,1:2|1:2|1:2|1:2,0:0:0:0:
201,363,23318,6,0,B|237:370|237:370|288:351,1,62.5,6|0,3:2|0:0,0:0:0:0:
336,303,23665,2,0,L|325:222,1,62.5,8|0,0:0|0:0,0:0:0:0:
409,230,24012,2,0,L|421:304,1,62.5,2|0,3:2|3:0,0:0:0:0:
487,356,24358,1,8,0:0:0:0:
499,271,24532,2,0,L|474:141,1,125,2|0,3:2|3:2,0:0:0:0:
401,94,25052,2,0,L|415:26,1,62.5,8|0,0:0|0:0,0:0:0:0:
325,16,25399,2,0,L|312:77,1,62.5,0|2,3:2|3:2,0:0:0:0:
261,152,25746,2,0,L|279:219,1,62.5,8|0,1:2|1:2,0:0:0:0:
346,287,26093,5,6,3:2:0:0:
276,346,26266,2,0,L|285:385,2,31.25,0|0|8,1:2|1:2|1:2,0:0:0:0:
199,286,26613,2,0,L|203:246,2,31.25,0|0|0,1:2|1:2|3:2,0:0:0:0:
137,366,26960,2,0,P|102:371|64:350,1,62.5,0|2,3:2|3:2,0:0:0:0:
23,282,27306,6,0,B|41:143,2,125,8|8|8,0:2|0:2|0:2,0:0:0:0:
153,217,28347,1,8,0:2:0:0:
153,217,28520,1,8,0:2:0:0:
272,149,28867,6,0,B|285:-10,2,150,2|2|2,3:2|3:2|3:2,0:0:0:0:
322,216,30081,1,2,0:2:0:0:
424,117,30428,2,0,L|431:75,2,25,0|0|0,3:2|3:2|3:2,0:0:0:0:
471,187,30775,1,0,3:2:0:0:
497,266,30948,2,0,P|489:298|483:327,1,50,2|2,3:3|0:3,0:0:0:0:
419,370,31295,2,0,P|382:372|350:357,1,50,2|2,3:3|0:3,0:0:0:0:
309,292,31642,6,0,P|314:215|333:141,2,150,2|2|2,3:2|3:2|3:2,0:0:0:0:
258,356,32856,1,2,0:2:0:0:
176,267,33202,2,0,L|185:226,2,25,0|0|0,3:2|3:2|3:2,0:0:0:0:
121,331,33549,1,0,3:2:0:0:
52,282,33723,2,0,P|42:251|40:223,1,50,2|2,3:3|0:3,0:0:0:0:
113,190,34069,2,0,L|106:127,1,50,2|2,3:3|0:3,0:0:0:0:
62,66,34416,6,0,P|123:62|230:41,2,150,2|2|2,3:2|3:2|3:2,0:0:0:0:
7,4,35630,1,2,0:2:0:0:
30,153,35977,2,0,L|-2:167,2,25,0|0|0,3:2|3:2|3:2,0:0:0:0:
110,172,36324,1,0,3:2:0:0:
110,172,36497,2,0,L|168:162,1,50,2|2,3:3|0:3,0:0:0:0:
229,115,36844,2,0,L|287:125,1,50,2|2,3:3|0:3,0:0:0:0:
362,142,37191,6,0,P|364:100|375:29,2,106.250002026558,6|0|2,3:2|3:2|3:2,0:0:0:0:
433,197,38058,1,2,0:2:0:0:
433,197,38231,2,0,L|448:142,1,53.125001013279,2|2,3:2|0:2,0:0:0:0:
504,88,38578,2,0,L|490:36,1,53.125001013279,2|0,3:2|0:0,0:0:0:0:
414,11,38925,1,2,3:2:0:0:
414,11,39098,2,0,L|362:23,1,53.125001013279,2|0,0:2|3:2,0:0:0:0:
313,84,39445,2,0,L|206:70,1,106.250002026558,2|0,0:2|1:2,0:0:0:0:
137,26,39965,6,0,P|77:38|58:88,1,112.499996566773,2|2,3:2|3:2,0:0:0:0:
43,218,40659,2,0,P|103:206|122:156,1,112.499996566773,2|2,3:2|3:2,0:0:0:0:
203,152,41179,2,0,B|252:157|252:157|272:163|272:163|322:168,1,112.499996566773,2|0,0:2|0:0,0:0:0:0:
386,209,41700,1,0,3:2:0:0:
386,209,41873,2,0,L|372:273,1,56.2499982833863,2|2,0:2|3:2,0:0:0:0:
320,323,42220,2,0,P|291:324|249:307,1,56.2499982833863,2|2,0:2|3:2,0:0:0:0:
203,263,42567,1,2,0:2:0:0:
203,263,42740,6,0,B|141:249|141:249|82:278,1,112.499996566773,2|2,3:2|3:2,0:0:0:0:
31,317,43260,2,0,P|39:344|62:366,1,56.2499982833863,2|0,0:2|3:2,0:0:0:0:
139,371,43607,2,0,L|195:365,1,56.2499982833863,2|0,0:2|3:2,0:0:0:0:
257,312,43954,2,0,L|313:318,1,56.2499982833863,2|0,0:2|3:2,0:0:0:0:
384,355,44301,2,0,L|444:345,2,56.2499982833863,2|2|2,0:2|3:2|0:2,0:0:0:0:
304,229,44994,2,0,L|248:219,1,56.2499982833863,2|2,0:2|0:2,0:0:0:0:
192,161,45341,6,0,L|72:197,1,118.749996829033,4|2,3:2|3:2,0:0:0:0:
5,165,45861,1,10,0:2:0:0:
74,55,46208,1,10,0:2:0:0:
74,55,46382,2,0,L|141:39,1,59.3749984145165,2|2,0:2|0:2,0:0:0:0:
209,16,46728,6,0,L|272:33,1,59.3749984145165,6|0,3:2|0:0,0:0:0:0:
322,91,47075,2,0,L|393:81,2,59.3749984145165,2|10|0,3:2|0:2|0:0,0:0:0:0:
258,138,47595,1,10,0:2:0:0:
258,138,47769,2,0,L|268:204,1,59.3749984145165,2|2,0:2|0:2,0:0:0:0:
320,263,48116,6,0,P|379:269|425:223,1,118.749996829033,6|2,3:2|3:2,0:0:0:0:
483,180,48636,1,10,0:2:0:0:
483,180,48809,2,0,L|465:106,1,59.3749984145165,2|8,0:2|0:2,0:0:0:0:
445,34,49156,2,0,L|513:49,2,59.3749984145165,2|2|2,0:2|3:2|0:2,0:0:0:0:
368,0,49676,6,0,P|322:2|277:58,1,118.749996829033,6|8,3:2|0:2,0:0:0:0:
243,125,50197,2,0,L|257:247,1,118.749996829033,6|8,3:2|0:2,0:0:0:0:
184,282,50717,2,0,P|126:286|80:233,1,118.749996829033,6|8,3:2|0:2,0:0:0:0:
74,163,51236,2,0,L|89:40,1,118.749996829033,6|8,3:2|0:2,0:0:0:0:
164,11,51757,1,6,3:2:0:0:
194,155,52104,1,10,0:2:0:0:
84,246,52451,1,2,0:2:0:0:
256,192,52624,12,0,54358,0:0:0:0:
359,174,54705,5,10,0:0:0:0:
389,90,54878,2,0,L|419:79,3,31.25,10|8|10|8,0:0|0:0|0:0|0:0,0:0:0:0:
346,71,55226,6,0,P|291:58|237:110,1,125,6|10,3:2|0:0,0:0:0:0:
181,162,55746,2,0,L|113:145,1,62.5,2|0,0:0|3:2,0:0:0:0:
99,241,56093,2,0,L|159:256,1,62.5,2|8,3:2|0:0,0:0:0:0:
248,297,56439,6,0,B|304:282|304:282|321:288|321:288|385:274,2,125,2|2|2,3:2|3:2|0:2,0:0:0:0:
178,357,57306,1,0,3:2:0:0:
103,318,57480,2,0,L|44:341,1,62.5,2|8,3:2|0:0,0:0:0:0:
19,260,57827,1,2,3:2:0:0:
19,260,58000,6,0,L|78:237,1,62.5,2|0,3:2|0:0,0:0:0:0:
62,143,58347,1,10,0:0:0:0:
62,143,58520,2,0,L|3:166,1,62.5,2|0,0:0|3:2,0:0:0:0:
5,62,58867,2,0,L|129:16,1,125,2|2,3:2|3:2,0:0:0:0:
216,52,59387,6,0,B|264:63|264:63|278:77|278:77|332:99,1,125,2|8,3:2|0:0,0:0:0:0:
418,158,59908,1,2,0:0:0:0:
479,90,60081,2,0,P|459:34|386:26,1,125,0|8,3:2|0:0,0:0:0:0:
246,105,60775,6,0,B|180:118|180:118|117:82,1,125,2|8,3:2|0:2,0:0:0:0:
39,70,61295,1,2,0:2:0:0:
39,70,61468,2,0,L|19:147,1,62.5,2|2,3:2|3:2,0:0:0:0:
87,210,61815,2,0,L|102:270,1,62.5,10|0,0:2|3:2,0:0:0:0:
169,339,62162,6,0,P|219:312|296:338,1,125,2|10,3:2|0:2,0:0:0:0:
376,362,62682,2,0,L|442:351,1,62.5,2|0,0:2|3:2,0:0:0:0:
460,261,63029,2,0,L|398:250,1,62.5,2|8,3:2|0:2,0:0:0:0:
316,206,63376,1,2,3:2:0:0:
316,206,63549,1,2,3:2:0:0:
396,152,63723,6,0,B|395:65|395:65|356:32,1,125,2|0,0:2|0:0,0:0:0:0:
269,19,64243,1,2,3:2:0:0:
269,19,64416,2,0,L|198:44,1,62.5,2|8,3:2|0:2,0:0:0:0:
128,85,64763,1,2,3:2:0:0:
128,85,64937,5,10,0:2:0:0:
181,165,65110,1,10,0:2:0:0:
134,241,65283,1,10,0:2:0:0:
78,171,65457,1,10,0:2:0:0:
256,127,65804,5,2,3:2:0:0:
340,87,65976,2,0,L|334:43,3,31.25,8|0|2|0,0:2|3:2|3:2|3:2,0:0:0:0:
362,129,66324,6,0,P|396:177|387:267,1,125,6|10,3:2|0:0,0:0:0:0:
348,310,66844,2,0,L|268:322,1,62.5,2|0,0:0|3:2,0:0:0:0:
209,371,67191,2,0,L|129:359,1,62.5,2|8,3:2|0:0,0:0:0:0:
94,287,67538,6,0,P|21:298|-1:352,2,125,2|2|2,3:2|3:2|3:2,0:0:0:0:
175,235,68405,1,0,3:2:0:0:
175,235,68578,2,0,L|158:171,1,62.5,2|8,3:2|0:0,0:0:0:0:
76,124,68925,1,2,3:2:0:0:
128,48,69098,6,0,B|164:40|164:40|182:57|182:57|258:70,1,125,2|10,3:2|0:0,0:0:0:0:
313,124,69619,2,0,P|352:119|389:110,1,62.5,2|0,0:0|3:2,0:0:0:0:
407,206,69965,2,0,P|376:212|345:215,1,62.5,2|8,3:2|0:0,0:0:0:0:
237,224,70312,1,2,3:2:0:0:
196,140,70486,6,0,L|187:12,1,125,2|8,3:2|0:0,0:0:0:0:
106,17,71006,1,2,3:2:0:0:
106,17,71180,2,0,L|89:89,1,62.5,2|0,3:2|3:0,0:0:0:0:
22,157,71526,1,8,0:2:0:0:
22,157,71700,1,0,3:0:0:0:
101,219,71873,6,0,B|115:293|61:262|95:349,2,125,6|10|2,3:2|0:2|3:2,0:0:0:0:
22,157,72740,1,0,3:2:0:0:
22,157,72913,1,10,0:2:0:0:
92,78,73087,2,0,L|220:100,1,125,10|10,0:2|0:2,0:0:0:0:
294,119,73607,1,10,0:2:0:0:
433,322,74127,6,0,P|444:286|484:268,2,62.5,2|8|0,3:2|0:3|1:0,0:0:0:0:
360,378,74648,6,0,L|339:313,1,50,4|2,3:2|1:2,0:0:0:0:
297,260,74994,2,0,P|269:258|234:275,1,50,10|0,0:2|1:2,0:0:0:0:
193,330,75341,2,0,L|207:385,2,50,0|0|8,3:2|3:2|0:2,0:0:0:0:
127,272,75861,1,0,3:2:0:0:
127,272,76035,6,0,L|141:168,1,100,0|8,1:2|0:2,0:0:0:0:
180,101,76555,1,0,3:2:0:0:
180,101,76728,2,0,L|121:83,1,50,0|0,3:2|3:2,0:0:0:0:
63,35,77075,2,0,L|4:53,1,50,8|0,0:2|3:2,0:0:0:0:
37,127,77422,6,0,P|22:190|57:240,2,106.250002026558,6|2|2,3:2|3:2|3:2,0:0:0:0:
15,49,78289,2,0,L|69:33,1,53.125001013279,2|2,0:2|3:2,0:0:0:0:
152,20,78636,2,0,P|218:39|273:51,1,106.250002026558,2|2,0:2|0:2,0:0:0:0:
332,100,79156,2,0,L|397:89,2,53.125001013279,2|2|2,3:2|0:2|3:2,0:0:0:0:
266,149,79676,1,2,0:2:0:0:
266,149,79850,2,0,L|284:222,1,53.125001013279,2|0,3:2|0:0,0:0:0:0:
316,279,80197,6,0,P|273:309|209:298,2,106.250002026558,2|2|2,3:2|3:2|3:2,0:0:0:0:
387,235,81064,1,2,0:2:0:0:
387,235,81237,2,0,L|393:118,1,106.250002026558,0|0,3:2|3:2,0:0:0:0:
339,60,81757,2,0,L|271:70,1,53.125001013279,2|2,0:2|3:2,0:0:0:0:
235,135,82104,2,0,L|167:125,1,53.125001013279,2|0,0:2|3:2,0:0:0:0:
100,138,82451,1,2,0:2:0:0:
100,138,82624,2,0,L|115:202,1,53.125001013279,2|0,3:2|0:0,0:0:0:0:
94,278,82971,6,0,P|59:285|37:305,2,53.125001013279,2|2|2,3:2|0:2|3:2,0:0:0:0:
174,305,83491,2,0,B|209:299|209:299|229:304|229:304|284:294,1,106.250002026558,2|2,0:2|0:2,0:0:0:0:
358,333,84012,1,2,3:2:0:0:
358,333,84185,2,0,L|408:348,1,53.125001013279,2|0,0:2|3:2,0:0:0:0:
496,367,84532,1,2,0:2:0:0:
496,367,84705,2,0,L|500:314,1,53.125001013279,2|2,3:2|0:2,0:0:0:0:
444,243,85052,2,0,L|434:184,1,53.125001013279,2|2,3:2|0:2,0:0:0:0:
475,117,85399,2,0,L|449:51,1,53.125001013279,2|2,3:2|0:2,0:0:0:0:
387,19,85746,6,0,B|328:18|333:57|266:53,1,106.250002026558,2|0,3:2|3:2,0:0:0:0:
124,25,86439,1,0,3:2:0:0:
26,108,86786,1,2,3:2:0:0:
26,108,86960,2,0,L|97:125,1,53.125001013279,10|0,0:2|0:0,0:0:0:0:
157,178,87306,2,0,L|228:161,1,53.125001013279,10|0,0:2|0:0,0:0:0:0:
280,100,87653,1,10,0:2:0:0:
411,160,88000,1,10,0:2:0:0:
411,160,88174,2,0,L|405:191,3,26.5625005066395,10|8|8|8,0:2|0:2|0:2|0:2,0:0:0:0:
389,219,88520,6,0,L|406:282,1,56.2499982833863,6|0,3:2|0:0,0:0:0:0:
368,346,88867,2,0,P|332:348|295:332,1,56.2499982833863,8|0,0:2|0:0,0:0:0:0:
259,274,89214,1,2,3:2:0:0:
259,274,89387,2,0,L|194:292,1,56.2499982833863,2|10,0:2|0:2,0:0:0:0:
152,353,89734,2,0,P|100:358|30:329,1,112.499996566773,2|2,3:2|0:2,0:0:0:0:
19,257,90254,2,0,L|44:193,1,56.2499982833863,10|2,0:2|3:2,0:0:0:0:
111,155,90601,2,0,L|90:102,1,56.2499982833863,2|2,3:2|3:2,0:0:0:0:
21,36,90948,1,10,0:2:0:0:
177,16,91295,6,0,P|202:37|214:68,1,56.2499982833863,2|0,3:2|0:0,0:0:0:0:
191,147,91642,2,0,L|255:130,1,56.2499982833863,8|0,0:2|0:0,0:0:0:0:
274,212,91989,1,2,3:2:0:0:
274,212,92162,2,0,L|219:226,1,56.2499982833863,2|10,0:2|0:2,0:0:0:0:
172,295,92509,2,0,P|208:322|276:307,1,112.499996566773,2|2,3:2|3:2,0:0:0:0:
345,261,93029,1,10,0:2:0:0:
345,261,93202,2,0,L|368:204,1,56.2499982833863,2|2,3:2|3:2,0:0:0:0:
423,151,93549,2,0,L|401:98,1,56.2499982833863,2|10,3:2|0:2,0:0:0:0:
213,29,94069,6,0,P|165:21|84:18,2,112.499996566773,4|8|2,3:2|0:2|3:2,0:0:0:0:
281,84,94937,2,0,L|334:66,1,56.2499982833863,0|10,0:0|0:2,0:0:0:0:
407,16,95283,2,0,L|460:33,1,56.2499982833863,2|0,3:2|0:0,0:0:0:0:
487,119,95630,1,2,3:2:0:0:
487,119,95804,1,10,0:2:0:0:
419,177,95977,2,0,L|363:210,1,56.2499982833863,2|2,3:2|3:2,0:0:0:0:
296,249,96324,2,0,L|240:216,1,56.2499982833863,2|10,3:2|0:2,0:0:0:0:
210,137,96671,1,2,0:2:0:0:
143,192,96844,6,0,P|151:225|165:321,2,112.499996566773,2|8|0,3:2|0:2|3:2,0:0:0:0:
75,139,97711,1,0,3:2:0:0:
75,139,97885,2,0,L|47:191,1,56.2499982833863,10|2,0:2|3:2,0:0:0:0:
10,269,98231,2,0,L|38:321,1,56.2499982833863,8|8,0:2|0:2,0:0:0:0:
121,357,98578,1,8,0:2:0:0:
196,304,98752,1,8,0:2:0:0:
361,352,99098,2,0,L|406:362,2,28.1249991416931,2|0|8,3:2|3:2|0:2,0:0:0:0:
304,288,99445,2,0,L|259:298,2,28.1249991416931,2|0|0,3:2|3:2|3:2,0:0:0:0:
256,192,99705,12,0,102046,0:0:0:0:
23,63,102393,6,0,L|122:78,1,100,2|2,3:2|0:2,0:0:0:0:
190,126,102913,2,0,L|289:111,1,100,2|2,3:2|0:2,0:0:0:0:
346,52,103434,1,2,3:2:0:0:
420,248,103954,2,0,L|458:238,2,25,0|0|0,3:2|3:2|3:2,0:0:0:0:
360,305,104301,1,0,3:2:0:0:
360,305,104474,2,0,L|311:287,1,50,2|2,3:3|0:3,0:0:0:0:
251,234,104821,2,0,L|202:252,1,50,2|2,3:3|0:3,0:0:0:0:
161,320,105168,6,0,P|76:321|40:271,2,150,2|2|2,3:2|3:2|3:2,0:0:0:0:
38,142,106728,2,0,L|0:152,2,25,0|0|0,3:2|3:2|3:2,0:0:0:0:
98,85,107075,1,0,3:2:0:0:
98,85,107248,2,0,L|147:103,1,50,2|2,3:3|0:3,0:0:0:0:
207,156,107595,2,0,L|256:138,1,50,2|2,3:3|0:3,0:0:0:0:
316,90,107942,6,0,P|313:51|255:17,1,100,2|2,3:2|0:2,0:0:0:0:
184,13,108463,2,0,L|81:47,1,100,2|2,3:2|0:2,0:0:0:0:
15,78,108983,1,2,3:2:0:0:
94,206,109503,2,0,L|126:197,2,25,0|0|0,3:2|3:2|3:2,0:0:0:0:
36,264,109850,1,0,3:2:0:0:
36,264,110023,2,0,L|61:308,1,50,2|2,3:3|0:3,0:0:0:0:
116,358,110370,2,0,P|138:362|172:351,1,50,2|2,3:3|0:3,0:0:0:0:
209,288,110717,6,0,B|311:266|282:336|355:335|408:316,1,200,6|2,3:2|0:2,0:0:0:0:
473,283,111584,1,2,3:2:0:0:
473,283,111757,2,0,L|459:233,1,50,2|2,0:2|3:2,0:0:0:0:
405,174,112104,2,0,P|367:156|307:171,1,100,2|2,0:2|0:2,0:0:0:0:
245,217,112624,2,0,P|219:222|178:207,1,50,2|2,3:2|3:2,0:0:0:0:
141,141,112971,1,2,3:2:0:0:
141,141,113145,1,2,3:2:0:0:
266,32,113491,6,0,P|346:33|386:111,1,174.999994659424,2|0,0:0|0:0,0:0:0:0:
88,14,114879,2,0,P|102:66|112:200,1,174.999994659424,0|2,1:0|0:0,0:0:0:0:
332,309,116266,2,0,B|263:328|263:328|235:352|235:352|163:379,1,174.999994659424,2|0,1:2|0:0,0:0:0:0:
21,236,117653,2,0,P|95:213|120:304,1,174.999994659424,0|0,1:2|0:0,0:0:0:0:
212,147,119041,6,0,B|266:122|320:193|393:171,1,174.999994659424,2|0,1:2|0:0,0:0:0:0:
199,32,120428,2,0,B|145:7|91:78|18:56,1,174.999994659424,2|2,1:2|0:0,0:0:0:0:
95,207,121815,2,0,P|173:222|211:141,1,174.999994659424,2|0,1:2|0:0,0:0:0:0:
300,32,123202,2,0,L|355:53,1,43.749998664856,0|0,3:2|3:2,0:0:0:0:
416,111,123549,1,0,3:2:0:0:
416,111,123723,1,0,3:2:0:0:
326,216,124069,2,0,L|341:269,2,43.749998664856,0|0|0,1:2|1:2|0:0,0:0:0:0:
261,161,124590,6,0,L|213:185,1,43.749998664856,2|0,3:2|0:0,0:0:0:0:
148,231,124937,2,0,L|100:207,1,43.749998664856,0|2,3:2|0:2,0:0:0:0:
70,133,125283,2,0,L|94:85,1,43.749998664856,0|2,3:2|0:2,0:0:0:0:
161,43,125630,2,0,L|209:67,1,43.749998664856,0|2,3:2|0:2,0:0:0:0:
283,40,125977,6,0,L|386:32,2,87.499997329712,2|0|2,3:2|3:2|3:2,0:0:0:0:
389,135,127017,1,0,3:2:0:0:
459,29,127364,6,0,L|450:85,1,43.749998664856,2|2,3:2|0:2,0:0:0:0:
389,135,127711,2,0,L|404:188,1,43.749998664856,0|2,3:2|0:2,0:0:0:0:
379,264,128058,2,0,P|348:267|323:260,1,43.749998664856,2|0,3:2|0:0,0:0:0:0:
277,200,128405,1,0,3:2:0:0:
189,308,128752,2,0,L|143:294,1,43.749998664856,2|2,3:2|0:2,0:0:0:0:
102,225,129098,2,0,L|153:212,1,43.749998664856,2|2,3:2|0:2,0:0:0:0:
205,148,129445,1,2,3:2:0:0:
145,44,129792,1,0,3:2:0:0:
13,64,130139,6,0,L|28:152,1,87.499997329712,2|0,3:2|3:2,0:0:0:0:
77,227,130659,2,0,L|62:315,1,87.499997329712,2|0,0:2|0:0,0:0:0:0:
134,381,131179,1,2,3:2:0:0:
262,303,131526,1,2,3:2:0:0:
404,377,131873,1,2,3:2:0:0:
470,281,132220,2,0,L|456:187,2,87.499997329712,2|2|2,3:2|3:2|3:2,0:0:0:0:
357,180,133260,5,0,3:2:0:0:
357,180,133434,1,0,3:2:0:0:
458,94,133780,1,0,3:2:0:0:
458,94,133954,1,0,3:2:0:0:
231,47,134474,1,8,0:2:0:0:
231,47,134648,1,8,0:2:0:0:
273,205,134994,1,12,3:2:0:0:
17,344,135688,6,0,B|85:320|78:363|152:331,1,125,6|10,3:2|0:0,0:0:0:0:
191,262,136208,2,0,P|224:272|246:297,1,62.5,2|0,0:0|3:2,0:0:0:0:
294,371,136555,2,0,L|359:361,1,62.5,2|8,3:2|0:0,0:0:0:0:
422,294,136902,6,0,P|467:311|485:384,2,125,2|2|2,3:2|3:2|0:2,0:0:0:0:
337,257,137768,1,0,3:2:0:0:
400,193,137942,2,0,L|411:122,1,62.5,2|8,3:2|0:0,0:0:0:0:
475,60,138289,1,2,3:2:0:0:
397,18,138462,6,0,L|332:38,1,62.5,2|0,3:2|0:0,0:0:0:0:
250,6,138809,1,10,0:0:0:0:
212,84,138982,2,0,P|224:119|235:155,1,62.5,2|0,0:0|3:2,0:0:0:0:
206,226,139329,2,0,P|143:231|77:186,1,125,2|2,3:2|3:2,0:0:0:0:
12,151,139850,6,0,P|28:212|34:276,1,125,2|8,3:2|0:0,0:0:0:0:
97,347,140370,1,2,0:0:0:0:
119,254,140543,2,0,P|112:191|97:131,1,125,0|8,3:2|0:0,0:0:0:0:
222,27,141237,6,0,B|291:12|277:59|351:50,1,125,2|8,3:2|0:2,0:0:0:0:
420,18,141757,1,2,0:2:0:0:
470,87,141930,2,0,L|460:165,1,62.5,2|2,3:2|3:2,0:0:0:0:
387,194,142278,2,0,L|397:272,1,62.5,10|0,0:2|3:2,0:0:0:0:
361,343,142624,6,0,B|296:362|296:362|234:334,1,125,2|10,3:2|0:2,0:0:0:0:
179,279,143144,2,0,L|110:297,1,62.5,2|0,0:2|3:2,0:0:0:0:
27,271,143491,2,0,L|13:199,1,62.5,2|8,3:2|0:2,0:0:0:0:
81,155,143838,1,2,3:2:0:0:
81,155,144011,1,2,3:2:0:0:
164,195,144185,6,0,P|230:199|296:209,1,125,2|0,0:2|0:0,0:0:0:0:
364,248,144705,1,2,3:2:0:0:
421,185,144878,2,0,L|407:115,1,62.5,2|8,3:2|0:2,0:0:0:0:
359,40,145225,1,2,3:2:0:0:
359,40,145399,5,10,0:2:0:0:
294,100,145572,1,10,0:2:0:0:
230,37,145745,1,10,0:2:0:0:
169,101,145919,1,10,0:2:0:0:
10,18,146266,5,2,3:2:0:0:
56,97,146439,2,0,L|45:141,3,31.25,8|0|2|0,0:2|3:2|3:2|3:2,0:0:0:0:
16,155,146786,6,0,P|28:208|41:293,1,125,6|10,3:2|0:0,0:0:0:0:
90,361,147306,2,0,P|122:365|162:350,1,62.5,2|0,0:0|3:2,0:0:0:0:
192,270,147653,2,0,L|201:195,1,62.5,2|8,3:2|0:0,0:0:0:0:
264,141,148000,6,0,B|323:119|315:177|392:166,2,125,2|2|2,3:2|3:2|3:2,0:0:0:0:
186,95,148867,1,0,3:2:0:0:
251,34,149040,2,0,L|315:18,1,62.5,2|8,3:2|0:0,0:0:0:0:
406,31,149387,1,2,3:2:0:0:
406,31,149561,6,0,P|459:86|439:154,1,125,2|10,3:2|0:0,0:0:0:0:
371,176,150081,2,0,L|298:165,1,62.5,2|0,0:0|3:2,0:0:0:0:
256,94,150427,2,0,L|196:113,1,62.5,2|8,3:2|0:0,0:0:0:0:
147,190,150774,1,2,3:2:0:0:
79,134,150948,6,0,L|94:260,1,125,2|8,3:2|0:0,0:0:0:0:
130,342,151468,1,2,3:2:0:0:
130,342,151642,2,0,L|201:328,1,62.5,2|0,3:2|3:0,0:0:0:0:
261,277,151988,1,8,0:2:0:0:
261,277,152162,1,0,3:0:0:0:
338,328,152335,6,0,B|472:353,2,125,6|10|2,3:2|0:2|3:2,0:0:0:0:
353,240,153202,1,0,3:2:0:0:
353,240,153375,1,10,0:2:0:0:
279,180,153549,6,0,P|217:164|155:206,1,125,10|10,0:2|0:2,0:0:0:0:
103,265,154069,1,10,0:2:0:0:
81,33,154590,2,0,L|1:16,2,62.5,2|8|0,3:2|0:3|1:0,0:0:0:0:
159,71,155110,6,0,P|144:115|141:174,1,87.499997329712,4|2,3:2|0:0,0:0:0:0:
224,177,155630,2,0,P|228:133|243:92,1,87.499997329712,8|0,0:0|0:0,0:0:0:0:
315,35,156150,1,8,0:0:0:0:
315,35,156324,1,8,0:0:0:0:
401,101,156671,1,8,0:0:0:0:
323,184,157017,1,8,0:0:0:0:
409,271,157364,1,8,0:0:0:0:
409,271,157538,1,8,0:0:0:0:
304,314,157885,6,0,P|247:316|212:280,1,93.7500035762788,4|2,3:2|0:0,0:0:0:0:
277,172,158578,2,0,L|339:187,1,46.8750017881394,0|2,3:0|3:2,0:0:0:0:
396,136,158925,1,2,3:2:0:0:
301,36,159272,2,0,P|245:46|191:54,1,93.7500035762788,0|2,3:2|3:2,0:0:0:0:
74,90,159965,2,0,L|92:139,1,46.8750017881394,0|2,3:2|3:2,0:0:0:0:
90,219,160312,1,2,0:2:0:0:
62,344,160659,6,0,P|113:232|250:258,1,281.250010728836,2|0,3:2|3:2,0:0:0:0:
321,374,162046,2,0,P|368:369|425:360,1,93.7500035762788,0|0,3:2|3:2,0:0:0:0:
479,314,162567,1,0,0:0:0:0:
479,314,162740,2,0,L|467:260,1,46.8750017881394,0|0,3:2|3:2,0:0:0:0:
494,183,163087,1,0,3:2:0:0:
494,183,163260,1,0,1:2:0:0:
415,131,163434,6,0,P|374:145|315:156,1,93.7500035762788,6|2,3:2|0:0,0:0:0:0:
166,237,164127,2,0,L|119:209,1,46.8750017881394,0|2,3:0|3:2,0:0:0:0:
113,128,164474,1,2,3:2:0:0:
232,44,164821,2,0,P|285:39|319:72,1,93.7500035762788,0|2,3:2|3:2,0:0:0:0:
415,143,165515,2,0,L|404:201,1,46.8750017881394,0|2,3:2|3:2,0:0:0:0:
438,271,165861,1,2,0:2:0:0:
507,173,166208,6,0,P|445:64|318:127,1,281.250010728836,2|0,3:2|3:2,0:0:0:0:
249,220,167595,2,0,L|149:201,1,93.7500035762788,0|0,3:2|3:2,0:0:0:0:
82,157,168116,2,0,L|73:100,2,46.8750017881394,2|0|2,0:2|3:2|0:2,0:0:0:0:
36,221,168636,1,0,3:2:0:0:
36,221,168809,1,2,0:2:0:0:
92,285,168983,6,0,P|136:320|204:313,1,106.250002026558,0|0,3:2|3:2,0:0:0:0:
272,317,169503,1,2,0:2:0:0:
311,192,169850,2,0,L|381:204,2,53.125001013279,2|2|2,0:2|3:2|0:2,0:0:0:0:
231,153,170370,2,0,L|212:30,3,106.250002026558,0|0|0|0,3:2|3:2|3:2|3:2,0:0:0:0:
341,12,171757,6,0,B|417:19|417:19|444:49,1,106.250002026558,2|2,3:2|3:2,0:0:0:0:
484,116,172278,1,2,0:2:0:0:
405,216,172624,2,0,L|424:282,2,53.125001013279,2|2|2,0:2|3:2|0:2,0:0:0:0:
332,163,173145,2,0,B|281:170|281:170|269:178|269:178|210:185,1,106.250002026558,2|0,3:2|3:2,0:0:0:0:
151,139,173665,2,0,L|145:106,2,26.5625005066395,8|8|8,0:2|0:2|0:2,0:0:0:0:
91,196,174012,1,8,0:2:0:0:
91,196,174185,1,8,0:2:0:0:
80,288,174358,1,8,0:3:0:0:
142,345,174532,6,0,P|199:337|274:331,2,118.749996829033,6|8|2,3:2|0:2|3:2,0:0:0:0:
80,288,175399,1,0,3:2:0:0:
80,288,175572,2,0,L|59:222,1,59.3749984145165,8|0,0:2|3:2,0:0:0:0:
18,155,175919,2,0,L|39:89,1,59.3749984145165,2|0,3:2|3:2,0:0:0:0:
103,32,176266,1,8,0:2:0:0:
103,32,176439,1,0,3:2:0:0:
161,97,176613,2,0,L|224:80,1,59.3749984145165,2|0,3:2|3:2,0:0:0:0:
239,165,176960,2,0,L|181:180,1,59.3749984145165,10|0,0:2|3:2,0:0:0:0:
200,264,177306,6,0,L|325:230,1,118.749996829033,2|10,3:2|0:2,0:0:0:0:
385,181,177827,2,0,L|346:127,1,59.3749984145165,2|0,0:2|3:2,0:0:0:0:
366,53,178174,2,0,P|399:48|430:65,1,59.3749984145165,2|8,3:2|0:2,0:0:0:0:
489,126,178520,2,0,P|480:184|473:263,1,118.749996829033,2|0,0:2|3:2,0:0:0:0:
425,310,179041,1,8,0:2:0:0:
353,361,179214,2,0,L|294:347,1,59.3749984145165,0|0,3:2|3:2,0:0:0:0:
232,288,179561,1,0,3:2:0:0:
232,288,179734,2,0,L|169:303,1,59.3749984145165,8|0,0:2|3:2,0:0:0:0:
91,264,180081,6,0,P|84:190|121:149,2,118.749996829033,6|8|2,3:2|0:2|3:2,0:0:0:0:
171,315,180948,1,0,3:2:0:0:
171,315,181121,2,0,L|234:300,1,59.3749984145165,8|0,0:2|3:2,0:0:0:0:
290,228,181468,2,0,P|333:239|414:251,1,118.749996829033,2|8,3:2|0:2,0:0:0:0:
475,198,181989,1,0,3:2:0:0:
475,198,182162,2,0,P|471:165|456:141,1,59.3749984145165,2|0,3:2|3:2,0:0:0:0:
394,83,182509,2,0,P|361:87|337:102,1,59.3749984145165,10|0,0:2|3:2,0:0:0:0:
282,168,182856,6,0,B|211:166|235:115|155:123,1,118.749996829033,2|10,3:2|0:2,0:0:0:0:
108,57,183376,2,0,L|92:126,1,59.3749984145165,2|0,0:2|3:2,0:0:0:0:
28,199,183723,2,0,L|3:131,2,59.3749984145165,2|8|2,3:2|0:2|0:2,0:0:0:0:
106,259,184243,5,8,0:2:0:0:
106,259,184416,1,8,0:2:0:0:
30,327,184590,1,8,0:2:0:0:
108,376,184763,1,8,3:2:0:0:
236,291,185110,2,0,L|230:242,2,29.6874992072582,0|0|8,3:2|3:2|0:2,0:0:0:0:
282,365,185457,2,0,L|320:343,1,29.6874992072582,0|0,3:2|3:2,0:0:0:0:
333,318,185630,6,0,P|397:312|446:343,1,118.749996829033,6|8,3:2|0:2,0:0:0:0:
476,215,186324,2,0,L|456:158,1,59.3749984145165,2|0,3:2|3:2,0:0:0:0:
394,93,186671,1,8,0:2:0:0:
313,199,187017,2,0,B|300:221|300:221|254:243|208:200,1,118.749996829033,2|8,3:2|0:2,0:0:0:0:
46,98,187711,2,0,L|121:74,1,59.3749984145165,2|0,3:2|3:2,0:0:0:0:
181,43,188058,1,10,0:2:0:0:
118,178,188405,6,0,P|80:231|98:305,1,118.749996829033,2|10,3:2|0:2,0:0:0:0:
172,316,188925,2,0,L|193:252,1,59.3749984145165,2|0,0:2|3:2,0:0:0:0:
237,181,189272,2,0,L|218:124,1,59.3749984145165,2|8,3:2|0:2,0:0:0:0:
175,42,189619,1,2,0:2:0:0:
175,42,189792,2,0,P|49:90|76:285,1,356.249990487099,0|8,3:2|0:2,0:0:0:0:
139,131,191179,6,0,B|196:120|196:120|207:124|207:124|256:115,1,118.749996829033,6|8,3:2|0:2,0:0:0:0:
403,33,191873,2,0,L|452:77,1,59.3749984145165,2|0,3:2|3:2,0:0:0:0:
506,131,192220,1,8,0:2:0:0:
396,239,192567,6,0,B|339:250|339:250|328:246|328:246|279:255,1,118.749996829033,2|8,3:2|0:2,0:0:0:0:
153,348,193260,2,0,L|93:321,1,59.3749984145165,2|0,3:2|3:2,0:0:0:0:
28,371,193607,1,10,0:2:0:0:
31,209,193954,1,6,3:2:0:0:
162,260,194301,1,10,0:2:0:0:
118,183,194473,1,10,0:2:0:0:
24,43,194821,1,10,0:2:0:0:
145,59,195168,6,0,B|222:-5|314:47|268:75|370:126|440:55,1,296.874992072582,6|8,3:2|0:3,0:0:0:0:
475,139,196208,2,0,L|453:206,1,59.3749984145165,8|8,0:3|0:3,0:0:0:0:
394,255,196555,1,0,3:2:0:0:
326,204,196728,1,2,0:0:0:0:
88,109,202278,6,0,B|131:91|131:91|160:110|160:110|264:93,1,174.999994659424,2|2,3:2|3:2,0:0:0:0:
476,31,203665,2,0,P|464:73|442:214,1,174.999994659424,2|2,3:2|3:2,0:0:0:0:
314,342,205052,2,0,B|198:364|253:285|137:312,1,174.999994659424,2|2,3:2|3:2,0:0:0:0:
27,231,206439,2,0,P|58:102|174:133,1,262.499991989136,2|0,3:2|3:0,0:0:0:0:
272,207,207827,6,0,B|390:196|390:196|403:224|433:241,1,174.999994659424,2|2,3:2|3:2,0:0:0:0:
343,99,209214,2,0,B|225:88|225:88|212:116|182:133,1,174.999994659424,2|2,3:2|3:2,0:0:0:0:
62,235,210601,2,0,P|13:169|39:78,1,174.999994659424,2|2,3:2|3:2,0:0:0:0:
181,28,211989,2,0,P|230:94|204:185,1,174.999994659424,2|0,3:2|3:2,0:0:0:0:
56,155,213376,6,0,L|46:103,2,43.749998664856,2|0|0,3:2|3:0|3:0,0:0:0:0:
56,241,213896,1,2,3:2:0:0:
56,241,214069,1,0,3:0:0:0:
160,104,214416,2,0,L|150:52,2,43.749998664856,2|0|0,3:2|3:0|3:0,0:0:0:0:
160,190,214936,1,2,3:2:0:0:
160,190,215109,1,0,3:0:0:0:
247,295,215457,1,2,3:2:0:0:
357,211,215804,1,2,3:2:0:0:
454,300,216150,6,0,P|480:257|472:197,1,100,6|2,3:2|3:2,0:0:0:0:
422,150,216671,2,0,L|435:96,1,50,2|0,0:2|3:2,0:0:0:0:
382,32,217017,2,0,L|316:50,1,50,2|0,0:2|3:2,0:0:0:0:
274,116,217364,2,0,L|59:95,1,200,2|0,0:2|0:0,0:0:0:0:
8,42,218231,1,2,3:2:0:0:
29,190,218578,1,0,3:2:0:0:
58,332,218925,6,0,P|104:338|149:298,1,100,0|2,3:2|3:2,0:0:0:0:
175,231,219445,2,0,L|239:252,1,50,2|0,0:2|3:2,0:0:0:0:
282,302,219792,2,0,L|346:281,1,50,2|0,0:2|3:2,0:0:0:0:
394,223,220139,2,0,P|335:95|142:126,1,350,2|0,0:2|3:2,0:0:0:0:
109,187,221526,1,0,3:2:0:0:
34,142,221700,6,0,L|49:30,1,100,2|0,3:2|3:2,0:0:0:0:
131,4,222220,2,0,L|183:17,1,50,2|0,0:2|3:2,0:0:0:0:
244,74,222567,2,0,L|296:61,1,50,2|0,0:2|3:2,0:0:0:0:
367,104,222913,2,0,L|434:113,2,50,2|0|0,0:2|3:2|0:0,0:0:0:0:
304,157,223434,2,0,L|329:203,1,50,0|0,3:2|0:0,0:0:0:0:
392,256,223780,2,0,L|367:302,1,50,2|0,3:2|0:0,0:0:0:0:
283,340,224127,1,0,3:2:0:0:
232,244,224473,6,0,P|189:219|140:225,1,100,2|2,3:2|3:2,0:0:0:0:
89,300,224994,1,2,3:2:0:0:
11,243,225341,1,2,3:2:0:0:
89,77,225861,1,8,3:3:0:0:
192,220,226208,1,8,3:3:0:0:
103,180,226382,1,4,3:3:0:0:
468,348,238347,6,0,P|419:316|358:323,1,112.499996566773,0|2,3:0|3:2,0:0:0:0:
301,364,238867,2,0,L|227:353,1,56.2499982833863,2|0,2:0|3:2,0:0:0:0:
215,282,239214,2,0,L|270:273,1,56.2499982833863,2|0,2:0|3:2,0:0:0:0:
291,199,239561,2,0,L|235:190,1,56.2499982833863,2|0,2:0|3:2,0:0:0:0:
183,134,239908,2,0,L|127:142,1,56.2499982833863,2|0,2:0|3:2,0:0:0:0:
56,174,240254,2,0,P|67:222|74:309,1,112.499996566773,2|2,2:0|2:0,0:0:0:0:
194,383,240948,1,2,2:0:0:0:
247,316,241122,6,0,B|307:309|299:341|367:330,1,112.499996566773,2|2,3:2|3:2,0:0:0:0:
409,270,241642,2,0,L|428:207,1,56.2499982833863,2|0,3:2|0:0,0:0:0:0:
490,158,241989,2,0,L|473:104,1,56.2499982833863,2|0,3:2|3:2,0:0:0:0:
411,47,242335,1,2,2:0:0:0:
411,47,242509,2,0,B|384:44|352:55|352:55|337:84|306:104,1,112.499996566773,2|0,3:2|3:2,0:0:0:0:
259,160,243029,1,2,2:0:0:0:
259,160,243202,1,2,3:2:0:0:
136,75,243549,1,0,3:2:0:0:
51,178,243896,6,0,L|70:295,2,112.499996566773,2|2|2,3:2|3:2|3:2,0:0:0:0:
146,57,244937,1,2,3:2:0:0:
146,57,245110,2,0,L|212:71,1,56.2499982833863,2|0,3:2|0:0,0:0:0:0:
273,134,245457,1,2,3:2:0:0:
273,134,245630,2,0,L|339:120,1,56.2499982833863,2|2,3:2|3:2,0:0:0:0:
407,98,245977,1,2,0:2:0:0:
407,98,246150,1,2,3:2:0:0:
478,255,246497,1,0,3:2:0:0:
478,255,246671,6,0,L|465:332,1,56.2499982833863,2|0,0:3|0:0,0:0:0:0:
395,345,247017,2,0,L|382:268,1,56.2499982833863,2|0,0:3|0:0,0:0:0:0:
309,259,247364,2,0,L|296:336,1,56.2499982833863,2|0,0:3|0:0,0:0:0:0:
227,358,247711,2,0,L|214:281,1,56.2499982833863,2|0,0:3|0:0,0:0:0:0:
132,164,248231,1,8,0:0:0:0:
132,164,248405,1,8,0:0:0:0:
5,188,248752,1,12,3:2:0:0:
65,290,249098,6,0,L|84:323,3,28.1249991416931,10|8|10|8,0:2|0:2|0:2|0:2,0:0:0:0:
107,342,249445,6,0,P|162:355|226:324,1,125,6|10,3:2|0:0,0:0:0:0:
296,267,249965,2,0,L|325:333,1,62.5,2|0,0:0|3:2,0:0:0:0:
407,356,250312,2,0,L|412:289,1,62.5,2|8,3:2|0:0,0:0:0:0:
474,221,250659,6,0,P|456:156|441:88,1,125,2|2,3:2|3:2,0:0:0:0:
352,90,251179,1,8,0:0:0:0:
298,24,251353,2,0,L|237:42,1,62.5,2|0,0:2|3:2,0:0:0:0:
170,106,251699,2,0,L|111:83,1,62.5,2|8,3:2|0:0,0:0:0:0:
21,48,252046,1,2,3:2:0:0:
11,140,252219,6,0,L|30:208,1,62.5,2|0,3:2|0:0,0:0:0:0:
90,260,252566,1,10,0:0:0:0:
153,193,252739,2,0,L|220:200,1,62.5,2|0,0:0|3:2,0:0:0:0:
293,239,253087,2,0,B|360:254|360:254|419:214,1,125,2|2,3:2|3:2,0:0:0:0:
489,206,253607,6,0,P|506:276|476:348,1,125,2|8,3:2|0:0,0:0:0:0:
411,361,254127,1,2,0:0:0:0:
350,300,254301,2,0,B|273:283|302:330|218:319,1,125,0|8,3:2|0:0,0:0:0:0:
28,368,254994,6,0,P|36:310|43:231,1,125,2|8,3:2|0:2,0:0:0:0:
105,167,255514,1,2,0:2:0:0:
28,123,255687,2,0,L|45:60,1,62.5,2|2,3:2|3:2,0:0:0:0:
124,18,256034,2,0,L|139:78,1,62.5,10|0,0:2|3:2,0:0:0:0:
206,146,256381,6,0,P|265:162|334:128,1,125,2|10,3:2|0:2,0:0:0:0:
382,205,256901,2,0,L|374:285,1,62.5,2|0,3:2|3:2,0:0:0:0:
464,275,257248,2,0,L|472:195,1,62.5,2|8,3:2|0:2,0:0:0:0:
498,118,257595,1,2,3:2:0:0:
498,118,257768,1,2,3:2:0:0:
402,125,257942,6,0,P|330:123|288:90,1,125,2|0,0:2|0:0,0:0:0:0:
235,39,258462,1,2,3:2:0:0:
155,24,258635,2,0,L|84:49,1,62.5,2|8,3:2|0:2,0:0:0:0:
34,100,258982,1,2,3:2:0:0:
34,100,259156,5,10,0:2:0:0:
78,171,259329,1,10,0:2:0:0:
22,253,259502,1,10,0:2:0:0:
83,336,259676,1,10,0:2:0:0:
175,181,260023,5,2,3:2:0:0:
264,150,260197,2,0,L|258:114,3,31.25,8|0|2|0,0:2|3:2|3:2|3:2,0:0:0:0:
303,190,260543,6,0,P|291:271|290:329,1,125,6|10,3:2|0:0,0:0:0:0:
239,364,261063,2,0,L|221:299,1,62.5,2|0,0:0|3:2,0:0:0:0:
139,256,261410,2,0,L|161:179,1,62.5,2|8,3:2|0:0,0:0:0:0:
222,128,261757,6,0,P|293:93|334:120,2,125,2|2|2,3:2|3:2|0:2,0:0:0:0:
156,195,262624,1,0,3:2:0:0:
76,143,262797,2,0,L|59:79,1,62.5,2|8,3:2|0:0,0:0:0:0:
122,16,263145,1,2,3:2:0:0:
170,86,263318,6,0,B|235:76|231:114|303:91,1,125,2|10,3:2|0:0,0:0:0:0:
369,42,263838,2,0,P|390:70|397:108,1,62.5,2|0,0:0|3:2,0:0:0:0:
342,167,264184,2,0,L|374:252,1,62.5,2|8,3:2|0:0,0:0:0:0:
421,288,264531,1,2,3:2:0:0:
481,223,264705,6,0,B|489:167|489:167|484:148|484:148|496:88,1,125,2|8,3:2|0:0,0:0:0:0:
438,35,265225,1,2,3:2:0:0:
351,18,265399,2,0,L|284:32,1,62.5,2|0,3:2|3:0,0:0:0:0:
215,78,265745,1,8,0:2:0:0:
215,78,265919,1,0,3:0:0:0:
268,154,266092,6,0,B|265:207|265:207|261:221|261:221|257:281,2,125,6|10|2,3:2|0:2|3:2,0:0:0:0:
215,78,266959,1,0,3:2:0:0:
134,100,267132,1,10,0:2:0:0:
110,187,267306,2,0,L|147:317,1,125,10|10,0:2|0:2,0:0:0:0:
179,384,267826,1,10,0:2:0:0:
440,307,268347,6,0,L|505:288,2,62.5,2|10|2,3:2|0:3|1:2,0:0:0:0:
368,366,268867,6,0,P|300:358|240:357,1,125,4|2,3:2|3:2,0:0:0:0:
111,267,269561,1,0,3:2:0:0:
228,206,269908,2,0,L|289:226,1,62.5,0|0,3:2|1:2,0:0:0:0:
378,257,270254,2,0,L|396:187,1,62.5,0|0,3:2|1:2,0:0:0:0:
421,110,270601,2,0,L|405:49,1,62.5,0|0,3:2|3:2,0:0:0:0:
314,24,270948,2,0,L|301:104,1,62.5,8|8,0:2|0:2,0:0:0:0:
238,138,271295,2,0,L|252:198,1,62.5,8|8,0:2|0:2,0:0:0:0:
321,278,271642,6,0,L|356:248,2,31.25,0|0|8,0:2|0:0|0:2,0:0:0:0:
250,342,271989,2,0,L|259:376,2,31.25,8|8|8,0:2|0:2|0:2,0:0:0:0:
189,257,272335,2,0,L|167:236,2,31.25,8|8|8,0:2|0:2|0:2,0:0:0:0:
127,339,272682,2,0,L|125:372,2,31.25,8|8|8,0:2|0:2|0:2,0:0:0:0:
49,288,273029,2,0,L|62:212,1,62.5,8|8,0:2|0:2,0:0:0:0:
109,147,273376,2,0,L|95:66,1,62.5,8|8,0:2|0:2,0:0:0:0:
190,32,273723,1,8,0:2:0:0:
190,32,273896,1,8,0:2:0:0:
248,106,274069,1,10,0:3:0:0:
231,244,274416,6,0,B|278:249|307:183|358:210,2,137.500004196167,6|8|0,3:2|0:2|3:2,0:0:0:0:
143,194,275283,2,0,L|168:128,1,68.7500020980836,2|8,3:2|0:2,0:0:0:0:
250,62,275630,2,0,L|275:128,1,68.7500020980836,2|0,3:2|0:0,0:0:0:0:
333,211,275977,1,0,3:2:0:0:
333,211,276150,2,0,L|308:277,1,68.7500020980836,8|0,0:2|0:0,0:0:0:0:
264,350,276497,1,0,3:2:0:0:
191,300,276671,1,2,3:2:0:0:
129,360,276844,1,10,0:2:0:0:
48,314,277017,1,2,3:2:0:0:
48,314,277191,6,0,P|33:192|16:151,2,137.500004196167,6|10|2,3:2|0:2|3:2,0:0:0:0:
156,192,278231,1,10,0:2:0:0:
220,255,278405,2,0,P|313:253|348:201,1,137.500004196167,2|0,3:2|3:2,0:0:0:0:
381,146,278925,1,8,0:2:0:0:
381,146,279098,1,0,3:2:0:0:
293,90,279272,2,0,L|221:107,1,68.7500020980836,2|0,3:2|3:2,0:0:0:0:
150,180,279619,2,0,L|78:163,1,68.7500020980836,10|0,0:2|3:2,0:0:0:0:
19,95,279965,6,0,P|79:44|152:60,1,137.500004196167,6|8,3:2|0:2,0:0:0:0:
263,21,280659,2,0,L|331:33,1,68.7500020980836,2|0,3:2|3:2,0:0:0:0:
407,81,281006,1,8,0:2:0:0:
307,183,281353,2,0,L|239:195,1,68.7500020980836,2|0,0:2|3:2,0:0:0:0:
163,243,281700,1,10,0:2:0:0:
256,353,282046,2,0,P|323:337|402:334,1,137.500004196167,2|8,0:2|0:2,0:0:0:0:
475,293,282567,1,2,3:2:0:0:
419,228,282740,6,0,L|431:139,1,68.7500020980836,6|0,3:2|0:0,0:0:0:0:
481,93,283087,1,10,0:2:0:0:
402,42,283260,1,2,0:2:0:0:
329,105,283434,2,0,P|266:95|169:90,1,137.500004196167,0|8,3:2|0:2,0:0:0:0:
112,53,283954,1,2,3:2:0:0:
112,53,284127,5,8,0:2:0:0:
32,80,284301,1,8,0:2:0:0:
80,158,284474,1,8,0:2:0:0:
36,239,284648,1,8,0:2:0:0:
153,348,284994,2,0,L|149:395,2,34.3750010490418,0|0|8,3:2|3:2|0:2,0:0:0:0:
233,316,285341,2,0,L|254:271,1,34.3750010490418,2|0,3:2|3:2,0:0:0:0:
264,253,285515,6,0,P|269:199|205:144,1,137.500004196167,6|8,3:2|0:2,0:0:0:0:
76,112,286208,2,0,L|-4:154,2,68.7500020980836,0|2|8,3:2|3:2|0:2,0:0:0:0:
145,56,286728,1,2,3:2:0:0:
145,56,286902,2,0,P|219:47|287:92,1,137.500004196167,0|8,0:0|0:2,0:0:0:0:
308,166,287422,1,0,0:0:0:0:
382,117,287595,1,0,3:2:0:0:
443,182,287769,2,0,L|427:262,1,68.7500020980836,2|10,3:2|0:2,0:0:0:0:
359,314,288116,1,2,3:2:0:0:
285,254,288289,6,0,P|224:266|126:279,2,137.500004196167,6|10|2,3:2|0:2|3:2,0:0:0:0:
346,189,289156,1,0,3:2:0:0:
255,162,289330,2,0,L|265:86,1,68.7500020980836,10|2,0:2|3:2,0:0:0:0:
203,31,289676,2,0,P|133:27|96:96,1,137.500004196167,2|8,0:2|0:2,0:0:0:0:
136,156,290197,1,2,3:2:0:0:
71,217,290370,2,0,L|94:312,1,68.7500020980836,2|0,3:2|3:2,0:0:0:0:
179,356,290717,2,0,L|202:261,1,68.7500020980836,8|0,0:2|3:2,0:0:0:0:
228,192,291064,6,0,P|297:188|361:232,1,137.500004196167,6|8,3:2|0:2,0:0:0:0:
246,368,291757,2,0,L|162:353,1,68.7500020980836,2|0,3:2|3:2,0:0:0:0:
94,323,292104,1,8,0:2:0:0:
15,170,292451,2,0,P|71:129|141:158,1,137.500004196167,2|8,0:2|0:2,0:0:0:0:
205,195,292971,2,0,L|222:122,1,68.7500020980836,2|0,0:2|3:2,0:0:0:0:
310,70,293318,2,0,L|327:143,1,68.7500020980836,2|8,3:2|0:2,0:0:0:0:
381,203,293665,1,0,3:2:0:0:
345,283,293838,6,0,P|281:289|202:312,1,137.500004196167,6|8,3:2|0:2,0:0:0:0:
118,149,294532,2,0,P|131:175|138:215,1,68.7500020980836,2|0,3:2|3:2,0:0:0:0:
60,279,294879,2,0,P|47:305|40:345,1,68.7500020980836,10|0,0:2|3:2,0:0:0:0:
136,378,295226,2,0,P|198:362|278:367,1,137.500004196167,6|8,3:2|0:2,0:0:0:0:
359,380,295746,1,0,3:2:0:0:
438,339,295919,2,0,L|422:243,1,68.7500020980836,8|0,0:2|3:2,0:0:0:0:
419,230,296179,2,0,L|435:134,1,68.7500020980836,2|0,0:2|0:0,0:0:0:0:
417,112,296439,1,2,3:2:0:0:
327,144,296613,6,0,P|261:174|181:137,1,137.500004196167,6|10,3:2|0:2,0:0:0:0:
96,102,297133,2,0,L|18:119,2,68.7500020980836,2|0|0,0:2|3:2|3:2,0:0:0:0:
167,48,297653,1,8,0:2:0:0:
259,89,297827,2,0,L|316:96,2,34.3750010490418,8|8|8,0:2|0:2|0:2,0:0:0:0:
201,156,298174,2,0,L|144:163,2,34.3750010490418,0|0|8,3:2|3:2|0:2,0:0:0:0:
294,201,298520,2,0,L|351:208,2,34.3750010490418,8|8|10,0:2|0:2|0:2,0:0:0:0:
229,269,298867,2,0,L|194:273,3,34.3750010490418,8|8|8|8,0:2|0:2|0:2|0:2,0:0:0:0:
161,302,299214,2,0,L|99:281,1,34.3750010490418,8|8,0:2|0:2,0:0:0:0:
88,257,299387,6,0,P|70:190|111:126,1,137.500004196167,6|8,3:2|0:2,0:0:0:0:
203,79,299907,2,0,L|212:32,2,34.3750010490418,0|0|2,3:2|3:0|3:2,0:0:0:0:
287,152,300254,2,0,L|273:197,2,34.3750010490418,0|0|10,3:2|3:0|0:2,0:0:0:0:
361,58,300601,2,0,L|419:71,1,34.3750010490418,0|0,3:2|3:2,0:0:0:0:
427,96,300775,6,0,L|463:236,1,137.500004196167,14|0,3:2|0:0,0:0:0:0:
401,351,301295,2,0,L|366:217,1,137.500004196167,14|2,3:2|0:2,0:0:0:0:
284,62,301989,1,2,0:2:0:0:
284,62,302162,1,2,0:2:0:0:
256,192,302249,12,0,304937,0:0:0:0:
