osu file format v14

[General]
AudioFilename: audio.mp3
AudioLeadIn: 0
PreviewTime: 57584
Countdown: 0
SampleSet: Soft
StackLeniency: 0.5
Mode: 0
LetterboxInBreaks: 0
WidescreenStoryboard: 0

[Editor]
Bookmarks: 7847,17952,28057,38163,48268,58215,68320,81110,91215,101320,111426,121531,131794,141584,154215,159268,169531,179636,189584,199847,209951,218794,230004,243425,253530
DistanceSpacing: 0.7
BeatDivisor: 4
GridSize: 32
TimelineZoom: 2.5

[Metadata]
Title:Senjou no Utahime
TitleUnicode:戦場の歌姫
Artist:La priere
ArtistUnicode:La prière
Creator:Hinsvar
Version:Valkyrie
Source:
Tags:らぷりえーる Diva of the battlefield 棗いつき Natsume Itsuki 藍月なくる Aitsuki Nakuru なゆた nayuta Galaxy Triangle かそかそ Kasokaso Prismagic Japanese Pop J-Pop JPop Rock J-Rock JRock
BeatmapID:2885693
BeatmapSetID:1398580

[Difficulty]
HPDrainRate:6
CircleSize:3.3
OverallDifficulty:9
ApproachRate:9.3
SliderMultiplier:1.84
SliderTickRate:1

[Events]
//Background and Video events
0,0,"utahime.jpg",0,0
//Break Periods
2,81310,88135
2,179836,199293
//Storyboard Layer 0 (Background)
//Storyboard Layer 1 (Fail)
//Storyboard Layer 2 (Pass)
//Storyboard Layer 3 (Foreground)
//Storyboard Layer 4 (Overlay)
//Storyboard Sound Samples

[TimingPoints]
-2258,315.789473684211,4,2,1,65,1,0
7847,-100,4,2,1,75,0,0
10136,-100,4,2,1,5,0,0
10215,-100,4,2,1,75,0,0
10373,-166.666666666667,4,2,1,75,0,0
10689,-100,4,2,1,75,0,0
11005,-71.4285714285714,4,2,1,75,0,0
11320,-166.666666666667,4,2,1,75,0,0
11399,-166.666666666667,4,2,1,5,0,0
11478,-50,4,2,1,75,0,0
11715,-50,4,2,1,5,0,0
11794,-50,4,2,1,75,0,0
12110,-62.5,4,2,1,75,0,0
12189,-62.5,4,2,1,5,0,0
12268,-62.5,4,2,1,75,0,0
12742,-83.3333333333333,4,2,1,75,0,0
13136,-83.3333333333333,4,2,1,5,0,0
13215,-83.3333333333333,4,2,1,75,0,0
14005,-100,4,2,1,75,0,0
14557,-100,4,2,1,5,0,0
14636,-55.5555555555556,4,2,1,75,0,0
14715,-55.5555555555556,4,2,1,5,0,0
14794,-62.5,4,2,1,75,0,0
15426,-125,4,2,1,75,0,0
15505,-125,4,2,1,5,0,0
15584,-125,4,2,1,75,0,0
15899,-62.5,4,2,1,75,0,0
15978,-62.5,4,2,1,5,0,0
16057,-62.5,4,2,1,75,0,0
16373,-50,4,2,1,75,0,0
16452,-50,4,2,1,5,0,0
16531,-50,4,2,1,75,0,0
16847,-50,4,2,1,5,0,0
16926,-50,4,2,1,75,0,0
17084,-50,4,2,1,5,0,0
17952,-90.9090909090909,4,2,1,65,0,0
18584,-125,4,2,1,65,0,0
19926,-125,4,2,1,5,0,0
20005,-125,4,2,1,65,0,0
20242,-125,4,2,1,5,0,0
20320,-90.9090909090909,4,2,1,65,0,0
20399,-90.9090909090909,4,2,1,5,0,0
20478,-90.9090909090909,4,2,1,65,0,0
20952,-125,4,2,1,65,0,0
21189,-125,4,2,1,5,0,0
21268,-125,4,2,1,65,0,0
22452,-125,4,2,1,5,0,0
22531,-125,4,2,1,65,0,0
22610,-125,4,2,1,5,0,0
22689,-125,4,2,1,65,0,0
22926,-125,4,2,1,5,0,0
23005,-90.9090909090909,4,2,1,65,0,0
23478,-125,4,2,1,65,0,0
24978,-125,4,2,1,5,0,0
25057,-125,4,2,1,65,0,0
25531,-90.9090909090909,4,2,1,65,0,0
26242,-90.9090909090909,4,2,1,5,0,0
26320,-90.9090909090909,4,2,1,65,0,0
26399,-90.9090909090909,4,2,1,5,0,0
26478,-90.9090909090909,4,2,1,65,0,0
28057,-100,4,2,1,70,0,0
30031,-100,4,2,1,5,0,0
30110,-100,4,2,1,70,0,0
31294,-100,4,2,1,5,0,0
31373,-100,4,2,1,70,0,0
32715,-100,4,2,1,5,0,0
32794,-100,4,2,1,70,0,0
33031,-100,4,2,1,5,0,0
33110,-100,4,2,1,70,0,0
35478,-66.6666666666667,4,2,1,70,0,0
36189,-66.6666666666667,4,2,1,5,0,0
36584,-66.6666666666667,4,2,1,70,0,0
36663,-66.6666666666667,4,2,1,5,0,0
37057,-50,4,2,1,70,0,0
37136,-50,4,2,1,5,0,0
37531,-50,4,2,1,70,0,0
37610,-50,4,2,1,5,0,0
37689,-50,4,2,1,65,0,0
38163,-166.666666666667,4,2,1,55,0,0
45110,-166.666666666667,4,2,1,65,0,0
45268,-166.666666666667,4,2,1,55,0,0
47952,-125,4,2,1,55,0,0
48189,-125,4,2,1,5,0,0
48268,-125,4,2,1,65,0,0
53320,-166.666666666667,4,2,1,65,0,0
54584,-125,4,2,1,65,0,0
55768,-125,4,2,1,5,0,0
55847,-125,4,2,1,75,0,0
56320,-83.3333333333333,4,2,1,75,0,0
56794,-62.5,4,2,1,75,0,0
58215,-62.5,4,2,1,85,0,1
58452,-62.5,4,2,1,5,0,1
58531,-62.5,4,2,1,85,0,1
58926,-62.5,4,2,1,5,0,1
59005,-62.5,4,2,1,85,0,1
59557,-62.5,4,2,1,5,0,1
59636,-62.5,4,2,1,85,0,1
60268,-62.5,4,2,1,85,0,0
60347,-62.5,4,2,1,5,0,0
60426,-62.5,4,2,1,85,0,0
60505,-62.5,4,2,1,5,0,0
60742,-83.3333333333333,4,2,1,85,0,1
62242,-83.3333333333333,4,2,1,5,0,1
62320,-83.3333333333333,4,2,1,85,0,1
63426,-90.9090909090909,4,2,1,85,0,1
65794,-83.3333333333333,4,2,1,85,0,1
66899,-100,4,2,1,85,0,1
67136,-100,4,2,1,5,0,1
67215,-100,4,2,1,85,0,1
67847,-62.5,4,2,1,85,0,0
67926,-62.5,4,2,1,5,0,0
68005,-62.5,4,2,1,85,0,0
68084,-62.5,4,2,1,5,0,0
68320,-62.5,4,2,1,85,0,1
68399,-62.5,4,2,1,5,0,1
68478,-62.5,4,2,1,85,0,1
69663,-62.5,4,2,1,5,0,1
69742,-62.5,4,2,1,85,0,1
70373,-62.5,4,2,1,85,0,0
70452,-62.5,4,2,1,5,0,0
70531,-62.5,4,2,1,85,0,0
70610,-62.5,4,2,1,5,0,0
70847,-83.3333333333333,4,2,1,85,0,1
72347,-83.3333333333333,4,2,1,5,0,1
72426,-83.3333333333333,4,2,1,85,0,1
72663,-83.3333333333333,4,2,1,5,0,1
72742,-83.3333333333333,4,2,1,85,0,1
72820,-83.3333333333333,4,2,1,5,0,1
73057,-83.3333333333333,4,2,1,85,0,1
73136,-83.3333333333333,4,2,1,5,0,1
73373,-111.111111111111,4,2,1,85,0,1
75899,-90.9090909090908,4,2,1,85,0,1
77320,-90.9090909090909,4,2,1,85,0,0
78584,-200,4,2,1,65,0,0
80557,-200,4,2,1,5,0,0
80636,-200,4,2,1,65,0,0
80794,-125,4,2,1,65,0,0
81031,-125,4,2,1,5,0,0
81110,-100,4,2,1,75,0,1
81189,-100,4,2,1,75,0,0
88689,-125,4,2,1,75,0,0
88768,-125,4,2,1,5,0,0
88847,-125,4,2,1,75,0,0
89163,-83.3333333333333,4,2,1,75,0,0
89242,-83.3333333333333,4,2,1,5,0,0
89320,-83.3333333333333,4,2,1,75,0,0
89636,-62.5,4,2,1,75,0,0
89715,-62.5,4,2,1,5,0,0
89794,-62.5,4,2,1,75,0,0
90110,-50,4,2,1,75,0,0
90189,-50,4,2,1,5,0,0
90268,-50,4,2,1,75,0,0
90584,-41.6666666666667,4,2,1,75,0,0
90663,-41.6666666666667,4,2,1,5,0,0
90742,-41.6666666666667,4,2,1,75,0,0
91215,-62.5,4,2,1,75,0,0
91373,-62.5,4,2,1,5,0,0
91452,-62.5,4,2,1,75,0,0
91610,-62.5,4,2,1,5,0,0
92320,-166.666666666667,4,2,1,65,0,0
92715,-166.666666666667,4,2,1,5,0,0
92794,-166.666666666667,4,2,1,65,0,0
93110,-100,4,2,1,65,0,0
93189,-100,4,2,1,5,0,0
93268,-100,4,2,1,65,0,0
93347,-100,4,2,1,5,0,0
93584,-100,4,2,1,65,0,0
93742,-62.5,4,2,1,75,0,0
93899,-62.5,4,2,1,5,0,0
93978,-62.5,4,2,1,75,0,0
94136,-62.5,4,2,1,5,0,0
94215,-166.666666666667,4,2,1,65,0,0
96268,-62.5,4,2,1,75,0,0
96426,-62.5,4,2,1,5,0,0
96505,-62.5,4,2,1,75,0,0
96663,-62.5,4,2,1,5,0,0
96742,-166.666666666667,4,2,1,65,0,0
97294,-166.666666666667,4,2,1,5,0,0
97373,-166.666666666667,4,2,1,65,0,0
98794,-100,4,2,1,65,0,0
99031,-100,4,2,1,5,0,0
99110,-100,4,2,1,55,0,0
100057,-100,4,2,1,65,0,0
101320,-100,4,2,1,70,0,0
105978,-100,4,2,1,5,0,0
106057,-100,4,2,1,70,0,0
106294,-100,4,2,1,5,0,0
106373,-100,4,2,1,70,0,0
108742,-66.6666666666667,4,2,1,70,0,0
109373,-66.6666666666667,4,2,1,70,0,0
109452,-66.6666666666667,4,2,1,5,0,0
109847,-66.6666666666667,4,2,1,70,0,0
109926,-66.6666666666667,4,2,1,5,0,0
110320,-50,4,2,1,70,0,0
110399,-50,4,2,1,5,0,0
110794,-50,4,2,1,70,0,0
110873,-50,4,2,1,5,0,0
110952,-50,4,2,1,65,0,0
111426,-166.666666666667,4,2,1,55,0,0
121215,-125,4,2,1,55,0,0
121452,-125,4,2,1,5,0,0
121531,-125,4,2,1,65,0,0
126584,-166.666666666667,4,2,1,65,0,0
127847,-125,4,2,1,65,0,0
129031,-125,4,2,1,5,0,0
129110,-125,4,2,1,75,0,0
129584,-83.3333333333333,4,2,1,75,0,0
130057,-62.5,4,2,1,75,0,0
131794,-62.5,4,2,1,85,0,1
131873,-62.5,4,2,1,5,0,1
131952,-62.5,4,2,1,85,0,1
132820,-62.5,4,2,1,5,0,1
132899,-62.5,4,2,1,85,0,1
133531,-62.5,4,2,1,85,0,0
133610,-62.5,4,2,1,5,0,0
133689,-62.5,4,2,1,85,0,0
133768,-62.5,4,2,1,5,0,0
134005,-83.3333333333333,4,2,1,85,0,1
135505,-83.3333333333333,4,2,1,5,0,1
135584,-83.3333333333333,4,2,1,85,0,1
136689,-90.9090909090909,4,2,1,85,0,1
139057,-83.3333333333333,4,2,1,85,0,1
140163,-100,4,2,1,85,0,1
140399,-100,4,2,1,5,0,1
140478,-100,4,2,1,85,0,1
141110,-62.5,4,2,1,85,0,0
141189,-62.5,4,2,1,5,0,0
141268,-62.5,4,2,1,85,0,0
141347,-62.5,4,2,1,5,0,0
141584,-62.5,4,2,1,85,0,1
141820,-62.5,4,2,1,5,0,1
141899,-83.3333333333333,4,2,1,85,0,1
142057,-83.3333333333333,4,2,1,5,0,1
142136,-125,4,2,1,85,0,1
142294,-125,4,2,1,5,0,1
142373,-62.5,4,2,1,85,0,1
142531,-62.5,4,2,1,5,0,1
142610,-83.3333333333333,4,2,1,85,0,1
142768,-83.3333333333333,4,2,1,5,0,1
142847,-50,4,2,1,85,0,1
143084,-50,4,2,1,5,0,1
143163,-50,4,2,1,85,0,1
143636,-62.5,4,2,1,85,0,0
143715,-62.5,4,2,1,5,0,0
143794,-62.5,4,2,1,85,0,0
143873,-62.5,4,2,1,5,0,0
144110,-83.3333333333333,4,2,1,85,0,1
145610,-83.3333333333333,4,2,1,5,0,1
145689,-83.3333333333333,4,2,1,85,0,1
145926,-83.3333333333333,4,2,1,5,0,1
146005,-83.3333333333333,4,2,1,85,0,1
146084,-83.3333333333333,4,2,1,5,0,1
146320,-83.3333333333333,4,2,1,85,0,1
146399,-83.3333333333333,4,2,1,5,0,1
146636,-111.111111111111,4,2,1,85,0,1
149163,-90.9090909090908,4,2,1,85,0,1
150584,-90.9090909090909,4,2,1,85,0,0
152005,-200,4,2,1,65,0,0
153978,-200,4,2,1,5,0,0
154057,-200,4,2,1,65,0,0
154215,-71.4285714285714,4,2,1,75,0,1
154294,-71.4285714285714,4,2,1,75,0,0
154452,-71.4285714285714,4,2,1,5,0,0
154531,-71.4285714285714,4,2,1,75,0,0
154847,-142.857142857143,4,2,1,75,0,0
155084,-142.857142857143,4,2,1,5,0,0
155163,-142.857142857143,4,2,1,75,0,0
155478,-71.4285714285714,4,2,1,75,0,0
155715,-71.4285714285714,4,2,1,5,0,0
155794,-71.4285714285714,4,2,1,75,0,0
156110,-142.857142857143,4,2,1,75,0,0
156347,-142.857142857143,4,2,1,75,0,0
156426,-142.857142857143,4,2,1,75,0,0
156742,-71.4285714285715,4,2,1,75,0,0
156978,-71.4285714285715,4,2,1,5,0,0
157057,-62.5,4,2,1,75,0,0
157136,-62.5,4,2,1,5,0,0
157215,-71.4285714285714,4,2,1,75,0,0
157294,-71.4285714285714,4,2,1,5,0,0
157373,-83.3333333333333,4,2,1,75,0,0
157452,-83.3333333333333,4,2,1,5,0,0
157531,-100,4,2,1,75,0,0
157610,-100,4,2,1,5,0,0
157689,-100,4,2,1,75,0,0
157847,-125,4,2,1,75,0,0
157926,-125,4,2,1,5,0,0
158005,-83.3333333333333,4,2,1,75,0,0
158242,-83.3333333333333,4,2,1,5,0,0
158320,-166.666666666667,4,2,1,50,0,0
159110,-100,4,2,1,60,0,0
159189,-100,4,2,1,5,0,0
159268,-100,4,2,1,70,0,0
162663,-100,4,2,1,5,0,0
162742,-100,4,2,1,70,0,0
164399,-100,4,2,1,5,0,0
164478,-100,4,2,1,70,0,0
164557,-100,4,2,1,5,0,0
164636,-100,4,2,1,70,0,0
164715,-100,4,2,1,5,0,0
164794,-100,4,2,1,70,0,0
166452,-100,4,2,1,5,0,0
166531,-100,4,2,1,70,0,0
166610,-100,4,2,1,5,0,0
166689,-100,4,2,1,70,0,0
168505,-100,4,2,1,5,0,0
168584,-71.4285714285714,4,2,1,70,0,0
169373,-100,4,2,1,70,0,0
169452,-142.857142857143,4,2,1,5,0,0
169531,-100,4,2,1,75,0,0
174268,-83.3333333333333,4,2,1,75,0,0
174505,-83.3333333333333,4,2,1,5,0,0
174584,-100,4,2,1,75,0,0
176873,-100,4,2,1,5,0,0
176952,-125,4,2,1,75,0,0
179005,-125,4,2,1,65,0,0
179636,-142.857142857143,4,2,1,60,0,0
209952,-125,4,2,1,60,0,0
214215,-125,4,2,1,70,0,0
214768,-125,4,2,1,5,0,0
214847,-83.3333333333333,4,2,1,85,0,1
218794,-83.3333333333333,4,2,1,85,0,0
220215,-83.3333333333333,4,2,1,75,0,0
221163,-83.3333333333333,4,2,1,55,0,0
221952,-62.5,4,2,1,75,0,0
222031,-62.5,4,2,1,5,0,0
222110,-62.5,4,2,1,75,0,0
222189,-62.5,4,2,1,5,0,0
222899,-83.3333333333333,4,2,1,75,0,0
223136,-83.3333333333333,4,2,1,5,0,0
223215,-83.3333333333333,4,2,1,75,0,0
223689,-83.3333333333333,4,2,1,85,0,1
225110,-90.9090909090909,4,2,1,85,0,1
227478,-83.3333333333333,4,2,1,85,0,1
228584,-100,4,2,1,85,0,1
228820,-100,4,2,1,5,0,1
228899,-100,4,2,1,85,0,1
229531,-62.5,4,2,1,85,0,0
229610,-62.5,4,2,1,5,0,0
229689,-62.5,4,2,1,85,0,0
229768,-62.5,4,2,1,5,0,0
230005,-62.5,4,2,1,85,0,1
230242,-62.5,4,2,1,5,0,1
230320,-62.5,4,2,1,85,0,1
230557,-125,4,2,1,85,0,1
230794,-62.5,4,2,1,85,0,1
231031,-125,4,2,1,85,0,1
231268,-62.5,4,2,1,85,0,1
231347,-62.5,4,2,1,5,0,1
231426,-62.5,4,2,1,85,0,1
232057,-62.5,4,2,1,85,0,0
232136,-62.5,4,2,1,5,0,0
232215,-62.5,4,2,1,85,0,0
232294,-62.5,4,2,1,5,0,0
232531,-83.3333333333333,4,2,1,85,0,1
234031,-83.3333333333333,4,2,1,5,0,1
234110,-83.3333333333333,4,2,1,85,0,1
234347,-83.3333333333333,4,2,1,5,0,1
234426,-83.3333333333333,4,2,1,85,0,1
234505,-83.3333333333333,4,2,1,5,0,1
234742,-83.3333333333333,4,2,1,85,0,1
234820,-83.3333333333333,4,2,1,5,0,1
235057,-111.111111111111,4,2,1,85,0,1
237584,-90.9090909090908,4,2,1,85,0,1
239005,-90.9090909090909,4,2,1,85,0,0
240268,-200,4,2,1,70,0,0
243110,-125,4,2,1,70,0,0
243347,-125,4,2,1,5,0,0
243425,315.789473684211,4,2,1,75,1,1
243503,-100,4,2,1,75,0,0
245714,-100,4,2,1,5,0,0
245793,-100,4,2,1,75,0,0
245951,-166.666666666667,4,2,1,75,0,0
246267,-100,4,2,1,75,0,0
246582,-71.4285714285714,4,2,1,75,0,0
246898,-166.666666666667,4,2,1,75,0,0
246977,-166.666666666667,4,2,1,5,0,0
247056,-50,4,2,1,75,0,0
247293,-50,4,2,1,5,0,0
247372,-50,4,2,1,75,0,0
247688,-62.5,4,2,1,75,0,0
247767,-62.5,4,2,1,5,0,0
247846,-62.5,4,2,1,75,0,0
248319,-83.3333333333333,4,2,1,75,0,0
248714,-83.3333333333333,4,2,1,5,0,0
248793,-83.3333333333333,4,2,1,75,0,0
249582,-100,4,2,1,75,0,0
250135,-100,4,2,1,5,0,0
250214,-55.5555555555556,4,2,1,75,0,0
250293,-55.5555555555556,4,2,1,5,0,0
250372,-62.5,4,2,1,75,0,0
251003,-125,4,2,1,75,0,0
251082,-125,4,2,1,5,0,0
251161,-125,4,2,1,75,0,0
251477,-90.9090909090909,4,2,1,75,0,0
251556,-90.9090909090909,4,2,1,5,0,0
251635,-90.9090909090909,4,2,1,75,0,0
251951,-71.4285714285714,4,2,1,75,0,0
252030,-71.4285714285714,4,2,1,5,0,0
252109,-71.4285714285714,4,2,1,75,0,0
252425,-58.8235294117647,4,2,1,75,0,0
252503,-58.8235294117647,4,2,1,5,0,0
252582,-58.8235294117647,4,2,1,75,0,0
252898,-50,4,2,1,75,0,0
252977,-50,4,2,1,5,0,0
253056,-50,4,2,1,75,0,0
253214,-166.666666666667,4,2,1,75,0,0
253451,-166.666666666667,4,2,1,5,0,0
253530,-41.6666666666667,4,2,1,75,0,0
253688,-41.6666666666667,4,2,1,5,0,0
253767,-41.6666666666667,4,2,1,75,0,0
253925,-41.6666666666667,4,2,1,5,0,0

[Colours]
Combo1 : 234,68,118
Combo2 : 231,187,54
Combo3 : 98,243,247

[HitObjects]
256,192,5478,12,8,7531,0:0:0:0:
73,74,7847,5,6,0:0:0:0:
146,332,8005,1,2,0:0:0:0:
157,287,8084,1,2,0:0:0:0:
168,242,8163,1,10,0:0:0:0:
338,113,8320,1,2,0:0:0:0:
382,100,8399,1,2,0:0:0:0:
426,87,8478,2,0,L|414:190,1,92,2|0,3:2|0:0,0:0:0:0:
488,238,8715,1,0,0:0:0:0:
491,219,8794,1,8,0:0:0:0:
285,321,8952,6,0,B|234:302|194:333|201:344|159:375|110:348,1,184,2|0,0:0|0:0,0:0:0:0:
101,249,9347,1,2,0:0:0:0:
139,268,9426,1,10,0:0:0:0:
363,364,9584,1,0,0:0:0:0:
380,357,9663,1,0,0:0:0:0:
396,348,9742,2,0,P|408:312|407:245,1,92,2|2,3:2|0:0,0:0:0:0:
299,39,9978,1,2,0:0:0:0:
277,79,10057,2,0,L|290:139,1,46,8|0,0:0|0:0,0:0:0:0:
177,292,10215,1,0,0:0:0:0:
159,298,10294,1,0,0:0:0:0:
141,304,10373,6,0,L|71:288,1,55.1999983154297,2|0,3:2|0:0,0:0:0:0:
201,198,10610,1,0,0:0:0:0:
164,198,10689,2,0,L|109:111,1,92,10|0,0:0|0:0,0:0:0:0:
354,130,10926,1,0,0:0:0:0:
306,159,11005,2,0,L|281:28,1,128.799996069336,2|0,3:2|0:0,0:0:0:0:
477,77,11242,1,0,0:0:0:0:
466,61,11320,2,0,L|450:105,1,27.5999991577149,8|0,0:0|0:0,0:0:0:0:
507,279,11478,6,0,P|364:291|234:362,1,276,6|0,3:2|0:0,0:0:0:0:
81,375,11794,1,8,0:0:0:0:
45,354,11873,1,8,0:0:0:0:
17,308,11952,1,8,0:0:0:0:
35,228,12031,1,8,0:0:0:0:
98,166,12110,2,0,P|135:173|179:189,1,73.6,6|0,3:2|0:0,0:0:0:0:
336,343,12268,5,10,0:0:0:0:
422,356,12347,1,2,0:0:0:0:
486,297,12426,1,2,0:0:0:0:
506,226,12505,1,2,0:0:0:0:
490,161,12584,1,10,0:0:0:0:
450,117,12663,1,2,0:0:0:0:
397,97,12742,6,0,P|277:151|249:284,1,275.999991577149,6|0,3:2|0:0,0:0:0:0:
185,372,13215,2,0,P|173:318|116:292,1,110.399996630859,10|0,0:0|0:0,0:0:0:0:
42,329,13452,1,0,0:0:0:0:
66,358,13531,1,2,3:2:0:0:
236,258,13689,1,0,0:0:0:0:
254,262,13768,1,0,0:0:0:0:
272,266,13847,1,8,0:0:0:0:
480,181,14005,6,0,P|475:115|368:10,1,184,2|0,0:0|0:0,0:0:0:0:
306,71,14399,1,0,0:0:0:0:
311,88,14478,2,0,P|335:98|360:100,1,46,8|0,0:0|0:0,0:0:0:0:
433,261,14636,2,0,P|388:274|338:297,1,82.7999974731446,2|0,0:0|0:0,0:0:0:0:
146,378,14794,6,0,P|92:348|68:245,1,147.2,2|0,3:2|0:0,0:0:0:0:
190,65,15110,1,10,0:0:0:0:
199,108,15189,1,2,0:0:0:0:
208,151,15268,1,2,0:0:0:0:
315,322,15426,6,0,L|364:331,1,36.8,6|0,3:2|0:0,0:0:0:0:
475,209,15584,1,8,0:0:0:0:
477,221,15663,1,8,0:0:0:0:
478,232,15742,1,8,0:0:0:0:
481,244,15820,1,8,0:0:0:0:
464,268,15899,6,0,L|385:254,1,73.6,6|0,3:2|0:0,0:0:0:0:
176,359,16057,1,8,0:0:0:0:
168,315,16136,1,8,0:0:0:0:
160,271,16215,1,8,0:0:0:0:
152,227,16294,1,8,0:0:0:0:
186,186,16373,6,0,L|282:174,1,92,6|0,3:2|0:0,0:0:0:0:
478,69,16531,1,10,0:0:0:0:
396,44,16610,1,10,0:0:0:0:
312,32,16689,6,0,P|191:50|100:77,1,184,6|0,3:2|0:0,0:0:0:0:
62,178,16926,2,0,P|133:119|210:70,1,184,6|0,3:2|0:0,0:0:0:0:
283,114,17952,6,0,P|301:190|320:328,1,202.400006176758,6|8,3:2|0:0,0:0:0:0:
166,384,18426,1,0,0:0:0:0:
55,188,18584,5,2,3:2:0:0:
107,289,18742,2,0,L|32:273,1,73.6,0|0,3:0|0:0,0:0:0:0:
270,342,19057,2,0,B|325:332|325:332|357:309|357:309|419:299,1,147.2,10|0,0:0|0:0,3:0:0:0:
499,142,19531,1,8,0:0:0:0:
479,164,19768,1,0,0:0:0:0:
476,174,19847,2,0,L|428:164,1,36.8,2|0,3:2|0:0,0:0:0:0:
326,255,20005,2,0,L|272:153,1,110.4,0|0,3:0|0:0,0:0:0:0:
261,21,20320,6,0,L|248:76,1,50.6000015441895,8|0,0:0|0:0,0:0:0:0:
121,215,20478,2,0,L|22:241,1,101.200003088379,2|0,3:2|0:0,0:0:0:0:
46,71,20794,1,8,0:0:0:0:
202,155,20952,5,0,3:0:0:0:
206,165,21031,1,0,3:0:0:0:
210,175,21110,2,0,L|256:183,1,36.8,2|0,3:2|0:0,0:0:0:0:
300,342,21268,2,0,P|312:300|312:245,1,73.6,0|0,3:0|0:0,0:0:0:0:
462,146,21584,2,0,B|460:88|460:88|431:30,1,110.4,10|0,0:0|0:0,0:0:0:0:
361,15,21899,1,0,3:0:0:0:
152,83,22057,1,8,0:0:0:0:
170,48,22294,1,0,0:0:0:0:
173,58,22373,2,0,L|224:72,1,36.8,2|0,3:2|0:0,0:0:0:0:
319,111,22531,2,0,L|283:120,1,36.8,0|0,3:0|0:0,0:0:0:0:
161,267,22689,2,0,L|98:387,1,110.4,8|0,0:0|0:0,0:0:0:0:
58,273,23005,5,2,3:2:0:0:
222,362,23163,1,0,0:0:0:0:
396,167,23320,1,8,0:0:0:0:
477,341,23478,5,2,3:2:0:0:
475,351,23557,1,0,3:0:0:0:
473,361,23636,1,0,3:0:0:0:
327,306,23794,2,0,P|319:271|315:228,1,73.6,0|0,3:0|0:0,0:0:0:0:
138,86,24110,2,0,B|201:108|201:108|211:117|211:117|276:136,1,147.2,10|0,0:0|3:0,0:0:0:0:
485,18,24584,1,8,0:0:0:0:
457,35,24820,1,0,0:0:0:0:
461,44,24899,2,0,P|481:49|505:57,1,36.8,2|0,3:2|0:0,0:0:0:0:
368,176,25057,2,0,P|371:137|383:92,1,73.6,0|0,3:0|0:0,0:0:0:0:
236,22,25373,1,8,0:0:0:0:
60,195,25531,6,0,P|142:138|262:115,1,202.400006176758,2|8,3:2|0:0,0:0:0:0:
396,195,26005,1,2,3:2:0:0:
409,202,26084,1,0,3:0:0:0:
422,209,26163,2,0,L|411:151,1,50.6000015441895,0|0,3:0|0:0,0:0:0:0:
284,219,26320,2,0,L|273:277,1,50.6000015441895,0|0,3:0|0:0,0:0:0:0:
71,376,26478,1,10,0:0:0:0:
22,191,26636,1,0,3:0:0:0:
65,204,26715,1,0,3:0:0:0:
108,217,26794,5,10,0:0:0:0:
190,275,26952,1,0,3:0:0:0:
228,368,27110,1,0,3:0:0:0:
489,156,27268,5,10,0:0:0:0:
403,210,27426,1,0,3:0:0:0:
377,308,27584,1,0,3:0:0:0:
157,127,27742,5,10,0:0:0:0:
376,11,27899,1,8,0:0:0:0:
343,43,27978,1,8,0:0:0:0:
324,87,28057,6,0,P|311:142|286:292,1,184,6|8,3:2|0:0,0:0:0:0:
155,376,28531,1,0,0:0:0:0:
0,250,28689,1,2,3:2:0:0:
152,118,28847,1,0,3:0:0:0:
150,131,28926,1,0,3:0:0:0:
149,145,29005,1,8,0:0:0:0:
27,64,29163,6,0,P|68:33|120:34,1,92,2|0,3:2|0:0,0:0:0:0:
294,186,29478,2,0,P|253:217|201:216,1,92,0|8,3:0|0:0,0:0:0:0:
19,310,29794,1,0,3:0:0:0:
22,323,29873,1,0,3:0:0:0:
25,336,29952,2,0,L|81:347,1,46,0|0,3:0|0:0,0:0:0:0:
230,307,30110,2,0,L|318:371,1,92,2|8,3:2|0:0,0:0:0:0:
188,132,30426,1,0,3:0:0:0:
394,38,30584,6,0,P|442:15|490:6,2,92,2|0|8,3:2|0:0|0:0,0:0:0:0:
269,178,31057,1,0,0:0:0:0:
273,164,31136,1,0,0:0:0:0:
277,150,31215,2,0,L|267:92,1,46,2|0,3:2|0:0,0:0:0:0:
112,15,31373,2,0,P|104:60|77:108,1,92,0|8,3:0|0:0,0:0:0:0:
213,281,31689,6,0,P|124:305|35:362,1,184,2|0,3:2|0:0,0:0:0:0:
105,193,32163,1,8,0:0:0:0:
269,31,32320,1,0,0:0:0:0:
272,44,32399,1,0,0:0:0:0:
275,57,32478,2,0,L|261:205,1,138,2|0,3:2|0:0,0:0:0:0:
335,350,32794,2,0,L|349:202,1,138,8|0,0:0|0:0,0:0:0:0:
492,161,33110,6,0,P|411:135|452:60,1,184,6|8,3:2|0:0,0:0:0:0:
237,274,33584,1,0,0:0:0:0:
250,276,33663,1,0,0:0:0:0:
263,278,33742,1,2,3:2:0:0:
100,220,33899,2,0,L|7:241,1,92,0|8,3:0|0:0,0:0:0:0:
171,135,34215,6,0,L|191:33,1,92,2|0,3:2|0:0,0:0:0:0:
410,21,34531,2,0,P|451:41|491:87,1,92,0|8,3:0|0:0,0:0:0:0:
357,265,34847,2,0,P|303:217|325:107,1,184,2|0,3:2|3:0,0:0:0:0:
506,197,35320,1,8,0:0:0:0:
292,334,35478,6,0,B|212:343|160:287|172:274|117:210|50:227,1,276.000010528565,6|0,3:2|0:0,0:0:0:0:
288,358,36110,2,0,P|246:354|207:338,1,69.0000026321412,2|0,3:2|0:0,0:0:0:0:
54,206,36584,2,0,P|95:209|135:226,1,69.0000026321412,2|0,3:2|0:0,0:0:0:0:
397,342,37057,6,0,P|366:303|347:250,1,92,2|0,3:2|0:0,0:0:0:0:
438,15,37531,2,0,P|469:54|488:107,1,92,2|0,3:2|0:0,0:0:0:0:
467,276,37689,5,0,3:0:0:0:
397,342,37847,1,0,3:0:0:0:
303,360,38005,1,0,3:0:0:0:
145,295,38163,6,0,P|96:281|34:274,2,110.399996630859,6|0|0,3:2|0:0|0:0,0:0:0:0:
211,371,38952,1,0,0:0:0:0:
309,266,39110,2,0,P|308:235|302:207,1,55.1999983154297,2|0,0:0|0:0,0:0:0:0:
355,127,39426,2,0,P|313:88|254:58,1,110.399996630859,2|0,0:0|0:0,0:0:0:0:
158,218,39899,1,2,0:0:0:0:
66,181,40057,2,0,P|43:126|39:57,1,110.399996630859
186,28,40531,1,2,0:0:0:0:
273,76,40689,6,0,L|259:196,1,110.399996630859,2|2,0:0|0:0,0:0:0:0:
335,255,41163,1,2,0:0:0:0:
368,160,41478,1,0,0:0:0:0:
142,282,41794,1,2,0:0:0:0:
64,221,41952,2,0,P|53:160|49:99,1,110.399996630859
228,205,42426,1,2,0:0:0:0:
244,106,42584,2,0,P|291:65|341:31,1,110.399996630859
416,86,43057,1,0,0:0:0:0:
195,22,43215,6,0,P|143:28|85:37,1,110.399996630859,2|0,0:0|0:0,0:0:0:0:
165,205,43689,2,0,P|217:199|275:190,1,110.399996630859,2|0,0:0|0:0,0:0:0:0:
387,122,44163,2,0,P|365:114|327:110,1,55.1999983154297,2|0,0:0|0:0,0:0:0:0:
270,32,44478,2,0,P|222:60|219:126,1,110.399996630859,2|0,0:0|0:0,0:0:0:0:
274,190,44952,1,2,0:0:0:0:
183,330,45110,2,0,P|195:298|186:261,1,55.1999983154297,2|0,0:0|0:0,0:0:0:0:
119,210,45426,1,0,0:0:0:0:
174,21,45742,6,0,L|185:83,1,55.1999983154297,2|0,0:0|0:0,0:0:0:0:
296,140,46057,1,2,0:0:0:0:
310,232,46215,1,0,0:0:0:0:
435,333,46373,2,0,L|375:344,2,55.1999983154297,2|0|2,0:0|0:0|0:0,0:0:0:0:
173,338,47005,2,0,P|207:306|212:242,1,110.399996630859,2|0,0:0|0:0,0:0:0:0:
94,152,47478,1,0,0:0:0:0:
89,162,47557,1,0,0:0:0:0:
91,172,47636,2,0,P|122:184|149:183,1,55.1999983154297,2|0,0:0|0:0,0:0:0:0:
254,289,47952,6,0,P|299:261|373:248,1,110.4,2|0,0:3|0:0,0:0:0:0:
432,168,48268,6,0,P|414:247|416:328,1,147.2,6|2,3:2|3:2,0:0:0:0:
321,372,48742,1,0,0:0:0:0:
210,337,48899,2,0,L|131:350,1,73.6,0|0,3:0|0:0,0:0:0:0:
23,370,49215,1,0,0:0:0:0:
138,199,49373,1,8,0:0:0:0:
14,262,49531,6,0,P|28:194|28:111,1,147.2,2|0,3:2|3:0,0:0:0:0:
191,10,50005,1,2,0:0:0:0:
106,27,50163,1,0,3:0:0:0:
337,109,50320,2,0,P|302:93|261:82,1,73.6,8|0,0:0|3:0,0:0:0:0:
130,171,50636,1,8,0:0:0:0:
26,47,50794,6,0,P|101:60|178:98,1,147.2,2|0,3:2|0:0,0:0:0:0:
221,242,51268,1,0,3:0:0:0:
291,180,51426,2,0,P|298:145|298:94,1,73.6,2|0,3:2|3:0,3:0:0:0:
473,32,51742,1,0,3:0:0:0:
403,128,51899,1,8,0:0:0:0:
410,246,52057,6,0,P|455:316|508:359,1,147.2,2|2,3:2|3:2,0:0:0:0:
362,363,52531,1,0,3:0:0:0:
208,294,52689,2,0,L|284:309,2,73.6,2|0|0,3:2|0:0|3:0,0:0:0:0:
15,263,53163,1,8,0:0:0:0:
93,373,53320,6,0,L|106:311,1,55.1999983154297,6|0,3:2|0:0,0:0:0:0:
107,227,53636,2,0,L|149:179,1,55.1999983154297,2|0,3:2|0:0,0:0:0:0:
195,78,53952,2,0,L|255:58,1,55.1999983154297,2|0,3:2|0:0,0:0:0:0:
386,15,54268,2,0,L|448:28,1,55.1999983154297,2|0,3:2|0:0,0:0:0:0:
477,202,54584,6,0,L|398:180,1,73.6,0|0,3:0|0:0,0:0:0:0:
258,32,54899,2,0,L|179:55,1,73.6,2|0,3:2|0:0,0:0:0:0:
26,143,55215,1,2,3:2:0:0:
28,153,55294,1,2,0:0:0:0:
30,163,55373,1,2,0:0:0:0:
32,173,55452,1,2,0:0:0:0:
34,183,55531,2,0,P|56:133|89:80,1,110.4,2|0,3:2|0:0,0:0:0:0:
136,15,55847,6,0,P|198:69|283:72,1,147.2,6|0,3:2|0:0,0:0:0:0:
487,154,56320,2,0,P|390:162|264:196,1,220.799993261719,6|0,3:2|0:0,0:0:0:0:
45,287,56794,6,0,B|10:352|61:402|115:399|167:368|175:294|165:238|65:216|41:137|89:80,1,441.6,6|0,3:2|0:0,0:0:0:0:
79,93,58215,6,0,P|185:93|286:15,1,220.8,6|0,3:2|0:0,0:0:0:0:
452,11,58531,1,10,0:0:0:0:
401,42,58610,1,8,0:0:0:0:
372,93,58689,1,8,0:0:0:0:
362,151,58768,1,8,0:0:0:0:
374,208,58847,2,0,P|400:239|436:262,1,73.6,6|0,3:2|0:0,0:0:0:0:
229,336,59005,5,10,0:0:0:0:
255,283,59084,1,8,0:0:0:0:
255,224,59163,1,8,0:0:0:0:
231,170,59242,1,8,0:0:0:0:
190,128,59320,1,8,0:0:0:0:
133,112,59399,1,8,0:0:0:0:
74,119,59478,2,0,P|43:140|18:173,1,73.6,6|0,3:2|0:0,0:0:0:0:
31,350,59636,5,10,0:0:0:0:
86,368,59715,1,8,0:0:0:0:
144,358,59794,1,8,0:0:0:0:
189,320,59873,1,8,0:0:0:0:
226,274,59952,1,10,0:0:0:0:
281,255,60031,1,8,0:0:0:0:
338,266,60110,1,8,0:0:0:0:
388,296,60189,1,8,0:0:0:0:
424,342,60268,6,0,P|460:335|485:311,1,73.6,2|0,3:2|0:0,0:0:0:0:
424,83,60426,2,0,P|387:89|363:114,1,73.6,2|0,3:2|0:0,0:0:0:0:
352,96,60742,6,0,P|263:60|128:28,1,220.799993261719,6|2,3:2|0:0,0:0:0:0:
14,65,61215,1,8,0:0:0:0:
180,155,61373,2,0,P|155:243|145:385,1,220.799993261719,2|2,3:2|0:0,0:0:0:0:
285,217,61847,1,8,0:0:0:0:
459,351,62005,6,0,P|435:289|411:181,1,165.599994946289,6|0,3:2|0:0,0:0:0:0:
480,74,62320,1,2,0:0:0:0:
481,90,62399,1,2,0:0:0:0:
476,106,62478,2,0,P|416:107|362:92,1,110.399996630859,10|0,0:0|0:0,0:0:0:0:
183,25,62794,2,0,P|165:63|144:132,1,110.399996630859,2|0,3:2|0:0,0:0:0:0:
340,185,63110,1,8,0:0:0:0:
372,215,63189,1,8,0:0:0:0:
386,256,63268,1,8,0:0:0:0:
390,299,63347,1,8,0:0:0:0:
372,335,63426,6,0,P|262:351|171:374,1,202.400006176758,6|8,3:2|0:0,0:0:0:0:
48,317,63899,1,0,3:0:0:0:
51,331,63978,1,0,3:0:0:0:
55,345,64057,1,2,3:2:0:0:
140,244,64215,1,0,3:0:0:0:
30,19,64373,1,8,0:0:0:0:
233,74,64531,5,2,3:2:0:0:
32,119,64689,1,0,3:0:0:0:
46,123,64768,1,0,3:0:0:0:
60,128,64847,2,0,L|162:155,1,101.200003088379,0|8,3:0|0:0,0:0:0:0:
228,313,65163,1,2,3:2:0:0:
454,204,65320,1,8,0:0:0:0:
280,125,65478,1,2,3:2:0:0:
287,75,65557,1,0,3:0:0:0:
297,25,65636,1,8,0:0:0:0:
369,295,65794,6,0,P|288:233|176:180,1,220.799993261719,6|0,3:2|3:0,0:0:0:0:
192,330,66189,1,0,3:0:0:0:
212,288,66268,1,10,0:0:0:0:
31,146,66426,1,0,3:0:0:0:
60,179,66505,1,0,3:0:0:0:
89,213,66584,1,10,0:0:0:0:
184,44,66742,1,0,3:0:0:0:
227,37,66820,1,0,3:0:0:0:
272,31,66899,6,0,P|252:96|230:192,1,138,2|0,3:2|0:0,0:0:0:0:
254,323,67215,5,10,0:0:0:0:
291,282,67294,1,8,0:0:0:0:
345,272,67373,1,8,0:0:0:0:
398,284,67452,1,8,0:0:0:0:
444,314,67531,5,2,3:2:0:0:
450,296,67610,1,0,3:0:0:0:
456,278,67689,1,0,3:0:0:0:
462,260,67768,1,0,3:0:0:0:
467,244,67847,6,0,L|490:161,1,73.6,2|0,3:2|0:0,0:0:0:0:
226,40,68005,2,0,L|203:123,1,73.6,2|0,3:2|0:0,0:0:0:0:
205,30,68320,6,0,L|182:113,1,73.6,6|0,3:2|0:0,0:0:0:0:
141,269,68478,1,8,0:0:0:0:
127,327,68557,1,8,0:0:0:0:
169,368,68636,5,2,0:2:0:0:
198,361,68715,1,0,3:0:0:0:
225,351,68794,1,0,3:0:0:0:
255,344,68873,1,2,3:2:0:0:
283,334,68952,1,0,3:0:0:0:
311,327,69031,1,0,3:0:0:0:
348,281,69110,5,2,3:2:0:0:
326,259,69189,1,0,3:0:0:0:
305,241,69268,1,0,3:0:0:0:
284,221,69347,1,2,3:2:0:0:
260,200,69426,1,0,3:0:0:0:
238,180,69505,1,0,3:0:0:0:
205,227,69584,6,0,P|167:234|123:223,1,73.6,14|0,0:0|0:0,0:0:0:0:
80,78,69742,1,8,0:0:0:0:
119,35,69820,1,8,0:0:0:0:
177,24,69899,1,8,0:0:0:0:
232,43,69978,1,8,0:0:0:0:
271,86,70057,1,8,0:0:0:0:
315,124,70136,1,8,0:0:0:0:
372,136,70215,1,8,0:0:0:0:
428,117,70294,1,8,0:0:0:0:
472,77,70373,6,0,P|480:39|473:2,1,73.6,2|0,3:2|0:0,0:0:0:0:
338,268,70531,2,0,P|329:305|337:343,1,73.6,2|0,3:2|0:0,0:0:0:0:
328,360,70847,6,0,P|235:320|105:285,1,220.799993261719,6|2,3:2|0:0,0:0:0:0:
52,68,71320,1,8,0:0:0:0:
201,212,71478,2,0,P|261:100|353:49,1,220.799993261719,2|2,3:2|0:0,0:0:0:0:
491,120,71952,1,8,0:0:0:0:
337,350,72110,6,0,L|506:321,1,165.599994946289,2|0,3:2|0:0,0:0:0:0:
318,265,72426,2,0,L|487:236,1,165.599994946289,10|0,0:0|0:0,0:0:0:0:
353,172,72742,6,0,L|299:180,1,55.1999983154297,6|0,3:2|0:0,0:0:0:0:
96,332,73057,2,0,L|153:340,1,55.1999983154297,10|0,0:0|0:0,0:0:0:0:
9,299,73373,6,0,P|80:287|118:197,1,165.599994946289,6|0,3:2|0:0,0:0:0:0:
28,141,73847,2,0,P|19:99|18:55,1,82.7999974731446,2|0,0:0|3:0,0:0:0:0:
216,60,74163,2,0,B|243:29|243:29|296:8,1,82.7999974731446,8|2,0:0|0:0,0:0:0:0:
368,13,74399,1,2,0:0:0:0:
373,28,74478,1,2,0:0:0:0:
447,182,74636,6,0,P|368:179|330:103,1,165.599994946289,2|0,3:2|3:0,0:0:0:0:
436,283,75110,2,0,P|432:325|420:382,1,82.7999974731446,2|0,0:0|0:0,0:0:0:0:
276,222,75426,1,10,0:0:0:0:
180,301,75584,2,0,L|260:318,1,82.7999974731446,0|0,3:0|0:0,0:0:0:0:
486,253,75899,6,0,B|508:191|466:152|447:166|408:121|436:63,1,202.400006176758,2|0,3:2|3:0,0:0:0:0:
221,18,76373,1,10,0:0:0:0:
205,20,76452,1,2,0:0:0:0:
196,33,76531,2,0,P|199:57|211:87,1,50.6000015441895,2|2,3:2|0:0,0:0:0:0:
303,170,76689,5,10,0:0:0:0:
330,253,76794,1,8,0:0:0:0:
260,306,76899,1,8,0:0:0:0:
174,282,77005,5,0,3:0:0:0:
143,246,77110,1,0,3:0:0:0:
144,198,77215,1,0,3:0:0:0:
177,115,77320,5,6,3:2:0:0:
177,115,78584,2,0,B|305:19|305:19|326:228|326:228|135:144,1,575,2|0,0:0|0:0,0:0:0:0:
138,145,80636,1,0,3:0:0:0:
37,312,80794,6,0,B|22:365|22:365|68:326,1,110.4,8|0,0:0|0:0,0:0:0:0:
98,240,81110,5,6,3:2:0:0:
215,39,88689,6,0,P|221:61|225:97,1,36.8,6|0,0:0|0:0,0:0:0:0:
188,180,88847,1,8,0:0:0:0:
177,184,88926,1,8,0:0:0:0:
166,188,89005,1,8,0:0:0:0:
155,192,89084,1,8,0:0:0:0:
141,197,89163,6,0,P|109:182|89:165,1,55.1999983154297,6|0,3:2|0:0,0:0:0:0:
42,14,89320,1,8,0:0:0:0:
66,10,89399,1,8,0:0:0:0:
90,15,89478,1,8,0:0:0:0:
110,29,89557,1,8,0:0:0:0:
134,52,89636,6,0,P|169:55|211:43,1,73.6,6|0,3:2|0:0,0:0:0:0:
401,3,89794,1,8,0:0:0:0:
442,18,89873,1,8,0:0:0:0:
470,51,89952,1,8,0:0:0:0:
473,95,90031,1,8,0:0:0:0:
440,139,90110,6,0,P|400:142|346:108,1,92,6|0,3:2|0:0,0:0:0:0:
157,214,90268,1,10,0:0:0:0:
196,270,90347,1,8,0:0:0:0:
180,337,90426,1,8,0:0:0:0:
117,366,90505,1,8,0:0:0:0:
39,335,90584,6,0,P|20:286|44:230,1,110.399996630859,6|0,3:2|0:0,0:0:0:0:
165,84,90742,1,10,0:0:0:0:
195,73,90820,1,2,0:0:0:0:
243,80,90899,1,2,0:0:0:0:
286,130,90978,1,2,0:0:0:0:
340,185,91057,1,10,0:0:0:0:
426,201,91136,1,2,0:0:0:0:
493,152,91215,6,0,P|474:76|406:41,1,147.2,2|0,3:2|0:0,0:0:0:0:
435,246,91452,2,0,P|475:178|451:105,1,147.2,2|0,3:2|0:0,0:0:0:0:
438,92,92320,6,0,P|376:97|296:64,1,137.999995788574,8|0,0:0|0:0,0:0:0:0:
192,19,92794,5,2,0:0:0:0:
217,101,92899,1,0,3:0:0:0:
183,179,93005,1,8,0:0:0:0:
101,217,93110,6,0,L|86:169,1,46,8|0,0:0|0:0,0:0:0:0:
19,305,93268,2,0,L|32:348,1,46,0|0,3:0|3:0,0:0:0:0:
25,293,93584,1,8,0:0:0:0:
206,339,93742,6,0,L|352:359,1,147.2,2|0,3:2|0:0,0:0:0:0:
209,319,93978,2,0,L|355:339,1,147.2,2|0,3:2|0:0,0:0:0:0:
290,290,94215,5,2,0:0:0:0:
170,227,94531,6,0,L|164:197,3,18.3999994384766,2|2|2|2,0:3|0:3|0:3|0:3,0:0:0:0:
96,356,95005,5,0,3:0:0:0:
33,140,95163,1,8,0:0:0:0:
33,140,95478,1,8,0:0:0:0:
24,180,95557,1,8,0:0:0:0:
15,220,95636,1,2,3:2:0:0:
168,273,95794,1,0,3:0:0:0:
172,288,95873,1,0,3:0:0:0:
176,303,95952,1,0,3:0:0:0:
285,361,96110,1,0,3:0:0:0:
480,172,96268,6,0,P|409:126|387:66,1,147.2,2|0,3:2|0:0,0:0:0:0:
390,265,96505,2,0,P|344:194|284:172,1,147.2,2|0,3:2|0:0,0:0:0:0:
493,364,96742,5,2,0:0:0:0:
493,364,97057,2,0,L|410:355,1,82.7999974731446,8|0,0:0|0:0,0:0:0:0:
321,330,97373,1,2,3:2:0:0:
324,346,97452,1,0,3:0:0:0:
327,362,97531,1,0,3:0:0:0:
306,241,97847,5,10,0:0:0:0:
327,362,98005,1,0,3:0:0:0:
327,362,98320,1,0,3:2:0:0:
306,241,98478,1,0,3:0:0:0:
419,41,98636,1,8,0:0:0:0:
221,165,98794,6,0,P|154:142|79:105,1,138,6|0,3:2|0:0,0:0:0:0:
159,9,99110,2,0,P|164:32|169:68,3,46,2|0|0|0,3:2|3:0|3:0|3:0,0:0:0:0:
292,103,99426,5,2,3:2:0:0:
310,99,99505,1,0,3:0:0:0:
328,95,99584,1,0,3:0:0:0:
346,91,99663,1,0,3:0:0:0:
387,54,99742,5,10,0:0:0:0:
332,46,99820,1,8,0:0:0:0:
277,38,99899,1,8,0:0:0:0:
222,31,99978,1,8,0:0:0:0:
140,60,100057,5,6,3:2:0:0:
140,60,101320,6,0,L|117:243,1,184,6|8,3:2|0:0,0:0:0:0:
164,363,101794,1,0,0:0:0:0:
270,184,101952,1,2,3:2:0:0:
306,273,102110,1,0,3:0:0:0:
477,308,102268,1,8,0:0:0:0:
349,143,102426,6,0,P|347:59|433:11,1,184,2|0,3:2|3:0,0:0:0:0:
488,71,102820,1,0,3:0:0:0:
482,83,102899,2,0,L|496:175,1,92,8|0,0:0|0:0,0:0:0:0:
376,352,103215,1,2,3:2:0:0:
261,241,103373,2,0,P|310:245|358:257,1,92,0|8,3:0|0:0,0:0:0:0:
118,349,103689,1,0,3:0:0:0:
175,145,103847,6,0,P|173:103|153:53,2,92,2|0|8,0:0|3:0|0:0,0:0:0:0:
13,214,104320,1,0,3:0:0:0:
26,213,104399,1,0,3:0:0:0:
39,212,104478,2,0,L|10:310,1,92,2|0,3:2|3:0,0:0:0:0:
233,369,104794,1,8,0:0:0:0:
123,274,104952,6,0,P|217:267|295:200,1,184,2|0,3:2|3:0,0:0:0:0:
357,329,105426,1,8,0:0:0:0:
479,195,105584,1,0,3:0:0:0:
482,208,105663,1,0,3:0:0:0:
486,220,105742,2,0,P|417:203|404:136,1,138,2|0,3:2|0:0,0:0:0:0:
234,39,106057,2,0,P|303:56|316:123,1,138,8|0,0:0|0:0,0:0:0:0:
231,197,106373,6,0,L|35:235,1,184,6|8,3:2|0:0,0:0:0:0:
107,20,106847,1,0,3:0:0:0:
117,29,106926,1,0,3:0:0:0:
127,38,107005,2,0,L|147:141,1,92,2|0,3:2|3:0,0:0:0:0:
128,356,107320,1,8,0:0:0:0:
1,224,107478,6,0,P|91:251|190:268,1,184,2|0,3:2|3:0,0:0:0:0:
289,149,107952,1,8,0:0:0:0:
481,256,108110,2,0,P|500:296|499:348,1,92,2|0,3:2|0:0,0:0:0:0:
374,315,108426,1,0,3:0:0:0:
179,360,108584,1,8,0:0:0:0:
40,265,108742,6,0,B|-16:205|49:130|74:150|129:75|69:12,1,276.000010528565,6|0,3:2|0:0,0:0:0:0:
21,274,109373,2,0,P|6:249|8:186,1,69.0000026321412,2|0,3:2|0:0,0:0:0:0:
99,14,109847,2,0,P|113:38|111:101,1,69.0000026321412,2|0,3:2|0:0,0:0:0:0:
227,346,110320,6,0,P|232:308|259:253,1,92,2|0,3:2|0:0,0:0:0:0:
485,74,110794,2,0,P|479:111|452:166,1,92,2|0,3:2|0:0,0:0:0:0:
275,173,110952,5,0,3:1:0:0:
213,103,111110,1,0,3:1:0:0:
239,13,111268,1,0,3:1:0:0:
114,120,111426,6,0,P|51:114|2:95,2,110.399996630859,6|0|0,3:2|0:0|0:0,0:0:0:0:
156,30,112215,1,0,0:0:0:0:
260,152,112373,2,0,P|270:178|277:217,1,55.1999983154297,2|0,0:0|0:0,0:0:0:0:
330,295,112689,2,0,P|355:250|401:202,1,110.399996630859,2|0,0:0|0:0,0:0:0:0:
508,41,113320,2,0,P|469:18|397:8,1,110.399996630859,2|0,0:0|0:0,0:0:0:0:
260,65,113794,1,2,0:0:0:0:
196,140,113952,6,0,P|142:150|80:161,1,110.399996630859,2|2,0:0|0:0,0:0:0:0:
37,246,114426,1,0,0:0:0:0:
99,326,114742,1,2,0:0:0:0:
355,247,115057,1,2,0:0:0:0:
307,335,115215,2,0,P|252:296|220:244,1,110.399996630859
270,43,115847,2,0,P|331:14|392:13,1,110.399996630859,2|0,0:0|0:0,0:0:0:0:
456,65,116320,1,0,0:0:0:0:
498,208,116478,6,0,P|478:273|476:331,1,110.399996630859,2|0,0:0|0:0,0:0:0:0:
394,376,116952,2,0,P|347:326|298:295,1,110.399996630859
126,365,117426,1,2,0:0:0:0:
226,355,117584,1,0,0:0:0:0:
332,212,117742,2,0,P|314:156|303:87,1,110.399996630859,2|0,0:0|0:0,0:0:0:0:
341,18,118215,1,2,0:0:0:0:
175,26,118373,2,0,P|202:32|235:46,1,55.1999983154297,2|0,0:0|0:0,0:0:0:0:
177,122,118689,1,0,0:0:0:0:
38,364,119005,6,0,P|48:336|53:287,1,55.1999983154297,2|0,0:0|0:0,0:0:0:0:
193,296,119320,2,0,P|180:269|149:230,1,55.1999983154297,2|0,0:0|0:0,0:0:0:0:
49,152,119636,1,2,0:0:0:0:
75,55,119952,1,2,0:0:0:0:
49,152,120110,1,0,0:0:0:0:
134,253,120268,2,0,P|152:310|172:378,1,110.399996630859,2|0,0:0|0:0,0:0:0:0:
265,371,120742,1,0,0:0:0:0:
275,370,120820,1,0,0:0:0:0:
286,369,120899,2,0,P|308:345|325:310,1,55.1999983154297
396,244,121215,6,0,P|447:212|508:190,1,110.4,2|0,0:3|0:0,0:0:0:0:
386,156,121531,6,0,P|317:154|247:112,1,147.2,6|0,3:2|3:0,0:0:0:0:
202,29,122005,1,0,0:0:0:0:
328,11,122163,2,0,L|412:2,1,73.6,2|0,3:2|0:0,0:0:0:0:
486,48,122478,1,0,3:0:0:0:
342,139,122636,1,8,0:0:0:0:
412,210,122794,6,0,P|427:277|434:371,1,147.2,2|2,3:2|3:2,0:0:0:0:
290,374,123268,1,0,0:0:0:0:
330,285,123426,1,0,3:0:0:0:
121,352,123584,2,0,P|157:351|196:322,1,73.6,8|0,0:0|3:0,0:0:0:0:
158,155,123899,1,8,0:0:0:0:
0,221,124057,6,0,P|81:233|160:258,1,147.2,2|0,3:2|3:0,0:0:0:0:
278,345,124531,1,0,0:0:0:0:
369,213,124689,2,0,P|361:252|349:284,1,73.6,2|0,3:2|0:0,0:0:0:0:
232,263,125005,1,0,3:0:0:0:
96,145,125163,1,8,0:0:0:0:
307,67,125320,6,0,P|241:60|170:10,1,147.2,2|2,3:2|3:2,0:0:0:0:
236,163,125794,1,0,0:0:0:0:
177,285,125952,2,0,L|196:355,2,73.6,2|0|0,3:2|0:0|3:0,0:0:0:0:
326,313,126426,1,8,0:0:0:0:
488,235,126584,6,0,L|433:243,1,55.1999983154297,6|0,3:2|0:0,0:0:0:0:
362,203,126899,2,0,L|307:211,1,55.1999983154297,2|0,3:2|0:0,0:0:0:0:
227,152,127215,2,0,L|172:160,1,55.1999983154297,2|0,3:2|0:0,0:0:0:0:
78,68,127531,2,0,L|23:76,1,55.1999983154297,2|0,3:2|0:0,0:0:0:0:
38,254,127847,6,0,L|90:190,1,73.6,0|0,3:0|0:0,0:0:0:0:
196,43,128163,2,0,L|276:65,1,73.6,2|0,3:2|0:0,0:0:0:0:
415,207,128478,1,2,3:2:0:0:
425,210,128557,1,2,0:0:0:0:
435,213,128636,1,2,0:0:0:0:
445,217,128715,1,2,0:0:0:0:
455,221,128794,2,0,P|459:164|440:106,1,110.4,2|0,3:2|0:0,0:0:0:0:
349,93,129110,6,0,P|308:141|256:224,1,147.2,6|0,3:2|0:0,0:0:0:0:
147,84,129584,2,0,P|127:152|107:303,1,220.799993261719,6|0,3:2|0:0,0:0:0:0:
378,362,130057,6,0,B|520:356|525:203|467:111|361:118|323:179|335:234|385:261,1,441.6,6|0,3:2|0:0,0:0:0:0:
378,257,131794,6,0,P|351:223|352:181,1,73.6,6|0,3:2|0:0,0:0:0:0:
443,10,131952,1,10,0:0:0:0:
493,40,132031,1,8,0:0:0:0:
497,98,132110,1,8,0:0:0:0:
450,133,132189,1,8,0:0:0:0:
392,118,132268,1,8,0:0:0:0:
359,68,132347,1,8,0:0:0:0:
310,33,132426,1,8,0:0:0:0:
252,22,132505,1,8,0:0:0:0:
198,47,132584,1,8,0:0:0:0:
173,100,132663,1,8,0:0:0:0:
181,158,132742,2,0,P|210:189|248:203,1,73.6,6|0,3:2|0:0,0:0:0:0:
436,349,132899,5,10,0:0:0:0:
460,295,132978,1,8,0:0:0:0:
432,242,133057,1,8,0:0:0:0:
375,223,133136,1,8,0:0:0:0:
322,249,133215,1,10,0:0:0:0:
290,298,133294,1,8,0:0:0:0:
234,316,133373,1,8,0:0:0:0:
181,288,133452,1,8,0:0:0:0:
168,230,133531,6,0,P|172:191|185:139,1,73.6,2|0,3:2|0:0,0:0:0:0:
20,18,133689,2,0,P|32:55|43:107,1,73.6,2|0,3:2|0:0,0:0:0:0:
59,80,134005,6,0,P|37:182|17:309,1,220.799993261719,6|2,3:2|0:0,0:0:0:0:
252,374,134478,1,8,0:0:0:0:
118,259,134636,2,0,P|247:232|348:216,1,220.799993261719,2|2,3:2|0:0,0:0:0:0:
203,104,135110,1,8,0:0:0:0:
439,26,135268,6,0,P|391:48|404:163,1,165.599994946289,6|0,3:2|0:0,0:0:0:0:
473,307,135584,1,2,0:0:0:0:
481,292,135663,1,2,0:0:0:0:
477,275,135742,2,0,P|427:245|364:229,1,110.399996630859,10|0,0:0|0:0,0:0:0:0:
198,277,136057,2,0,P|156:317|124:374,1,110.399996630859,2|0,3:2|0:0,0:0:0:0:
275,173,136373,1,8,0:0:0:0:
286,129,136452,1,8,0:0:0:0:
274,86,136531,1,8,0:0:0:0:
244,52,136610,1,8,0:0:0:0:
206,29,136689,6,0,P|102:47|9:85,1,202.400006176758,6|8,3:2|0:0,0:0:0:0:
65,300,137163,1,0,3:0:0:0:
68,284,137242,1,0,3:0:0:0:
71,269,137320,1,2,3:2:0:0:
152,178,137478,1,0,3:0:0:0:
269,351,137636,1,8,0:0:0:0:
448,179,137794,5,2,3:2:0:0:
294,87,137952,1,0,3:0:0:0:
291,102,138031,1,0,3:0:0:0:
290,117,138110,2,0,P|311:164|349:220,1,101.200003088379,0|8,3:0|0:0,0:0:0:0:
477,348,138426,1,2,3:2:0:0:
237,236,138584,1,8,0:0:0:0:
405,286,138742,1,2,3:2:0:0:
355,294,138820,1,0,3:0:0:0:
305,302,138899,1,8,0:0:0:0:
35,359,139057,6,0,P|124:296|120:182,1,220.799993261719,6|0,3:2|3:0,0:0:0:0:
9,257,139452,1,0,3:0:0:0:
49,245,139531,1,10,0:0:0:0:
173,74,139689,1,0,3:0:0:0:
130,87,139768,1,0,3:0:0:0:
88,100,139847,1,10,0:0:0:0:
366,232,140005,1,0,3:0:0:0:
323,219,140084,1,0,3:0:0:0:
281,206,140163,6,10,B|259:146|259:146|278:68,1,138,2|10,3:2|0:0,0:0:0:0:
429,37,140478,5,10,0:0:0:0:
480,58,140557,1,8,0:0:0:0:
505,107,140636,1,8,0:0:0:0:
487,159,140715,1,8,0:0:0:0:
439,186,140794,5,2,3:2:0:0:
436,204,140873,1,0,3:0:0:0:
433,222,140952,1,0,3:0:0:0:
430,240,141031,1,0,3:0:0:0:
429,258,141110,6,0,P|435:299|450:339,1,73.6,2|0,3:2|0:0,0:0:0:0:
277,360,141268,2,0,P|271:319|256:279,1,73.6,2|0,3:2|0:0,0:0:0:0:
243,301,141584,6,0,P|188:216|204:88,1,220.8,6|0,3:2|0:0,0:0:0:0:
269,59,141899,6,0,L|376:3,1,110.399996630859,10|0,0:0|0:0,0:0:0:0:
118,77,142136,2,0,L|40:36,1,73.6,10|0,0:0|0:0,0:0:0:0:
271,167,142373,6,0,L|413:129,1,147.2,10|0,0:0|0:0,0:0:0:0:
127,234,142610,2,0,L|10:203,1,110.399996630859,10|0,0:0|0:0,0:0:0:0:
284,307,142847,6,0,P|421:314|472:202,1,276,14|0,0:0|0:0,0:0:0:0:
377,41,143163,1,8,0:0:0:0:
320,25,143242,1,8,0:0:0:0:
264,40,143320,1,10,0:0:0:0:
216,74,143399,1,8,0:0:0:0:
176,117,143478,1,8,0:0:0:0:
119,132,143557,1,8,0:0:0:0:
62,114,143636,6,0,P|53:78|53:28,1,73.6,2|0,3:2|0:0,0:0:0:0:
264,177,143794,2,0,P|272:212|272:262,1,73.6,2|0,3:2|0:0,0:0:0:0:
272,160,144110,6,0,P|375:141|487:84,1,220.799993261719,6|2,3:2|0:0,0:0:0:0:
300,318,144584,1,10,0:0:0:0:
424,370,144742,2,0,P|420:274|511:192,1,220.799993261719,2|2,3:2|0:0,0:0:0:0:
392,30,145215,1,8,0:0:0:0:
200,134,145373,6,0,L|26:100,1,165.599994946289,2|0,3:2|0:0,0:0:0:0:
204,223,145689,2,0,L|36:280,1,165.599994946289,10|0,0:0|0:0,0:0:0:0:
215,340,146005,6,0,L|252:299,1,55.1999983154297,6|0,3:2|0:0,0:0:0:0:
216,20,146320,2,0,L|252:61,1,55.1999983154297,10|0,0:0|0:0,0:0:0:0:
497,161,146636,6,0,L|328:180,1,165.599994946289,6|0,3:2|0:0,0:0:0:0:
341,343,147110,2,0,P|320:309|284:276,1,82.7999974731446,2|0,0:0|3:0,0:0:0:0:
115,234,147426,2,0,B|73:236|73:236|30:284,1,82.7999974731446,8|2,0:0|0:0,0:0:0:0:
72,360,147663,1,2,0:0:0:0:
78,344,147742,1,2,0:0:0:0:
94,143,147899,6,0,P|64:76|1:2,1,165.599994946289,2|0,3:2|0:0,0:0:0:0:
210,36,148373,2,0,P|200:75|198:123,1,82.7999974731446,2|0,0:0|3:0,0:0:0:0:
330,215,148689,1,10,0:0:0:0:
412,281,148847,2,0,P|433:322|451:364,1,82.7999974731446,0|0,3:0|0:0,0:0:0:0:
255,293,149163,6,0,P|173:298|40:344,1,202.400006176758,2|0,3:2|0:0,0:0:0:0:
29,131,149636,1,10,0:0:0:0:
19,142,149715,1,2,0:0:0:0:
16,155,149794,2,0,P|32:173|74:183,1,50.6000015441895,2|2,3:2|0:0,0:0:0:0:
227,134,149952,5,10,0:0:0:0:
298,84,150057,1,8,0:0:0:0:
386,93,150163,1,8,0:0:0:0:
447,159,150268,5,0,3:0:0:0:
429,202,150373,1,0,3:0:0:0:
388,226,150478,1,0,3:0:0:0:
320,171,150584,5,6,3:2:0:0:
320,171,152005,2,0,B|423:93|423:93|474:314|474:314|275:192,1,575,6|0,0:0|0:0,0:0:0:0:
287,199,154057,1,0,0:0:0:0:
177,358,154215,6,0,P|91:382|19:306,1,193.199994104004,6|0,3:2|0:0,0:0:0:0:
6,169,154531,1,10,0:0:0:0:
31,109,154610,1,10,0:0:0:0:
87,94,154689,1,10,0:0:0:0:
130,122,154768,1,10,0:0:0:0:
156,158,154847,6,0,P|205:173|248:151,1,96.599997052002,2|0,3:2|0:0,0:0:0:0:
350,33,155163,1,10,0:0:0:0:
367,25,155242,1,10,0:0:0:0:
387,39,155320,1,10,0:0:0:0:
417,50,155399,1,10,0:0:0:0:
454,43,155478,6,0,L|436:181,1,128.799996069336,6|0,3:2|0:0,0:0:0:0:
365,340,155794,1,10,0:0:0:0:
305,364,155873,1,10,0:0:0:0:
250,344,155952,1,10,0:0:0:0:
228,296,156031,1,2,0:0:0:0:
242,253,156110,6,0,P|281:231|334:229,1,96.599997052002,2|0,3:2|0:0,0:0:0:0:
446,285,156426,1,10,0:0:0:0:
464,289,156505,1,10,0:0:0:0:
464,314,156584,1,10,0:0:0:0:
491,330,156663,1,10,0:0:0:0:
466,359,156742,6,0,P|480:234|478:152,1,193.199994104004,6|0,3:2|0:0,0:0:0:0:
404,36,157057,6,0,P|367:24|317:12,1,73.6,2|0,0:0|0:0,0:0:0:0:
140,80,157215,2,0,P|171:77|201:64,1,64.399998034668,2|0,0:0|0:0,0:0:0:0:
366,120,157373,2,0,P|342:135|323:155,1,55.1999983154297,2|0,0:0|0:0,0:0:0:0:
190,210,157531,2,0,P|206:192|215:171,1,46,2|2,0:0|0:0,0:0:0:0:
294,265,157689,1,2,0:0:0:0:
297,278,157768,1,2,0:0:0:0:
300,291,157847,2,0,L|307:331,1,36.8,10|10,0:0|0:0,0:0:0:0:
172,361,158005,6,0,L|6:321,1,165.599994946289,2|0,3:2|0:0,0:0:0:0:
21,338,158320,6,0,L|46:227,2,110.399996630859,2|2|2,0:0|0:0|0:0,0:0:0:0:
144,236,159110,2,0,L|137:178,1,46,8|0,0:0|0:0,0:0:0:0:
285,289,159268,6,0,P|342:231|342:132,1,184,6|2,3:2|0:0,0:0:0:0:
231,21,159663,1,2,0:0:0:0:
233,34,159742,2,0,L|336:52,1,92,8|0,0:0|0:0,0:0:0:0:
485,133,160057,1,2,3:2:0:0:
396,308,160215,1,2,3:2:0:0:
394,321,160294,1,0,3:0:0:0:
392,334,160373,1,0,3:0:0:0:
207,255,160531,6,0,P|110:253|7:272,1,184,10|0,0:0|3:0,0:0:0:0:
186,348,161005,1,8,0:0:0:0:
64,162,161163,1,2,3:2:0:0:
60,148,161242,1,0,3:0:0:0:
56,134,161320,1,0,3:0:0:0:
192,21,161478,2,0,L|99:42,1,92,0|0,3:0|0:0,0:0:0:0:
311,165,161794,6,0,P|386:140|369:40,1,184,10|2,0:0|0:0,0:0:0:0:
183,150,162268,1,8,0:0:0:0:
176,186,162347,1,8,0:0:0:0:
169,222,162426,1,10,0:0:0:0:
39,362,162584,2,0,L|89:348,1,46,0|0,3:0|0:0,0:0:0:0:
242,311,162742,2,0,L|348:346,1,92,2|0,3:2|0:0,0:0:0:0:
453,102,163057,6,0,P|476:183|475:286,1,184,10|2,0:0|3:2,0:0:0:0:
367,237,163531,1,8,0:0:0:0:
203,348,163689,1,2,0:0:0:0:
239,341,163768,1,2,0:0:0:0:
275,334,163847,1,2,3:2:0:0:
113,281,164005,1,0,3:0:0:0:
267,172,164163,2,0,B|288:109|288:109|275:32,1,138,8|0,0:0|0:0,0:0:0:0:
189,14,164478,6,0,L|135:10,1,46,6|0,3:2|0:0,0:0:0:0:
187,27,164636,2,0,L|133:23,1,46,0|0,3:0|0:0,0:0:0:0:
19,137,164794,2,0,P|58:118|107:101,1,92,8|0,0:0|0:0,0:0:0:0:
251,265,165110,1,2,3:2:0:0:
346,343,165268,2,0,L|453:359,1,92,2|0,3:2|0:0,0:0:0:0:
471,153,165584,6,0,B|424:235|424:235|332:184,1,184,10|2,0:0|3:2,0:0:0:0:
200,95,166057,1,10,0:0:0:0:
208,58,166136,1,2,0:0:0:0:
217,22,166215,1,2,0:0:0:0:
90,138,166373,2,0,L|149:159,1,46,2|0,3:2|0:0,0:0:0:0:
267,226,166531,2,0,L|203:238,1,46,0|0,3:0|0:0,0:0:0:0:
80,357,166689,1,2,0:0:0:0:
66,355,166768,1,2,0:0:0:0:
52,353,166847,6,0,P|134:328|245:323,1,184,10|0,0:0|0:0,0:0:0:0:
29,170,167320,1,10,0:0:0:0:
235,68,167478,1,0,0:0:0:0:
221,65,167557,1,0,0:0:0:0:
207,62,167636,1,2,3:2:0:0:
152,234,167794,1,0,3:0:0:0:
144,196,167873,1,0,3:0:0:0:
136,159,167952,1,10,0:0:0:0:
306,202,168110,1,2,3:2:0:0:
473,52,168268,6,0,P|422:95|439:180,1,138,14|0,0:0|0:0,0:0:0:0:
495,280,168584,1,8,0:0:0:0:
503,317,168663,1,8,0:0:0:0:
512,354,168742,2,0,L|444:339,1,64.399998034668,6|0,3:2|0:0,0:0:0:0:
283,225,168899,5,2,3:2:0:0:
223,201,168978,1,2,3:2:0:0:
163,215,169057,1,2,3:2:0:0:
139,245,169136,1,0,3:0:0:0:
126,281,169215,1,0,3:0:0:0:
131,319,169294,1,0,3:0:0:0:
153,348,169373,2,0,P|171:352|208:349,1,46,8|0,0:0|0:0,0:0:0:0:
417,268,169531,5,14,0:0:0:0:
452,219,169610,1,2,0:0:0:0:
461,160,169689,1,2,0:0:0:0:
446,101,169768,1,2,0:0:0:0:
413,50,169847,1,14,0:0:0:0:
356,31,169926,1,2,0:0:0:0:
296,27,170005,1,2,0:0:0:0:
236,36,170084,1,2,0:0:0:0:
195,81,170163,5,10,0:0:0:0:
220,100,170242,1,0,0:0:0:0:
249,111,170320,1,0,0:0:0:0:
280,117,170399,1,0,0:0:0:0:
312,116,170478,1,10,0:0:0:0:
344,112,170557,1,0,0:0:0:0:
374,102,170636,1,0,0:0:0:0:
401,85,170715,1,0,0:0:0:0:
436,37,170794,5,10,0:0:0:0:
457,60,170873,1,2,0:0:0:0:
471,88,170952,1,2,0:0:0:0:
482,118,171031,1,2,0:0:0:0:
482,150,171110,2,0,L|470:207,1,46,8|0,0:0|0:0,0:0:0:0:
468,312,171268,1,2,0:0:0:0:
448,343,171347,2,0,L|393:364,1,46,2|8,0:0|0:0,0:0:0:0:
275,365,171505,1,2,0:0:0:0:
234,375,171584,2,0,L|181:348,1,46,2|0,0:0|0:0,0:0:0:0:
64,335,171742,1,10,0:0:0:0:
40,294,171820,2,0,L|26:236,2,46,2|0|0,0:0|0:0|0:0,0:0:0:0:
211,265,172057,5,10,0:0:0:0:
248,218,172136,1,0,0:0:0:0:
254,158,172215,1,0,0:0:0:0:
227,104,172294,1,0,0:0:0:0:
173,77,172373,1,10,0:0:0:0:
113,82,172452,1,0,0:0:0:0:
64,117,172531,1,0,0:0:0:0:
47,175,172610,1,0,0:0:0:0:
63,232,172689,5,8,0:0:0:0:
94,283,172768,2,0,P|91:304|81:340,2,46,2|0|0,0:0|0:0|0:0,0:0:0:0:
298,376,173005,2,0,P|292:353|289:330,1,46,10|0,0:0|0:0,0:0:0:0:
406,94,173163,1,2,0:0:0:0:
409,112,173242,1,0,0:0:0:0:
413,129,173320,5,8,0:0:0:0:
466,155,173399,1,0,0:0:0:0:
493,207,173478,1,2,0:0:0:0:
465,259,173557,1,2,0:0:0:0:
408,277,173636,1,8,0:0:0:0:
353,252,173715,1,0,0:0:0:0:
331,196,173794,1,2,0:0:0:0:
286,156,173873,1,2,0:0:0:0:
230,134,173952,6,0,P|208:139|170:161,3,46,2|0|0|0,0:0|0:0|0:0|0:0,0:0:0:0:
64,85,174268,2,0,P|127:139|110:226,1,165.599994946289,10|0,0:0|0:0,0:0:0:0:
59,276,174584,6,0,L|71:377,1,92,6|0,3:2|0:0,0:0:0:0:
228,109,174899,2,0,L|238:200,1,92,8|0,0:0|0:0,0:0:0:0:
346,349,175215,1,10,0:0:0:0:
376,345,175294,1,0,0:0:0:0:
406,341,175373,1,0,0:0:0:0:
437,338,175452,1,0,0:0:0:0:
468,335,175531,2,0,L|456:234,1,92,10|0,0:0|0:0,0:0:0:0:
369,27,175847,5,10,0:0:0:0:
257,200,176005,1,0,3:0:0:0:
259,213,176084,1,0,3:0:0:0:
262,226,176163,1,2,0:0:0:0:
220,245,176242,1,0,3:0:0:0:
174,242,176320,1,0,3:0:0:0:
139,211,176399,1,0,3:0:0:0:
122,167,176478,1,10,0:0:0:0:
130,121,176557,1,0,3:0:0:0:
161,87,176636,1,0,3:0:0:0:
204,73,176715,1,0,3:0:0:0:
248,83,176794,2,0,P|271:97|288:117,1,46,10|10,0:0|0:0,0:0:0:0:
368,290,176952,6,0,P|378:221|393:137,1,147.2,6|0,3:2|3:0,0:0:0:0:
337,40,177426,2,0,P|373:33|413:6,1,73.6,0|2,3:0|0:0,0:0:0:0:
192,181,177742,2,0,L|112:158,1,73.6,8|2,0:0|0:0,0:0:0:0:
74,53,178057,1,2,3:2:0:0:
242,268,178215,1,0,3:0:0:0:
255,263,178294,1,0,3:0:0:0:
269,257,178373,6,0,L|284:105,1,147.2,6|8,0:0|0:0,0:0:0:0:
458,25,178847,1,2,3:2:0:0:
512,147,179005,1,2,3:2:0:0:
391,194,179163,1,0,3:0:0:0:
291,325,179320,1,0,3:0:0:0:
365,372,179478,1,0,3:0:0:0:
369,285,179636,5,4,0:0:0:0:
450,349,199847,5,4,3:2:0:0:
321,169,200163,6,0,L|455:192,2,128.799996069336,2|2|2,3:2|3:2|3:2,0:0:0:0:
253,229,200952,1,0,0:0:0:0:
303,303,201110,1,2,3:2:0:0:
84,367,201426,2,0,P|109:309|115:229,1,128.799996069336,2|2,3:2|3:2,0:0:0:0:
172,173,201899,2,0,P|162:145|140:112,1,64.399998034668,0|0,0:0|3:0,0:0:0:0:
61,9,202215,6,0,P|134:26|216:28,1,128.799996069336,2|2,0:0|0:0,0:0:0:0:
289,127,202689,1,0,3:0:0:0:
336,50,202847,2,0,P|407:28|479:-11,1,128.799996069336,2|2,0:0|0:0,0:0:0:0:
493,132,203320,1,0,3:0:0:0:
431,195,203478,2,0,L|415:332,1,128.799996069336,2|2,0:0|0:0,0:0:0:0:
336,370,203952,2,0,P|309:357|274:346,1,64.399998034668,2|0,3:2|0:0,0:0:0:0:
188,331,204268,1,2,3:2:0:0:
353,161,204584,2,0,P|326:174|291:185,1,64.399998034668,2|0,3:2|0:0,0:0:0:0:
235,54,204899,6,0,P|303:47|365:79,1,128.799996069336,2|2,3:2|3:2,0:0:0:0:
181,182,205531,2,0,P|127:225|106:291,1,128.799996069336,2|2,3:2|3:2,0:0:0:0:
329,375,206163,1,2,3:2:0:0:
398,318,206320,2,0,P|405:283|408:240,1,64.399998034668,2|0,0:0|3:0,0:0:0:0:
480,152,206636,2,0,P|435:116|381:56,1,128.799996069336,2|2,0:0|0:0,0:0:0:0:
455,2,207110,1,0,3:0:0:0:
282,56,207268,6,0,P|224:34|139:22,1,128.799996069336,2|0,0:0|0:0,0:0:0:0:
41,89,207742,1,2,3:2:0:0:
88,166,207899,2,0,L|172:170,1,64.399998034668,0|2,0:0|3:2,0:0:0:0:
240,254,208215,1,0,0:0:0:0:
243,266,208294,1,0,0:0:0:0:
246,278,208373,2,0,L|271:139,2,128.799996069336,2|2|2,3:2|3:2|3:2,0:0:0:0:
30,352,209320,1,0,3:0:0:0:
140,306,209478,1,8,0:0:0:0:
53,99,209794,1,0,0:0:0:0:
55,111,209873,1,0,0:0:0:0:
57,123,209952,6,0,P|121:159|186:223,1,147.2,4|2,3:2|3:2,0:0:0:0:
292,21,210584,2,0,P|329:84|353:172,1,147.2,2|2,3:2|3:2,0:0:0:0:
326,271,211057,1,2,0:0:0:0:
252,364,211215,1,0,3:0:0:0:
452,274,211531,2,0,P|482:233|498:129,1,147.2,2|2,3:2|3:2,0:0:0:0:
436,66,212005,2,0,P|411:84|355:89,1,73.6,0|0,0:0|3:0,0:0:0:0:
249,23,212320,6,0,P|181:14|75:13,1,147.2,2|2,0:0|0:0,0:0:0:0:
25,75,212794,1,0,3:0:0:0:
167,110,212952,2,0,P|106:141|18:201,1,147.2,2|2,0:0|0:0,0:0:0:0:
15,280,213426,1,0,3:0:0:0:
122,369,213584,2,0,P|162:327|152:230,1,147.2,2|2,0:0|0:0,0:0:0:0:
269,326,214057,1,0,3:0:0:0:
332,150,214215,5,8,0:0:0:0:
350,121,214294,1,8,0:0:0:0:
383,106,214373,1,8,0:0:0:0:
422,107,214452,1,8,0:0:0:0:
460,131,214531,1,8,0:0:0:0:
479,173,214610,1,8,0:0:0:0:
455,220,214689,2,0,P|435:228|408:229,1,36.8,8|0,0:0|0:0,0:0:0:0:
269,73,214847,6,0,P|180:43|33:13,1,220.799993261719,6|0,3:2|0:0,0:0:0:0:
4,224,215320,1,8,0:0:0:0:
153,127,215478,1,0,3:0:0:0:
156,143,215557,1,0,3:0:0:0:
159,159,215636,2,0,L|276:184,1,110.399996630859,10|0,0:0|0:0,0:0:0:0:
382,364,215952,1,8,0:0:0:0:
486,254,216110,1,0,3:0:0:0:
459,218,216189,1,0,3:0:0:0:
448,174,216268,6,0,P|447:120|466:51,1,110.399996630859,10|0,0:0|0:0,0:0:0:0:
250,14,216584,1,8,0:0:0:0:
104,80,216742,1,0,3:0:0:0:
280,107,216899,1,10,0:0:0:0:
122,232,217057,2,0,P|91:182|27:149,1,110.399996630859,0|8,3:0|0:0,0:0:0:0:
18,343,217373,5,0,3:0:0:0:
23,327,217452,1,0,3:0:0:0:
29,311,217531,1,10,0:0:0:0:
221,169,217689,1,2,0:0:0:0:
252,200,217768,1,2,0:0:0:0:
273,238,217847,2,0,P|279:270|276:305,3,55.1999983154297,10|2|2|2,0:0|0:0|0:0|0:0,0:0:0:0:
440,350,218163,5,10,0:0:0:0:
378,278,218268,1,8,0:0:0:0:
412,189,218373,1,8,0:0:0:0:
480,122,218478,5,0,3:0:0:0:
471,48,218584,1,0,3:0:0:0:
402,28,218689,1,0,3:0:0:0:
347,106,218794,5,6,3:2:0:0:
256,192,220215,12,2,221163,0:3:0:0:
35,362,221952,6,0,L|115:345,1,73.6,2|0,3:2|0:0,0:0:0:0:
222,234,222110,2,0,L|302:251,1,73.6,2|0,3:2|0:0,0:0:0:0:
30,340,222899,6,0,P|84:304|70:204,1,165.599994946289,2|0,3:2|0:0,0:0:0:0:
123,299,223215,2,0,P|175:319|229:304,1,110.399996630859,2|2,3:2|0:0,0:0:0:0:
336,229,223531,1,8,0:0:0:0:
147,114,223689,6,0,P|212:38|343:61,1,220.799993261719,6|2,3:2|0:0,0:0:0:0:
448,157,224163,1,8,0:0:0:0:
336,318,224320,1,2,0:0:0:0:
340,333,224399,1,2,0:0:0:0:
344,347,224478,2,0,P|365:297|379:242,1,110.399996630859,10|0,0:0|3:0,0:0:0:0:
182,118,224794,1,8,0:0:0:0:
154,152,224873,1,8,0:0:0:0:
138,193,224952,1,8,0:0:0:0:
146,236,225031,1,8,0:0:0:0:
166,275,225110,6,0,P|89:277|1:366,1,202.400006176758,6|8,3:2|0:0,0:0:0:0:
69,174,225584,1,0,3:0:0:0:
54,179,225663,1,0,3:0:0:0:
39,184,225742,1,2,3:2:0:0:
32,55,225899,1,0,3:0:0:0:
166,217,226057,1,8,0:0:0:0:
291,13,226215,5,2,3:2:0:0:
137,92,226373,1,0,3:0:0:0:
146,103,226452,1,0,3:0:0:0:
155,114,226531,2,0,P|207:102|268:97,1,101.200003088379,0|10,3:0|0:0,0:0:0:0:
373,342,226847,1,0,3:0:0:0:
482,203,227005,1,10,0:0:0:0:
283,259,227163,1,0,3:0:0:0:
302,217,227242,1,0,3:0:0:0:
321,176,227320,1,10,0:0:0:0:
498,93,227478,6,0,P|404:110|310:14,1,220.799993261719,6|0,3:2|3:0,0:0:0:0:
430,5,227873,1,0,3:0:0:0:
468,0,227952,1,10,0:0:0:0:
393,195,228110,1,0,3:0:0:0:
349,184,228189,1,0,3:0:0:0:
306,173,228268,1,10,0:0:0:0:
142,297,228426,1,0,3:0:0:0:
109,327,228505,1,0,3:0:0:0:
77,358,228584,6,0,P|49:283|63:224,1,138,2|0,3:2|0:0,0:0:0:0:
211,167,228899,5,10,0:0:0:0:
256,135,228978,1,8,0:0:0:0:
268,81,229057,1,8,0:0:0:0:
236,35,229136,1,8,0:0:0:0:
186,11,229215,5,2,3:2:0:0:
177,27,229294,1,0,3:0:0:0:
168,43,229373,1,0,3:0:0:0:
158,60,229452,1,0,3:0:0:0:
150,76,229531,6,0,L|76:93,1,73.6,2|0,3:2|0:0,0:0:0:0:
231,322,229689,2,0,L|305:305,1,73.6,2|0,3:2|0:0,0:0:0:0:
301,282,230005,6,0,P|181:291|106:357,1,220.8,6|0,3:2|0:0,0:0:0:0:
124,221,230320,5,2,3:2:0:0:
163,200,230399,2,0,P|166:178|163:109,1,73.6,0|0,3:0|3:0,0:0:0:0:
295,20,230557,1,2,3:2:0:0:
306,38,230636,2,0,P|302:59|286:88,1,36.8,0|0,3:0|3:0,0:0:0:0:
405,182,230794,5,2,3:2:0:0:
447,192,230873,2,0,P|464:178|510:127,1,73.6,0|0,3:0|3:0,0:0:0:0:
474,323,231031,1,2,3:2:0:0:
468,342,231110,2,0,P|447:353|416:358,1,36.8,0|0,3:0|3:0,0:0:0:0:
326,246,231268,6,0,P|292:222|252:206,1,73.6,6|0,3:2|0:0,0:0:0:0:
41,234,231426,1,8,0:0:0:0:
35,292,231505,1,8,0:0:0:0:
69,339,231584,1,8,0:0:0:0:
127,345,231663,1,8,0:0:0:0:
174,310,231742,1,8,0:0:0:0:
180,252,231820,1,8,0:0:0:0:
146,205,231899,1,8,0:0:0:0:
88,199,231978,1,8,0:0:0:0:
41,234,232057,6,0,P|22:206|12:160,1,73.6,2|0,3:2|0:0,0:0:0:0:
174,310,232215,2,0,P|193:338|203:384,1,73.6,2|0,3:2|0:0,0:0:0:0:
187,289,232531,6,0,P|284:322|411:334,1,220.799993261719,6|2,3:2|0:0,0:0:0:0:
226,195,233005,1,10,0:0:0:0:
422,245,233163,2,0,P|478:160|436:53,1,220.799993261719,2|2,3:2|0:0,0:0:0:0:
322,223,233636,1,8,0:0:0:0:
180,104,233794,6,0,L|-3:130,1,165.599994946289,2|0,3:2|0:0,0:0:0:0:
211,10,234110,2,0,L|28:36,1,165.599994946289,10|0,0:0|0:0,0:0:0:0:
72,208,234426,6,0,L|131:197,1,55.1999983154297,6|0,3:2|0:0,0:0:0:0:
364,318,234742,2,0,L|310:329,1,55.1999983154297,10|0,0:0|0:0,0:0:0:0:
303,307,235057,6,0,P|349:250|333:147,1,165.599994946289,6|0,3:2|0:0,0:0:0:0:
197,289,235531,2,0,L|178:380,1,82.7999974731446,2|0,0:0|3:0,0:0:0:0:
21,206,235847,2,0,P|68:215|107:231,1,82.7999974731446,8|2,0:0|0:0,0:0:0:0:
29,299,236084,1,2,0:0:0:0:
13,305,236163,1,2,0:0:0:0:
178,167,236320,6,0,P|138:95|122:7,1,165.599994946289,2|0,3:2|0:0,0:0:0:0:
332,113,236794,2,0,L|242:91,1,82.7999974731446,2|0,0:0|3:0,0:0:0:0:
423,17,237110,1,10,0:0:0:0:
506,156,237268,2,0,P|467:162|422:172,1,82.7999974731446,0|0,3:0|0:0,0:0:0:0:
276,222,237584,6,0,P|198:280|133:367,1,202.400006176758,2|0,3:2|3:0,0:0:0:0:
54,155,238057,1,10,0:0:0:0:
50,138,238136,1,2,0:0:0:0:
56,125,238215,2,0,P|85:139|103:155,1,50.6000015441895,2|2,3:2|0:0,0:0:0:0:
184,283,238373,5,8,0:0:0:0:
246,344,238478,1,8,0:0:0:0:
333,330,238584,1,8,0:0:0:0:
401,275,238689,5,0,3:0:0:0:
414,229,238794,1,0,3:0:0:0:
389,188,238899,1,0,3:0:0:0:
307,152,239005,5,0,3:0:0:0:
307,152,240268,2,0,B|124:53|124:53|55:261|55:261|355:177,1,736,2|0,0:0|0:0,0:0:0:0:
404,310,242952,1,0,3:0:0:0:
467,87,243110,6,0,B|500:45|500:45|502:102,1,110.4,8|0,0:0|0:0,0:0:0:0:
447,203,243425,5,6,3:2:0:0:
301,373,243582,1,2,0:0:0:0:
292,328,243661,1,2,0:0:0:0:
284,283,243740,1,8,0:0:0:0:
128,141,243898,1,2,0:0:0:0:
119,96,243977,1,2,0:0:0:0:
111,51,244056,2,0,L|213:80,1,92,2|0,3:2|0:0,0:0:0:0:
282,9,244293,1,0,0:0:0:0:
263,11,244372,1,8,0:0:0:0:
312,181,244530,6,0,P|368:86|430:16,1,184,2|0,0:0|0:0,0:0:0:0:
475,154,244925,1,2,0:0:0:0:
464,109,245003,1,10,0:0:0:0:
395,328,245161,1,0,0:0:0:0:
384,313,245240,1,0,0:0:0:0:
369,302,245319,2,0,P|332:283|273:266,1,92,2|2,3:2|0:0,0:0:0:0:
82,322,245556,1,2,0:0:0:0:
109,358,245635,2,0,L|166:347,1,46,8|0,0:0|0:0,0:0:0:0:
220,206,245793,1,0,0:0:0:0:
223,187,245872,1,0,0:0:0:0:
220,168,245951,6,0,L|192:109,1,55.1999983154297,2|0,3:2|0:0,0:0:0:0:
7,117,246188,1,0,0:0:0:0:
14,162,246267,2,0,L|114:210,1,92,10|0,0:0|0:0,0:0:0:0:
277,33,246503,1,0,0:0:0:0:
226,5,246582,2,0,L|96:40,1,128.799996069336,2|0,3:2|0:0,0:0:0:0:
21,267,246819,1,0,0:0:0:0:
16,284,246898,2,0,L|58:267,1,27.5999991577149,8|0,0:0|0:0,0:0:0:0:
293,119,247056,6,0,P|383:199|324:325,1,276,6|0,3:2|0:0,0:0:0:0:
251,230,247372,1,8,0:0:0:0:
216,209,247451,1,8,0:0:0:0:
160,208,247530,1,8,0:0:0:0:
99,267,247609,1,8,0:0:0:0:
134,349,247688,2,0,P|175:345|204:317,1,73.6,6|0,3:2|0:0,0:0:0:0:
268,124,247846,5,10,0:0:0:0:
319,55,247925,1,2,0:0:0:0:
398,46,248003,1,2,0:0:0:0:
460,84,248082,1,2,0:0:0:0:
486,144,248161,1,10,0:0:0:0:
477,203,248240,1,2,0:0:0:0:
444,251,248319,6,0,P|326:233|299:374,1,275.999991577149,6|0,3:2|0:0,0:0:0:0:
141,310,248793,2,0,P|190:280|210:232,1,110.399996630859,10|0,0:0|0:0,0:0:0:0:
88,196,249030,1,0,0:0:0:0:
99,232,249109,1,2,3:2:0:0:
255,65,249267,1,0,0:0:0:0:
258,48,249346,1,0,0:0:0:0:
262,31,249425,1,8,0:0:0:0:
78,169,249582,6,0,P|52:87|109:1,1,184,2|0,0:0|0:0,0:0:0:0:
203,130,249977,1,0,0:0:0:0:
192,145,250056,2,0,P|183:170|182:204,1,46,8|8,0:0|0:0,0:0:0:0:
263,345,250214,2,0,P|297:321|323:289,1,82.7999974731446,2|0,0:0|0:0,0:0:0:0:
460,199,250372,6,0,P|383:195|330:135,1,147.2,2|0,3:2|0:0,0:0:0:0:
138,279,250688,1,10,0:0:0:0:
145,322,250767,1,2,0:0:0:0:
152,365,250846,1,2,0:0:0:0:
17,199,251003,6,0,P|34:198|61:185,1,36.8,6|0,3:2|0:0,0:0:0:0:
135,108,251161,1,8,0:0:0:0:
137,96,251240,1,8,0:0:0:0:
139,84,251319,1,8,0:0:0:0:
141,72,251398,1,8,0:0:0:0:
144,53,251477,6,0,P|122:39|88:23,1,50.6000015441895,6|0,3:2|0:0,0:0:0:0:
296,18,251635,1,8,0:0:0:0:
277,34,251714,1,8,0:0:0:0:
264,56,251793,1,8,0:0:0:0:
265,81,251872,1,8,0:0:0:0:
282,123,251951,6,0,P|313:141|348:151,1,64.399998034668,6|0,3:2|0:0,0:0:0:0:
486,327,252109,1,8,0:0:0:0:
467,285,252188,1,8,0:0:0:0:
428,261,252267,1,8,0:0:0:0:
383,264,252346,1,8,0:0:0:0:
332,301,252425,6,0,P|296:314|245:317,1,78.2000014915467,6|0,3:2|0:0,0:0:0:0:
70,229,252582,1,10,0:0:0:0:
42,172,252661,1,10,0:0:0:0:
53,109,252740,1,10,0:0:0:0:
97,64,252819,1,10,0:0:0:0:
181,52,252898,6,0,P|219:75|250:131,1,92,6|0,3:2|0:0,0:0:0:0:
172,356,253056,1,10,0:0:0:0:
92,331,253135,1,10,0:0:0:0:
12,306,253214,6,0,L|32:224,1,82.7999974731446,8|0,0:0|0:0,0:0:0:0:
154,51,253530,6,0,P|255:90|352:144,1,220.799993261719,2|0,3:2|0:0,0:0:0:0:
358,51,253767,6,0,P|255:91|158:144,1,220.799993261719,2|0,3:2|0:0,0:0:0:0:
