osu file format v14

[General]
AudioFilename: audio.mp3
AudioLeadIn: 0
PreviewTime: 57584
Countdown: 0
SampleSet: Soft
StackLeniency: 0.5
Mode: 0
LetterboxInBreaks: 0
WidescreenStoryboard: 1

[Editor]
Bookmarks: 7847,17952,28057,38163,48268,58215,68320,81110,91215,101320,111426,121531,131794,141584,154215,159268,169531,179636,189584,199847,209952,218794,230005,243425,253530
DistanceSpacing: 1
BeatDivisor: 4
GridSize: 32
TimelineZoom: 0.8999999

[Metadata]
Title:Senjou no Utahime
TitleUnicode:戦場の歌姫
Artist:La priere
ArtistUnicode:La prière
Creator:Hinsvar
Version:Normal
Source:
Tags:らぷりえーる Diva of the battlefield 棗いつき Natsume Itsuki 藍月なくる Aitsuki Nakuru なゆた nayuta Galaxy Triangle かそかそ Kasokaso Prismagic Japanese Pop J-Pop JPop Rock J-Rock JRock
BeatmapID:2909359
BeatmapSetID:1398580

[Difficulty]
HPDrainRate:3.5
CircleSize:3
OverallDifficulty:4
ApproachRate:6
SliderMultiplier:1.12
SliderTickRate:1

[Events]
//Background and Video events
0,0,"utahime.jpg",0,0
//Break Periods
2,81310,87639
2,179836,198797
//Storyboard Layer 0 (Background)
//Storyboard Layer 1 (Fail)
//Storyboard Layer 2 (Pass)
//Storyboard Layer 3 (Foreground)
//Storyboard Layer 4 (Overlay)
//Storyboard Sound Samples

[TimingPoints]
-2258,315.789473684211,4,2,1,65,1,0
7847,-100,4,2,1,75,0,0
17952,-111.111111111111,4,2,1,65,0,0
28057,-100,4,2,1,70,0,0
37689,-100,4,2,1,65,0,0
38163,-111.111111111111,4,2,1,55,0,0
48268,-100,4,2,1,65,0,0
55847,-100,4,2,1,75,0,0
58215,-95.2380952380952,4,2,1,85,0,1
60268,-95.2380952380952,4,2,1,85,0,0
60742,-95.2380952380952,4,2,1,85,0,1
67847,-95.2380952380952,4,2,1,85,0,0
68320,-95.2380952380952,4,2,1,85,0,1
70373,-95.2380952380952,4,2,1,85,0,0
70847,-95.2380952380952,4,2,1,85,0,1
73373,-100,4,2,1,85,0,1
75899,-95.2380952380952,4,2,1,85,0,1
77320,-95.2380952380952,4,2,1,85,0,0
78584,-142.857142857143,4,2,1,65,0,0
81110,-100,4,2,1,75,0,1
81189,-100,4,2,1,75,0,0
91215,-90.9090909090909,4,2,1,75,0,0
92320,-111.111111111111,4,2,1,65,0,0
93742,-111.111111111111,4,2,1,75,0,0
94215,-111.111111111111,4,2,1,65,0,0
96268,-111.111111111111,4,2,1,75,0,0
96742,-111.111111111111,4,2,1,65,0,0
99110,-111.111111111111,4,2,1,55,0,0
100057,-111.111111111111,4,2,1,65,0,0
101320,-100,4,2,1,70,0,0
110952,-100,4,2,1,65,0,0
111426,-111.111111111111,4,2,1,55,0,0
121215,-111.111111111111,4,2,1,65,0,0
121531,-100,4,2,1,65,0,0
129110,-100,4,2,1,75,0,0
131794,-95.2380952380952,4,2,1,85,0,1
133531,-95.2380952380952,4,2,1,85,0,0
134005,-95.2380952380952,4,2,1,85,0,1
141110,-95.2380952380952,4,2,1,85,0,0
141584,-95.2380952380952,4,2,1,85,0,1
143636,-95.2380952380952,4,2,1,85,0,0
144110,-95.2380952380952,4,2,1,85,0,1
146636,-100,4,2,1,85,0,1
149163,-95.2380952380952,4,2,1,85,0,1
150584,-95.2380952380952,4,2,1,85,0,0
152005,-142.857142857143,4,2,1,65,0,0
154215,-100,4,2,1,75,0,1
154294,-100,4,2,1,75,0,0
158320,-100,4,2,1,50,0,0
159110,-100,4,2,1,60,0,0
159268,-100,4,2,1,70,0,0
169531,-100,4,2,1,75,0,0
179005,-100,4,2,1,65,0,0
179636,-100,4,2,1,60,0,0
199847,-111.111111111111,4,2,1,60,0,0
209952,-100,4,2,1,60,0,0
214215,-100,4,2,1,70,0,0
214847,-95.2380952380952,4,2,1,85,0,1
218794,-95.2380952380952,4,2,1,85,0,0
220215,-95.2380952380952,4,2,1,75,0,0
221163,-95.2380952380952,4,2,1,55,0,0
221952,-95.2380952380952,4,2,1,75,0,0
223689,-95.2380952380952,4,2,1,85,0,1
229531,-95.2380952380952,4,2,1,85,0,0
230005,-95.2380952380952,4,2,1,85,0,1
232057,-95.2380952380952,4,2,1,85,0,0
232531,-95.2380952380952,4,2,1,85,0,1
235057,-100,4,2,1,85,0,1
237584,-95.2380952380952,4,2,1,85,0,1
240268,-142.857142857143,4,2,1,70,0,0
243425,315.789473684211,4,2,1,75,1,1
243503,-100,4,2,1,75,0,0
253530,-90.9090909090909,4,2,1,75,0,0

[Colours]
Combo1 : 234,68,118
Combo2 : 231,187,54
Combo3 : 98,243,247

[HitObjects]
417,151,7847,6,0,B|433:99|433:99|404:37,2,112,6|10|2,0:0|0:0|3:2,0:0:0:0:
331,223,8794,1,8,0:0:0:0:
331,223,8952,2,0,P|283:208|196:194,1,112,2|0,0:0|0:0,0:0:0:0:
172,222,9426,1,10,0:0:0:0:
90,299,9742,2,0,P|83:331|81:362,2,56,2|2|8,3:2|0:0|0:0,0:0:0:0:
34,201,10373,6,0,P|16:150|19:78,1,112,2|10,3:2|0:0,0:0:0:0:
101,21,11005,1,2,3:2:0:0:
193,94,11320,1,8,0:0:0:0:
193,94,11478,2,0,P|241:76|302:66,1,112,6|8,3:2|0:0,0:0:0:0:
347,97,11952,1,8,0:0:0:0:
347,97,12110,2,0,B|427:82|427:82|482:158,1,168,6|10,3:2|0:0,0:0:0:0:
450,201,12742,6,0,P|369:217|308:286,1,168,6|10,3:2|0:0,0:0:0:0:
230,354,13531,1,2,3:2:0:0:
154,278,13847,1,8,0:0:0:0:
154,278,14005,2,0,P|155:216|146:148,1,112,2|0,0:0|0:0,0:0:0:0:
111,125,14478,2,0,B|109:88|109:88|119:62,2,56,8|2|2,0:0|0:0|3:2,0:0:0:0:
14,182,15110,2,0,P|29:208|34:242,1,56,10|2,0:0|0:0,0:0:0:0:
18,287,15426,6,0,P|68:297|134:330,1,112,6|8,3:2|0:0,0:0:0:0:
160,364,15899,1,6,3:2:0:0:
266,330,16215,1,8,0:0:0:0:
266,330,16373,2,0,P|269:299|277:266,1,56,6|10,3:2|0:0,0:0:0:0:
256,221,16689,6,0,P|287:191|342:172,1,84,6|2,3:2|3:2,0:0:0:0:
324,174,17952,6,0,P|305:127|298:64,1,100.799996923828,6|8,3:2|0:0,0:0:0:0:
221,11,18584,2,0,P|173:12|114:36,1,100.799996923828,2|0,3:2|0:0,0:0:0:0:
78,52,19057,1,10,0:0:0:0:
60,155,19373,1,0,0:0:0:0:
60,155,19531,1,8,0:0:0:0:
158,175,19847,2,0,L|164:237,1,50.3999984619141,2|0,3:2|3:0,0:0:0:0:
253,280,20320,1,8,0:0:0:0:
253,280,20478,6,0,P|216:318|183:359,1,100.799996923828,2|8,3:2|0:0,0:0:0:0:
85,364,21110,2,0,P|51:328|-3:299,1,100.799996923828,2|0,3:2|0:0,0:0:0:0:
3,252,21584,1,10,0:0:0:0:
100,226,21899,2,0,L|107:172,1,50.3999984619141,0|8,3:0|0:0,0:0:0:0:
187,114,22373,1,2,3:2:0:0:
187,114,22531,2,0,L|218:57,1,50.3999984619141,0|8,3:0|0:0,0:0:0:0:
300,22,23005,6,0,P|343:53|409:68,1,100.799996923828,2|8,3:2|0:0,0:0:0:0:
489,72,23636,2,0,L|473:184,1,100.799996923828,2|0,3:2|0:0,0:0:0:0:
450,214,24110,1,10,0:0:0:0:
400,300,24426,1,0,3:0:0:0:
400,300,24584,2,0,B|353:280|353:280|301:306,1,100.799996923828,8|2,0:0|3:2,0:0:0:0:
287,348,25057,1,0,3:0:0:0:
193,309,25373,1,8,0:0:0:0:
193,309,25531,6,0,P|204:258|206:203,1,100.799996923828,2|8,3:2|0:0,0:0:0:0:
170,181,26005,1,2,3:2:0:0:
170,181,26163,2,0,L|162:116,1,50.3999984619141,0|0,3:0|3:0,0:0:0:0:
184,84,26478,1,10,0:0:0:0:
96,34,26794,2,0,P|49:58|10:97,1,100.799996923828,10|0,0:0|3:0,0:0:0:0:
39,135,27268,2,0,P|24:177|14:247,1,100.799996923828,10|0,0:0|3:0,0:0:0:0:
38,276,27742,1,10,0:0:0:0:
118,353,28057,6,0,P|166:329|230:322,1,112,6|8,3:2|0:0,0:0:0:0:
265,284,28531,1,0,0:0:0:0:
265,284,28689,2,0,B|243:236|243:236|255:173,1,112,2|8,3:2|0:0,0:0:0:0:
278,126,29163,1,2,3:2:0:0:
371,196,29478,1,0,3:0:0:0:
371,196,29636,2,0,P|430:177|488:175,1,112,8|0,0:0|3:0,0:0:0:0:
508,125,30110,1,2,3:2:0:0:
444,39,30426,1,0,3:0:0:0:
444,39,30584,6,0,B|389:41|389:41|352:93,1,112,2|8,3:2|0:0,0:0:0:0:
332,138,31057,1,0,0:0:0:0:
332,138,31215,2,0,P|284:136|209:110,1,112,2|8,3:2|0:0,0:0:0:0:
206,63,31689,1,2,3:2:0:0:
107,22,32005,1,0,0:0:0:0:
107,22,32163,2,0,L|39:37,1,56,8|0,0:0|0:0,0:0:0:0:
18,79,32478,1,2,3:2:0:0:
103,149,32794,1,8,0:0:0:0:
183,227,33110,6,0,P|203:281|211:344,1,112,6|8,3:2|0:0,0:0:0:0:
256,376,33584,1,0,0:0:0:0:
256,376,33742,2,0,P|296:335|350:301,1,112,2|8,3:2|0:0,0:0:0:0:
397,297,34215,1,2,3:2:0:0:
342,198,34531,2,0,P|339:143|353:81,1,112,0|2,3:0|3:2,0:0:0:0:
462,94,35163,2,0,P|476:125|480:151,1,56,0|8,3:0|0:0,0:0:0:0:
465,200,35478,5,6,3:2:0:0:
301,353,36110,2,0,P|233:325|137:307,1,168,2|2,3:2|3:2,0:0:0:0:
49,148,37057,2,0,P|131:133|209:102,1,168,2|2,3:2|3:2,0:0:0:0:
290,24,37847,1,0,3:0:0:0:
376,76,38163,6,0,P|393:116|405:181,2,100.799996923828,6|0|0,3:2|0:0|0:0,0:0:0:0:
290,129,39110,1,2,0:0:0:0:
108,41,39742,2,0,P|63:28|0:20,2,100.799996923828,2|0|0,0:0|0:0|0:0,0:0:0:0:
127,140,40689,6,0,P|101:184|83:253,1,100.799996923828,2|0,0:0|0:0,0:0:0:0:
100,279,41163,1,0,0:0:0:0:
186,330,41478,1,0,0:0:0:0:
264,265,41794,1,2,0:0:0:0:
264,265,41952,2,0,P|313:252|382:250,1,100.799996923828
382,348,42584,2,0,P|333:361|264:363,1,100.799996923828,2|0,0:0|0:0,0:0:0:0:
186,330,43215,6,0,P|142:311|78:294,1,100.799996923828,2|0,0:0|0:0,0:0:0:0:
57,258,43689,1,2,0:0:0:0:
132,191,44005,1,0,0:0:0:0:
85,101,44320,1,0,0:0:0:0:
85,101,44478,2,0,P|146:40|218:17,1,151.199995385742,2|0,0:0|0:0,0:0:0:0:
310,30,45268,1,2,0:0:0:0:
310,30,45426,1,0,0:0:0:0:
396,82,45742,6,0,P|414:129|421:188,1,100.799996923828,2|2,0:0|0:0,0:0:0:0:
348,248,46373,1,2,0:0:0:0:
412,325,46689,1,2,0:0:0:0:
485,255,47005,1,2,0:0:0:0:
421,178,47320,2,0,B|417:130|417:130|446:86,2,100.799996923828,0|2|2,0:0|0:0|0:3,0:0:0:0:
348,248,48268,5,6,3:2:0:0:
255,184,48584,2,0,P|203:161|130:150,2,112,2|0|0,3:2|3:0|0:0,0:0:0:0:
296,146,49373,2,0,P|290:120|288:90,1,56,8|2,0:0|3:2,0:0:0:0:
369,13,49847,1,0,3:0:0:0:
469,63,50163,2,0,P|480:123|482:185,1,112,2|0,3:2|3:0,0:0:0:0:
474,232,50636,1,8,0:0:0:0:
474,232,50794,1,2,3:2:0:0:
388,304,51110,6,0,P|342:276|278:265,1,112,0|2,0:0|3:2,0:0:0:0:
213,349,51742,2,0,P|192:362|151:361,1,56,0|8,3:0|0:0,0:0:0:0:
109,342,52057,1,2,3:2:0:0:
45,249,52373,1,2,3:2:0:0:
135,182,52689,2,0,P|151:128|149:70,1,112,2|0,3:2|3:0,0:0:0:0:
122,29,53163,1,8,0:0:0:0:
122,29,53320,5,6,3:2:0:0:
231,6,53636,1,2,3:2:0:0:
315,79,53952,1,2,3:2:0:0:
283,186,54268,1,2,3:2:0:0:
308,295,54584,2,0,P|355:334|421:342,1,112,0|2,3:0|3:2,0:0:0:0:
476,257,55215,2,0,P|464:226|461:191,1,56,2|2,3:2|0:0,0:0:0:0:
476,149,55531,1,2,3:2:0:0:
408,59,55847,6,0,B|353:41|353:41|299:50|299:50|235:29,2,168,6|6|6,3:2|3:2|3:2,0:0:0:0:
408,59,58215,6,0,P|387:102|376:195,1,117.599996411133,6|10,3:2|0:0,0:0:0:0:
414,221,58689,1,8,0:0:0:0:
414,221,58847,1,6,3:2:0:0:
370,330,59163,2,0,P|348:345|306:352,1,58.7999982055665,8|8,0:0|0:0,0:0:0:0:
271,314,59478,2,0,P|223:282|150:282,1,117.599996411133,6|8,3:2|0:0,0:0:0:0:
121,319,59952,1,10,0:0:0:0:
25,248,60268,1,2,3:2:0:0:
30,252,60426,1,2,3:2:0:0:
126,184,60742,6,0,P|138:132|143:65,1,117.599996411133,6|2,3:2|0:0,0:0:0:0:
149,13,61215,1,8,0:0:0:0:
149,13,61373,2,0,L|268:29,1,117.599996411133,2|2,3:2|0:0,0:0:0:0:
297,84,61847,1,8,0:0:0:0:
297,84,62005,1,6,3:2:0:0:
403,34,62320,2,0,P|431:26|467:21,2,58.7999982055665,2|10|0,0:0|0:0|0:0,0:0:0:0:
419,90,62794,1,2,3:2:0:0:
359,191,63110,2,0,P|351:229|350:268,1,58.7999982055665,8|8,0:0|0:0,0:0:0:0:
392,290,63426,5,6,3:2:0:0:
299,363,63742,1,8,0:0:0:0:
192,312,64057,2,0,P|136:290|68:278,1,117.599996411133,2|8,3:2|0:0,0:0:0:0:
41,233,64531,2,0,B|73:194|73:194|64:125,1,117.599996411133,2|0,3:2|3:0,0:0:0:0:
56,73,65005,1,8,0:0:0:0:
56,73,65163,1,2,3:2:0:0:
163,26,65478,2,0,P|182:48|203:94,1,58.7999982055665,2|8,3:2|0:0,0:0:0:0:
188,132,65794,6,0,P|169:210|156:324,1,176.399994616699,6|10,3:2|0:0,0:0:0:0:
261,360,66584,2,0,P|291:349|325:343,1,58.7999982055665,10|0,0:0|3:0,0:0:0:0:
339,289,66899,2,0,P|398:292|478:306,1,117.599996411133,2|10,3:2|0:0,0:0:0:0:
504,193,67531,1,2,3:2:0:0:
417,121,67847,1,2,3:2:0:0:
417,121,68005,1,2,3:2:0:0:
319,185,68320,6,0,P|269:161|219:108,1,117.599996411133,6|2,3:2|0:2,0:0:0:0:
168,17,68952,1,0,3:0:0:0:
168,17,69110,2,0,B|107:24|107:24|82:89,1,117.599996411133,2|0,3:2|3:0,0:0:0:0:
116,127,69584,2,0,P|111:212|91:307,1,176.399994616699,14|8,0:0|0:0,0:0:0:0:
202,357,70373,1,2,3:2:0:0:
202,357,70531,1,2,3:2:0:0:
296,286,70847,6,0,P|371:303|424:331,1,117.599996411133,6|2,3:2|0:0,0:0:0:0:
459,347,71320,1,8,0:0:0:0:
459,347,71478,2,0,B|453:287|453:287|470:226,1,117.599996411133,2|2,3:2|0:0,0:0:0:0:
491,179,71952,1,8,0:0:0:0:
491,179,72110,1,2,3:2:0:0:
387,123,72426,1,10,0:0:0:0:
341,231,72742,1,6,3:2:0:0:
237,174,73057,1,10,0:0:0:0:
130,209,73373,6,0,P|71:197|24:105,1,168,6|2,3:2|0:0,0:0:0:0:
105,29,74163,1,8,0:0:0:0:
203,92,74478,1,2,0:0:0:0:
203,92,74636,2,0,P|242:74|316:52,1,112,2|0,3:2|3:0,0:0:0:0:
352,88,75110,2,0,P|340:121|337:153,1,56,2|0,0:0|0:0,0:0:0:0:
360,198,75426,1,10,0:0:0:0:
360,198,75584,1,0,3:0:0:0:
474,170,75899,6,0,P|479:115|449:33,1,117.599996411133,2|0,3:2|3:0,0:0:0:0:
415,18,76373,1,10,0:0:0:0:
334,104,76689,2,0,P|288:120|202:111,1,117.599996411133,10|0,0:0|3:0,0:0:0:0:
141,30,77320,5,6,3:2:0:0:
141,30,78584,2,0,B|30:142|30:142|164:282|164:282|204:124,1,509.599984448243,2|0,0:0|3:0,0:0:0:0:
219,76,80794,1,8,0:0:0:0:
319,126,81110,5,6,3:2:0:0:
81,52,88689,6,0,B|99:103|99:103|87:173,1,112,6|8,0:0|0:0,0:0:0:0:
46,196,89163,1,6,3:2:0:0:
94,302,89478,1,8,0:0:0:0:
94,302,89636,2,0,P|143:288|216:275,1,112,6|8,3:2|0:0,0:0:0:0:
232,228,90110,2,0,P|280:244|347:275,1,112,6|8,3:2|0:0,0:0:0:0:
379,304,90584,1,6,3:2:0:0:
475,248,90899,2,0,P|477:214|474:181,1,56,2|10,0:0|0:0,0:0:0:0:
470,130,91215,6,0,P|452:92|392:43,1,92.4000028198243,2|2,3:2|3:2,0:0:0:0:
417,56,92320,2,0,P|350:77|257:83,1,151.199995385742,8|2,0:0|0:0,0:0:0:0:
197,21,93110,1,8,0:0:0:0:
197,21,93268,1,0,3:0:0:0:
124,90,93584,1,8,0:0:0:0:
124,90,93742,6,0,P|89:85|48:72,2,75.5999976928712,2|2|2,3:2|3:2|0:0,0:0:0:0:
208,147,94531,1,2,0:3:0:0:
100,273,95005,2,0,L|106:336,1,50.3999984619141,0|8,3:0|0:0,0:0:0:0:
189,378,95478,2,0,P|230:353|293:338,1,100.799996923828,8|0,0:0|3:0,0:0:0:0:
326,360,95952,1,0,3:0:0:0:
397,288,96268,6,0,B|433:268|433:268|472:297,2,75.5999976928712,2|2|2,3:2|3:2|0:0,0:0:0:0:
321,221,97057,2,0,P|311:169|292:122,1,100.799996923828,8|2,0:0|3:2,0:0:0:0:
146,45,97847,2,0,L|83:52,1,50.3999984619141,10|0,0:0|3:0,0:0:0:0:
34,130,98320,2,0,L|93:153,1,50.3999984619141,2|0,3:2|3:0,0:0:0:0:
112,194,98636,1,8,0:0:0:0:
112,194,98794,6,0,L|123:303,1,100.799996923828,6|2,3:2|3:2,0:0:0:0:
199,359,99426,2,0,L|253:340,1,50.3999984619141,2|0,3:2|3:0,0:0:0:0:
279,303,99742,2,0,L|333:322,1,50.3999984619141,10|8,0:0|0:0,0:0:0:0:
364,352,100057,1,6,3:2:0:0:
364,352,101320,6,0,L|366:224,1,112,6|8,3:2|0:0,0:0:0:0:
406,200,101794,1,0,0:0:0:0:
406,200,101952,2,0,L|296:163,1,112,2|8,3:2|0:0,0:0:0:0:
275,113,102426,1,2,3:2:0:0:
353,32,102742,1,0,3:0:0:0:
353,32,102899,2,0,P|395:12|458:29,1,112,8|2,0:0|3:2,0:0:0:0:
489,73,103373,1,0,3:0:0:0:
443,187,103689,1,0,3:0:0:0:
443,187,103847,6,0,P|456:241|460:321,1,112,2|8,0:0|0:0,0:0:0:0:
437,350,104320,1,0,3:0:0:0:
437,350,104478,2,0,B|389:319|389:319|327:331,1,112,2|8,3:2|0:0,0:0:0:0:
280,343,104952,1,2,3:2:0:0:
171,369,105268,1,0,3:0:0:0:
171,369,105426,2,0,L|159:296,1,56,8|0,0:0|3:0,0:0:0:0:
192,266,105742,1,2,3:2:0:0:
102,198,106057,1,8,0:0:0:0:
203,150,106373,6,0,P|220:97|227:29,1,112,6|8,3:2|0:0,0:0:0:0:
184,13,106847,1,0,3:0:0:0:
184,13,107005,2,0,P|129:24|67:52,1,112,2|8,3:2|0:0,0:0:0:0:
48,94,107478,1,2,3:2:0:0:
109,187,107794,2,0,B|115:244|115:244|93:311,1,112,0|2,3:0|3:2,0:0:0:0:
181,371,108426,2,0,P|203:356|242:348,1,56,0|8,3:0|0:0,0:0:0:0:
286,358,108742,5,6,3:2:0:0:
458,215,109373,2,0,P|475:134|480:45,1,168,2|2,3:2|3:2,0:0:0:0:
298,86,110320,2,0,P|281:167|276:256,1,168,2|2,3:2|3:2,0:0:0:0:
307,359,111110,1,0,3:1:0:0:
401,322,111426,6,0,P|452:313|510:320,2,100.799996923828,6|0|0,3:2|0:0|0:0,0:0:0:0:
378,223,112373,1,2,0:0:0:0:
202,359,113005,2,0,P|169:328|139:267,2,100.799996923828,2|0|0,0:0|0:0|0:0,0:0:0:0:
268,269,113952,6,0,P|263:222|271:153,1,100.799996923828,2|0,0:0|0:0,0:0:0:0:
296,120,114426,1,0,0:0:0:0:
239,36,114742,1,0,0:0:0:0:
152,83,115057,1,2,0:0:0:0:
152,83,115215,2,0,P|104:82|46:69,1,100.799996923828
37,171,115847,2,0,P|85:172|143:185,1,100.799996923828,2|0,0:0|0:0,0:0:0:0:
216,244,116478,6,0,P|218:290|234:365,1,100.799996923828,2|0,0:0|0:0,0:0:0:0:
273,366,116952,1,0,0:0:0:0:
371,343,117268,1,0,0:0:0:0:
344,250,117584,1,0,0:0:0:0:
344,250,117742,2,0,P|334:204|387:94,1,151.199995385742,2|0,0:0|0:0,0:0:0:0:
444,41,118531,1,2,0:0:0:0:
444,41,118689,1,0,0:0:0:0:
348,8,119005,6,0,P|301:8|236:15,1,100.799996923828,2|2,0:0|0:0,0:0:0:0:
151,43,119636,1,2,0:0:0:0:
75,109,119952,1,2,0:0:0:0:
144,182,120268,1,2,0:0:0:0:
101,273,120584,2,0,P|99:322|112:376,2,100.799996923828,0|0|2,0:0|0:0|0:3,0:0:0:0:
206,311,121531,5,6,3:2:0:0:
301,251,121847,2,0,P|312:201|318:128,2,112,0|2|0,3:0|3:2|3:0,0:0:0:0:
315,305,122636,2,0,L|386:339,1,56,8|2,0:0|3:2,0:0:0:0:
476,335,123110,1,2,3:2:0:0:
504,226,123426,2,0,P|494:174|465:109,1,112,2|0,3:2|3:0,0:0:0:0:
428,92,123899,1,8,0:0:0:0:
428,92,124057,1,2,3:2:0:0:
323,51,124373,6,0,P|282:81|222:88,1,112,0|2,3:0|3:2,0:0:0:0:
125,31,125005,2,0,P|95:30|63:38,1,56,0|8,3:0|0:0,0:0:0:0:
24,69,125320,1,2,3:2:0:0:
101,148,125636,1,2,3:2:0:0:
41,242,125952,2,0,P|24:296|32:351,1,112,2|0,3:2|3:0,0:0:0:0:
91,359,126426,1,8,0:0:0:0:
91,359,126584,5,6,3:2:0:0:
165,276,126899,1,2,3:2:0:0:
276,285,127215,1,2,3:2:0:0:
366,350,127531,1,2,3:2:0:0:
473,318,127847,2,0,P|495:269|494:199,1,112,0|2,3:0|3:2,0:0:0:0:
409,141,128478,2,0,P|379:148|347:169,1,56,2|2,3:2|0:0,0:0:0:0:
326,209,128794,1,2,3:2:0:0:
336,320,129110,6,0,B|265:355|265:355|181:290,2,168,6|6|6,3:2|3:2|3:2,0:0:0:0:
336,320,131794,6,0,P|347:258|352:200,1,117.599996411133,6|8,3:2|0:0,0:0:0:0:
339,150,132268,1,8,0:0:0:0:
339,150,132426,2,0,L|323:87,1,58.7999982055665,8|8,0:0|0:0,0:0:0:0:
343,36,132742,2,0,P|400:31|480:70,1,117.599996411133,6|8,3:2|0:0,0:0:0:0:
485,101,133215,1,10,0:0:0:0:
440,212,133531,1,2,3:2:0:0:
440,212,133689,1,2,3:2:0:0:
326,181,134005,6,0,P|272:184|201:204,1,117.599996411133,6|2,3:2|0:0,0:0:0:0:
172,245,134478,1,8,0:0:0:0:
172,245,134636,2,0,P|158:310|119:371,1,117.599996411133,2|2,3:2|0:0,0:0:0:0:
80,374,135110,1,8,0:0:0:0:
80,374,135268,1,6,3:2:0:0:
15,275,135584,2,0,P|6:247|3:211,2,58.7999982055665,2|10|0,0:0|0:0|0:0,0:0:0:0:
73,274,136057,1,2,3:2:0:0:
139,176,136373,2,0,P|172:167|205:165,1,58.7999982055665,8|8,0:0|0:0,0:0:0:0:
247,194,136689,5,6,3:2:0:0:
325,281,137005,1,8,0:0:0:0:
426,223,137320,2,0,P|445:171|452:110,1,117.599996411133,2|8,3:2|0:0,0:0:0:0:
455,50,137794,2,0,B|400:64|400:64|334:37,1,117.599996411133,2|0,3:2|3:0,0:0:0:0:
296,15,138268,1,8,0:0:0:0:
296,15,138426,1,2,3:2:0:0:
199,82,138742,2,0,P|191:111|188:148,1,58.7999982055665,2|8,3:2|0:0,0:0:0:0:
216,190,139057,6,0,P|250:260|237:370,1,176.399994616699,6|10,3:2|0:0,0:0:0:0:
124,357,139847,2,0,P|105:334|75:316,1,58.7999982055665,10|0,0:0|3:0,0:0:0:0:
110,267,140163,2,0,P|85:212|41:160,1,117.599996411133,2|10,3:2|0:0,0:0:0:0:
102,62,140794,1,2,3:2:0:0:
212,115,141110,1,2,3:2:0:0:
212,115,141268,1,2,3:2:0:0:
321,72,141584,5,6,3:2:0:0:
403,154,141899,2,0,P|442:141|496:127,2,88.1999973083497,10|10|10,0:0|0:0|0:0,0:0:0:0:
351,226,142610,2,0,P|310:215|250:202,1,88.1999973083497,10|14,0:0|0:0,0:0:0:0:
189,295,143163,6,0,P|200:326|200:357,2,58.7999982055665,8|10|8,0:0|0:0|0:0,0:0:0:0:
136,269,143636,1,2,3:2:0:0:
136,269,143794,1,2,3:2:0:0:
83,171,144110,6,0,P|84:111|116:47,1,117.599996411133,6|2,3:2|0:0,0:0:0:0:
160,33,144584,1,10,0:0:0:0:
160,33,144742,2,0,B|189:86|189:86|257:103,1,117.599996411133,2|2,3:2|0:0,0:0:0:0:
291,64,145215,1,8,0:0:0:0:
291,64,145373,1,2,3:2:0:0:
388,129,145689,1,10,0:0:0:0:
318,224,146005,1,6,3:2:0:0:
347,337,146320,1,10,0:0:0:0:
459,370,146636,6,0,P|485:296|487:208,1,168,6|2,3:2|0:0,0:0:0:0:
416,119,147426,1,8,0:0:0:0:
336,198,147742,1,2,0:0:0:0:
336,198,147899,2,0,P|283:218|228:210,1,112,2|0,3:2|0:0,0:0:0:0:
185,175,148373,2,0,P|188:146|183:118,1,56,2|0,0:0|3:0,0:0:0:0:
144,87,148689,1,10,0:0:0:0:
144,87,148847,1,0,3:0:0:0:
60,170,149163,6,0,P|43:229|36:303,1,117.599996411133,2|0,3:2|0:0,0:0:0:0:
61,338,149636,1,10,0:0:0:0:
160,275,149952,2,0,B|210:246|210:246|268:269,1,117.599996411133,10|0,0:0|3:0,0:0:0:0:
350,349,150584,5,6,3:2:0:0:
350,349,152005,2,0,B|429:212|429:212|243:108|243:108|262:247,1,509.599984448243,6|0,0:0|0:0,0:0:0:0:
265,301,154215,6,0,P|219:320|139:331,1,112,6|10,3:2|0:0,0:0:0:0:
123,294,154689,1,10,0:0:0:0:
123,294,154847,1,2,3:2:0:0:
80,190,155163,2,0,P|86:156|92:115,1,56,10|10,0:0|0:0,0:0:0:0:
51,93,155478,2,0,P|114:78|164:40,1,112,6|10,3:2|0:0,0:0:0:0:
198,17,155952,1,10,0:0:0:0:
198,17,156110,1,2,3:2:0:0:
286,86,156426,2,0,P|293:117|290:149,1,56,10|10,0:0|0:0,0:0:0:0:
271,193,156742,6,0,P|255:247|251:328,1,112,6|2,3:2|0:0,0:0:0:0:
270,354,157215,1,2,0:0:0:0:
381,364,157531,1,2,0:0:0:0:
486,320,157847,1,10,0:0:0:0:
486,320,158005,1,2,3:2:0:0:
440,218,158320,2,0,P|446:161|465:106,2,112,2|2|2,0:0|0:0|0:0,0:0:0:0:
395,251,159110,1,8,0:0:0:0:
395,251,159268,6,0,B|344:221|344:221|285:242,1,112,6|2,3:2|0:0,0:0:0:0:
291,295,159742,1,8,0:0:0:0:
199,357,160057,1,2,3:2:0:0:
199,357,160215,1,2,3:2:0:0:
109,291,160531,2,0,P|104:235|125:170,1,112,10|0,0:0|3:0,0:0:0:0:
152,136,161005,1,8,0:0:0:0:
248,192,161320,2,0,P|277:179|314:172,1,56,2|0,3:2|3:0,0:0:0:0:
399,116,161794,6,0,B|455:137|455:137|497:190,1,112,10|2,0:0|0:0,0:0:0:0:
487,234,162268,2,0,B|454:274|454:274|398:295,1,112,8|0,0:0|3:0,0:0:0:0:
364,251,162742,1,2,3:2:0:0:
286,331,163057,2,0,P|239:296|168:268,1,112,10|2,0:0|3:2,0:0:0:0:
135,287,163531,1,8,0:0:0:0:
38,357,163847,2,0,P|16:332|4:295,1,56,2|0,3:2|3:0,0:0:0:0:
5,254,164163,1,8,0:0:0:0:
75,166,164478,6,0,P|93:112|92:44,2,112,6|8|2,3:2|0:0|3:2,0:0:0:0:
112,207,165268,1,2,3:2:0:0:
216,141,165584,2,0,P|266:128|336:121,1,112,10|2,0:0|3:2,0:0:0:0:
364,161,166057,1,10,0:0:0:0:
464,223,166373,1,2,3:2:0:0:
464,223,166531,1,0,3:0:0:0:
504,118,166847,6,0,P|500:67|474:7,1,112,10|0,0:0|0:0,0:0:0:0:
420,11,167320,1,10,0:0:0:0:
336,84,167636,2,0,P|302:77|268:61,1,56,2|0,3:2|3:0,0:0:0:0:
243,28,167952,2,0,P|209:35|175:51,1,56,10|2,0:0|3:2,0:0:0:0:
154,87,168268,1,14,0:0:0:0:
128,199,168584,1,8,0:0:0:0:
128,199,168742,2,0,L|121:271,1,56,6|2,3:2|3:2,0:0:0:0:
144,306,169057,2,0,L|257:264,1,112,2|8,3:2|0:0,0:0:0:0:
289,306,169531,5,14,0:0:0:0:
344,208,169847,1,14,0:0:0:0:
456,208,170163,1,10,0:0:0:0:
501,310,170478,2,0,P|496:338|471:364,1,56,10|0,0:0|0:0,0:0:0:0:
423,369,170794,2,0,P|380:347|313:336,1,112,8|8,0:0|0:0,0:0:0:0:
237,257,171426,2,0,P|191:271|135:311,1,112,8|10,0:0|0:0,0:0:0:0:
113,359,171899,1,0,0:0:0:0:
113,359,172057,6,0,B|57:353|57:353|15:292,1,112,10|10,0:0|0:0,0:0:0:0:
76,206,172689,2,0,B|40:162|40:162|54:89,1,112,8|10,0:0|0:0,0:0:0:0:
133,32,173320,2,0,P|161:48|177:72,1,56,8|2,0:0|0:0,0:0:0:0:
230,72,173636,2,0,P|240:97|239:125,1,56,8|2,0:0|0:0,0:0:0:0:
214,175,173952,1,8,0:0:0:0:
281,264,174268,1,10,0:0:0:0:
387,228,174584,6,0,P|444:231|504:261,1,112,6|8,3:2|0:0,0:0:0:0:
474,363,175215,2,0,P|417:360|357:330,1,112,10|10,0:0|0:0,0:0:0:0:
281,264,175847,1,10,0:0:0:0:
197,338,176163,2,0,P|172:347|129:352,1,56,2|0,0:0|3:0,0:0:0:0:
94,324,176478,2,0,P|105:274|100:206,1,112,10|10,0:0|0:0,0:0:0:0:
61,174,176952,6,0,P|32:114|118:65,1,168,6|0,3:2|3:0,0:0:0:0:
179,141,177742,1,8,0:0:0:0:
288,118,178057,1,2,3:2:0:0:
365,37,178373,2,0,B|445:17|445:17|495:106,1,168,6|2,0:0|3:2,0:0:0:0:
461,141,179005,2,0,P|442:198|447:264,1,112,2|0,3:2|3:0,0:0:0:0:
484,353,179636,5,4,0:0:0:0:
412,20,199847,5,4,3:2:0:0:
321,64,200163,2,0,P|270:78|203:110,2,100.799996923828,2|2|2,3:2|3:2|3:2,0:0:0:0:
379,146,201110,1,2,3:2:0:0:
331,234,201426,2,0,P|317:292|320:348,1,100.799996923828,2|2,3:2|3:2,0:0:0:0:
361,357,201899,1,0,0:0:0:0:
444,300,202215,6,0,L|459:190,1,100.799996923828,2|2,0:0|0:0,0:0:0:0:
448,155,202689,1,0,3:0:0:0:
448,155,202847,2,0,L|338:140,1,100.799996923828,2|2,0:0|0:0,0:0:0:0:
272,208,203478,2,0,L|162:223,1,100.799996923828,2|2,0:0|0:0,0:0:0:0:
127,197,203952,2,0,L|132:145,1,50.3999984619141,2|0,3:2|0:0,0:0:0:0:
97,109,204268,1,2,3:2:0:0:
153,25,204584,2,0,L|200:43,1,50.3999984619141,2|0,3:2|0:0,0:0:0:0:
246,63,204899,6,0,P|297:47|347:41,2,100.799996923828,2|2|2,3:2|3:2|3:2,0:0:0:0:
191,147,205847,1,2,3:2:0:0:
121,220,206163,1,2,3:2:0:0:
121,220,206320,2,0,P|65:208|16:181,2,100.799996923828,2|2|2,0:0|0:0|0:0,0:0:0:0:
220,235,207268,6,0,P|249:278|266:342,1,100.799996923828,2|0,0:0|0:0,0:0:0:0:
304,354,207742,2,0,L|365:366,2,50.3999984619141,2|0|2,3:2|0:0|3:2,0:0:0:0:
348,262,208373,1,2,3:2:0:0:
435,212,208689,1,2,3:2:0:0:
452,112,209005,1,2,3:2:0:0:
372,59,209320,1,0,3:0:0:0:
372,59,209478,2,0,B|325:60|325:60|280:95,1,100.799996923828,8|0,0:0|0:0,0:0:0:0:
254,142,209952,5,4,3:2:0:0:
250,254,210268,2,0,P|203:282|148:302,2,112,2|2|2,3:2|3:2|3:2,0:0:0:0:
161,186,211215,1,0,3:0:0:0:
68,122,211531,2,0,B|53:68|53:68|79:19,1,112,2|2,3:2|3:2,0:0:0:0:
135,21,212005,1,0,0:0:0:0:
235,69,212320,6,0,L|270:179,1,112,2|2,0:0|0:0,0:0:0:0:
311,220,212794,1,0,3:0:0:0:
311,220,212952,2,0,L|276:330,1,112,2|2,0:0|0:0,0:0:0:0:
233,371,213426,2,0,P|209:361|181:333,1,56,0|2,3:0|0:0,0:0:0:0:
146,236,213899,2,0,P|165:219|181:180,1,56,2|0,0:0|3:0,0:0:0:0:
175,140,214215,1,8,0:0:0:0:
175,140,214373,2,0,L|130:91,2,56,8|8|8,0:0|0:0|0:0,0:0:0:0:
228,113,214847,6,0,P|289:96|351:145,1,117.599996411133,6|0,3:2|0:0,0:0:0:0:
373,164,215320,1,8,0:0:0:0:
285,239,215636,2,0,B|276:298|276:298|313:359,1,117.599996411133,10|8,0:0|0:0,0:0:0:0:
362,364,216110,2,0,P|415:344|490:337,1,117.599996411133,2|0,3:2|0:0,0:0:0:0:
500,285,216584,1,8,0:0:0:0:
500,285,216742,1,2,3:2:0:0:
421,198,217057,1,2,3:2:0:0:
504,114,217373,6,0,P|507:67|469:4,1,117.599996411133,2|2,3:2|0:0,0:0:0:0:
420,17,217847,1,10,0:0:0:0:
328,70,218163,2,0,B|277:40|277:40|201:55,1,117.599996411133,10|0,0:0|3:0,0:0:0:0:
165,155,218794,5,6,3:2:0:0:
256,192,220215,12,2,221163,0:3:0:0:
331,325,221952,5,2,3:2:0:0:
331,325,222110,1,2,3:2:0:0:
55,222,222899,6,0,P|116:206|175:177,1,117.599996411133,2|2,3:2|3:2,0:0:0:0:
196,132,223373,2,0,P|230:132|262:150,1,58.7999982055665,2|8,0:0|0:0,0:0:0:0:
283,192,223689,5,6,3:2:0:0:
336,296,224005,2,0,P|332:332|321:371,2,58.7999982055665,2|8|2,0:0|0:0|0:0,0:0:0:0:
392,279,224478,1,10,0:0:0:0:
460,183,224794,2,0,P|455:154|439:122,1,58.7999982055665,8|8,0:0|0:0,0:0:0:0:
401,85,225110,5,6,3:2:0:0:
321,171,225426,1,8,0:0:0:0:
222,235,225742,2,0,P|165:232|103:193,1,117.599996411133,2|8,3:2|0:0,0:0:0:0:
62,232,226215,2,0,B|33:282|33:282|48:356,1,117.599996411133,2|0,3:2|3:0,0:0:0:0:
110,365,226689,1,10,0:0:0:0:
110,365,226847,1,0,3:0:0:0:
215,313,227163,2,0,P|219:276|233:250,1,58.7999982055665,2|10,3:2|0:0,0:0:0:0:
222,198,227478,6,0,P|284:167|378:207,1,176.399994616699,6|10,3:2|0:0,0:0:0:0:
464,126,228268,2,0,P|457:94|453:56,1,58.7999982055665,10|0,0:0|3:0,0:0:0:0:
405,33,228584,2,0,P|355:21|277:11,1,117.599996411133,2|10,3:2|0:0,0:0:0:0:
248,122,229215,1,2,3:2:0:0:
150,66,229531,1,2,3:2:0:0:
150,66,229689,1,2,3:2:0:0:
50,128,230005,5,6,3:2:0:0:
109,228,230320,2,0,P|122:281|130:340,2,88.1999973083497,2|2|2,3:2|3:2|3:2,0:0:0:0:
184,181,231031,2,0,P|191:137|202:94,1,88.1999973083497,2|6,3:2|3:2,0:0:0:0:
297,25,231584,6,0,L|354:6,2,58.7999982055665,8|8|8,0:0|0:0|0:0,0:0:0:0:
321,84,232057,1,2,3:2:0:0:
321,84,232215,1,2,3:2:0:0:
399,172,232531,6,0,P|417:241|415:302,1,117.599996411133,6|2,3:2|0:0,0:0:0:0:
383,336,233005,1,10,0:0:0:0:
383,336,233163,2,0,B|318:328|318:328|293:273,1,117.599996411133,2|2,3:2|0:0,0:0:0:0:
308,226,233636,1,8,0:0:0:0:
308,226,233794,1,2,3:2:0:0:
214,154,234110,1,10,0:0:0:0:
100,186,234426,1,6,3:2:0:0:
55,294,234742,1,10,0:0:0:0:
139,366,235057,6,0,P|215:362|305:322,1,168,6|2,3:2|0:0,0:0:0:0:
344,223,235847,1,8,0:0:0:0:
443,285,236163,1,2,0:0:0:0:
443,285,236320,2,0,P|458:232|492:178,1,112,2|0,3:2|0:0,0:0:0:0:
474,128,236794,2,0,P|459:114|442:82,1,56,2|0,0:0|3:0,0:0:0:0:
434,31,237110,1,10,0:0:0:0:
434,31,237268,1,0,3:0:0:0:
317,15,237584,6,0,P|258:23|181:45,1,117.599996411133,2|0,3:2|3:0,0:0:0:0:
161,80,238057,1,10,0:0:0:0:
232,173,238373,2,0,L|210:300,1,117.599996411133,8|0,0:0|3:0,0:0:0:0:
117,359,239005,5,0,3:0:0:0:
117,359,240268,2,0,B|-7:322|-7:322|105:32|105:32|181:252,1,666.399979663087,2|0,0:0|3:0,0:0:0:0:
192,299,243110,1,8,0:0:0:0:
285,359,243425,6,0,P|332:341|397:339,2,112,6|8|2,3:2|0:0|3:2,0:0:0:0:
286,251,244372,1,8,0:0:0:0:
286,251,244530,2,0,P|302:198|308:141,1,112,2|0,0:0|0:0,0:0:0:0:
284,90,245003,1,10,0:0:0:0:
192,155,245319,2,0,P|164:167|130:171,2,56,2|2|8,3:2|0:0|0:0,0:0:0:0:
177,43,245951,6,0,P|135:24|62:10,1,112,2|10,3:2|0:0,0:0:0:0:
3,99,246582,1,2,3:2:0:0:
81,186,246898,1,8,0:0:0:0:
81,186,247056,2,0,B|100:239|100:239|94:314,1,112,6|8,3:2|0:0,0:0:0:0:
130,338,247530,1,8,0:0:0:0:
130,338,247688,2,0,P|195:288|273:321,1,168,6|10,3:2|0:0,0:0:0:0:
300,362,248319,6,0,P|378:353|471:340,1,168,6|10,3:2|0:0,0:0:0:0:
492,231,249109,1,2,3:2:0:0:
385,196,249425,1,8,0:0:0:0:
385,196,249582,2,0,P|355:141|339:84,1,112,2|0,0:0|0:0,0:0:0:0:
354,39,250056,2,0,P|382:21|411:7,2,56,8|2|2,0:0|0:0|3:2,0:0:0:0:
245,68,250688,2,0,P|219:63|179:42,1,56,10|2,0:0|0:0,0:0:0:0:
141,27,251003,6,0,P|88:41|32:101,1,112,6|8,3:2|0:0,0:0:0:0:
68,129,251477,1,6,3:2:0:0:
155,203,251793,1,8,0:0:0:0:
155,203,251951,2,0,P|152:256|130:338,1,112,6|8,3:2|0:0,0:0:0:0:
171,359,252425,2,0,P|218:335|300:313,1,112,6|10,3:2|0:0,0:0:0:0:
326,339,252898,1,6,3:2:0:0:
432,372,253214,1,8,0:0:0:0:
491,264,253530,6,0,B|495:217|495:217|471:160,1,92.4000028198243,2|2,3:2|3:2,0:0:0:0:
