osu file format v14

[General]
AudioFilename: audio.mp3
AudioLeadIn: 0
PreviewTime: 57584
Countdown: 0
SampleSet: Soft
StackLeniency: 0.5
Mode: 0
LetterboxInBreaks: 0
WidescreenStoryboard: 1

[Editor]
Bookmarks: 7847,17952,28057,38163,48268,58215,68320,81110,91215,101320,111426,121531,131794,141584,154215,159268,169531,179636,189584,199847,209951,218794,230005,243425,253530
DistanceSpacing: 1.8
BeatDivisor: 4
GridSize: 32
TimelineZoom: 1.7

[Metadata]
Title:Senjou no Utahime
TitleUnicode:戦場の歌姫
Artist:La priere
ArtistUnicode:La prière
Creator:Hinsvar
Version:Insane
Source:
Tags:らぷりえーる Diva of the battlefield 棗いつき Natsume Itsuki 藍月なくる Aitsuki Nakuru なゆた nayuta Galaxy Triangle かそかそ Kasokaso Prismagic Japanese Pop J-Pop JPop Rock J-Rock JRock
BeatmapID:2899915
BeatmapSetID:1398580

[Difficulty]
HPDrainRate:5
CircleSize:4.2
OverallDifficulty:8
ApproachRate:9
SliderMultiplier:1.52
SliderTickRate:1

[Events]
//Background and Video events
0,0,"utahime.jpg",0,0
//Break Periods
2,81310,88089
2,179836,199247
//Storyboard Layer 0 (Background)
//Storyboard Layer 1 (Fail)
//Storyboard Layer 2 (Pass)
//Storyboard Layer 3 (Foreground)
//Storyboard Layer 4 (Overlay)
//Storyboard Sound Samples

[TimingPoints]
-2258,315.789473684211,4,2,1,65,1,0
7847,-100,4,2,1,75,0,0
11478,-83.3333333333333,4,2,1,75,0,0
11715,-83.3333333333333,4,2,1,5,0,0
11794,-83.3333333333333,4,2,1,75,0,0
12189,-83.3333333333333,4,2,1,5,0,0
12268,-83.3333333333333,4,2,1,75,0,0
12742,-90.9090909090909,4,2,1,75,0,0
13136,-90.9090909090909,4,2,1,5,0,0
13215,-100,4,2,1,75,0,0
14557,-100,4,2,1,5,0,0
14636,-100,4,2,1,75,0,0
14715,-100,4,2,1,5,0,0
14794,-100,4,2,1,75,0,0
15426,-111.111111111111,4,2,1,75,0,0
15505,-111.111111111111,4,2,1,5,0,0
15584,-111.111111111111,4,2,1,75,0,0
15899,-100,4,2,1,75,0,0
15978,-100,4,2,1,5,0,0
16057,-100,4,2,1,75,0,0
16373,-83.3333333333333,4,2,1,75,0,0
16452,-83.3333333333333,4,2,1,5,0,0
16531,-83.3333333333333,4,2,1,75,0,0
16847,-83.3333333333333,4,2,1,5,0,0
16926,-83.3333333333333,4,2,1,75,0,0
17084,-83.3333333333333,4,2,1,5,0,0
17952,-90.9090909090909,4,2,1,65,0,0
18584,-125,4,2,1,65,0,0
19926,-125,4,2,1,5,0,0
20005,-125,4,2,1,65,0,0
20242,-125,4,2,1,5,0,0
20320,-90.9090909090909,4,2,1,65,0,0
20399,-90.9090909090909,4,2,1,5,0,0
20478,-90.9090909090909,4,2,1,65,0,0
20952,-125,4,2,1,65,0,0
21189,-125,4,2,1,5,0,0
21268,-125,4,2,1,65,0,0
22452,-125,4,2,1,5,0,0
22531,-125,4,2,1,65,0,0
22610,-125,4,2,1,5,0,0
22689,-125,4,2,1,65,0,0
22926,-125,4,2,1,5,0,0
23005,-90.9090909090909,4,2,1,65,0,0
23478,-125,4,2,1,65,0,0
24978,-125,4,2,1,5,0,0
25057,-125,4,2,1,65,0,0
25531,-90.9090909090909,4,2,1,65,0,0
28057,-100,4,2,1,70,0,0
30031,-100,4,2,1,5,0,0
30110,-100,4,2,1,70,0,0
32715,-100,4,2,1,5,0,0
32794,-100,4,2,1,70,0,0
33031,-100,4,2,1,5,0,0
33110,-100,4,2,1,70,0,0
35478,-100,4,2,1,70,0,0
36189,-100,4,2,1,5,0,0
36584,-100,4,2,1,70,0,0
36663,-100,4,2,1,5,0,0
37057,-83.3333333333333,4,2,1,70,0,0
37136,-83.3333333333333,4,2,1,5,0,0
37531,-83.3333333333333,4,2,1,70,0,0
37610,-83.3333333333333,4,2,1,5,0,0
37689,-83.3333333333333,4,2,1,65,0,0
38163,-166.666666666667,4,2,1,55,0,0
45110,-166.666666666667,4,2,1,65,0,0
45268,-166.666666666667,4,2,1,55,0,0
47952,-125,4,2,1,55,0,0
48189,-125,4,2,1,5,0,0
48268,-125,4,2,1,65,0,0
53320,-166.666666666667,4,2,1,65,0,0
54584,-125,4,2,1,65,0,0
55768,-125,4,2,1,5,0,0
55847,-125,4,2,1,75,0,0
56320,-100,4,2,1,75,0,0
56794,-83.3333333333333,4,2,1,75,0,0
58215,-83.3333333333333,4,2,1,85,0,1
58452,-83.3333333333333,4,2,1,5,0,1
58531,-83.3333333333333,4,2,1,85,0,1
58926,-83.3333333333333,4,2,1,5,0,1
59005,-83.3333333333333,4,2,1,85,0,1
59557,-83.3333333333333,4,2,1,5,0,1
59636,-83.3333333333333,4,2,1,85,0,1
60268,-83.3333333333333,4,2,1,85,0,0
60347,-83.3333333333333,4,2,1,5,0,0
60426,-83.3333333333333,4,2,1,85,0,0
60505,-83.3333333333333,4,2,1,5,0,0
60742,-83.3333333333333,4,2,1,85,0,1
62242,-83.3333333333333,4,2,1,5,0,1
62320,-83.3333333333333,4,2,1,85,0,1
63426,-90.9090909090909,4,2,1,85,0,1
65794,-83.3333333333333,4,2,1,85,0,1
66899,-100,4,2,1,85,0,1
67136,-100,4,2,1,5,0,1
67215,-100,4,2,1,85,0,1
67847,-83.3333333333333,4,2,1,85,0,0
67926,-83.3333333333333,4,2,1,5,0,0
68005,-83.3333333333333,4,2,1,85,0,0
68084,-83.3333333333333,4,2,1,5,0,0
68320,-83.3333333333333,4,2,1,85,0,1
68399,-83.3333333333333,4,2,1,5,0,1
68478,-83.3333333333333,4,2,1,85,0,1
68873,-125,4,2,1,85,0,1
69110,-83.3333333333333,4,2,1,85,0,1
69347,-125,4,2,1,85,0,1
69584,-83.3333333333333,4,2,1,85,0,1
69663,-83.3333333333333,4,2,1,5,0,1
69742,-83.3333333333333,4,2,1,85,0,1
70373,-83.3333333333333,4,2,1,85,0,0
70452,-83.3333333333333,4,2,1,5,0,0
70531,-83.3333333333333,4,2,1,85,0,0
70610,-83.3333333333333,4,2,1,5,0,0
70847,-83.3333333333333,4,2,1,85,0,1
72347,-83.3333333333333,4,2,1,5,0,1
72426,-83.3333333333333,4,2,1,85,0,1
72663,-83.3333333333333,4,2,1,5,0,1
72742,-83.3333333333333,4,2,1,85,0,1
72820,-83.3333333333333,4,2,1,5,0,1
73057,-83.3333333333333,4,2,1,85,0,1
73136,-83.3333333333333,4,2,1,5,0,1
73373,-111.111111111111,4,2,1,85,0,1
75899,-90.9090909090908,4,2,1,85,0,1
77320,-90.9090909090909,4,2,1,85,0,0
78584,-200,4,2,1,65,0,0
80557,-200,4,2,1,5,0,0
80636,-200,4,2,1,65,0,0
80794,-125,4,2,1,65,0,0
81031,-125,4,2,1,5,0,0
81110,-100,4,2,1,75,0,1
81189,-100,4,2,1,75,0,0
88689,-111.111111111111,4,2,1,75,0,0
88768,-111.111111111111,4,2,1,5,0,0
88847,-111.111111111111,4,2,1,75,0,0
89163,-100,4,2,1,75,0,0
89242,-100,4,2,1,5,0,0
89320,-100,4,2,1,75,0,0
89636,-90.9090909090909,4,2,1,75,0,0
89715,-90.9090909090909,4,2,1,5,0,0
89794,-90.9090909090909,4,2,1,75,0,0
90110,-83.3333333333333,4,2,1,75,0,0
90189,-83.3333333333333,4,2,1,5,0,0
90268,-83.3333333333333,4,2,1,75,0,0
90584,-71.4285714285714,4,2,1,75,0,0
90663,-71.4285714285714,4,2,1,5,0,0
90742,-71.4285714285714,4,2,1,75,0,0
91215,-83.3333333333333,4,2,1,75,0,0
91373,-83.3333333333333,4,2,1,5,0,0
91452,-83.3333333333333,4,2,1,75,0,0
91610,-83.3333333333333,4,2,1,5,0,0
92320,-166.666666666667,4,2,1,65,0,0
92715,-166.666666666667,4,2,1,5,0,0
92794,-166.666666666667,4,2,1,65,0,0
93110,-100,4,2,1,65,0,0
93189,-100,4,2,1,5,0,0
93268,-100,4,2,1,65,0,0
93347,-100,4,2,1,5,0,0
93584,-100,4,2,1,65,0,0
93742,-83.3333333333333,4,2,1,75,0,0
93899,-83.3333333333333,4,2,1,5,0,0
93978,-83.3333333333333,4,2,1,75,0,0
94136,-83.3333333333333,4,2,1,5,0,0
94215,-166.666666666667,4,2,1,65,0,0
96268,-83.3333333333333,4,2,1,75,0,0
96426,-83.3333333333333,4,2,1,5,0,0
96505,-83.3333333333333,4,2,1,75,0,0
96663,-83.3333333333333,4,2,1,5,0,0
96742,-166.666666666667,4,2,1,65,0,0
97294,-166.666666666667,4,2,1,5,0,0
97373,-166.666666666667,4,2,1,65,0,0
98794,-100,4,2,1,65,0,0
99031,-100,4,2,1,5,0,0
99110,-100,4,2,1,55,0,0
100057,-100,4,2,1,65,0,0
101320,-100,4,2,1,70,0,0
105978,-100,4,2,1,5,0,0
106057,-100,4,2,1,70,0,0
106294,-100,4,2,1,5,0,0
106373,-100,4,2,1,70,0,0
108742,-100,4,2,1,70,0,0
109373,-100,4,2,1,70,0,0
109452,-100,4,2,1,5,0,0
109847,-100,4,2,1,70,0,0
109926,-100,4,2,1,5,0,0
110320,-83.3333333333333,4,2,1,70,0,0
110399,-83.3333333333333,4,2,1,5,0,0
110794,-83.3333333333333,4,2,1,70,0,0
110873,-83.3333333333333,4,2,1,5,0,0
110952,-83.3333333333333,4,2,1,65,0,0
111426,-166.666666666667,4,2,1,55,0,0
121215,-125,4,2,1,55,0,0
121452,-125,4,2,1,5,0,0
121531,-125,4,2,1,65,0,0
126584,-166.666666666667,4,2,1,65,0,0
127847,-125,4,2,1,65,0,0
129031,-125,4,2,1,5,0,0
129110,-125,4,2,1,75,0,0
129584,-100,4,2,1,75,0,0
130057,-83.3333333333333,4,2,1,75,0,0
131794,-83.3333333333333,4,2,1,85,0,1
131873,-83.3333333333333,4,2,1,5,0,1
131952,-83.3333333333333,4,2,1,85,0,1
132820,-83.3333333333333,4,2,1,5,0,1
132899,-83.3333333333333,4,2,1,85,0,1
133531,-83.3333333333333,4,2,1,85,0,0
133610,-83.3333333333333,4,2,1,5,0,0
133689,-83.3333333333333,4,2,1,85,0,0
133768,-83.3333333333333,4,2,1,5,0,0
134005,-83.3333333333333,4,2,1,85,0,1
135505,-83.3333333333333,4,2,1,5,0,1
135584,-83.3333333333333,4,2,1,85,0,1
136689,-90.9090909090909,4,2,1,85,0,1
139057,-83.3333333333333,4,2,1,85,0,1
140163,-100,4,2,1,85,0,1
140399,-100,4,2,1,5,0,1
140478,-100,4,2,1,85,0,1
141110,-83.3333333333333,4,2,1,85,0,0
141189,-83.3333333333333,4,2,1,5,0,0
141268,-83.3333333333333,4,2,1,85,0,0
141347,-83.3333333333333,4,2,1,5,0,0
141584,-83.3333333333333,4,2,1,85,0,1
141820,-83.3333333333333,4,2,1,5,0,1
141899,-83.3333333333333,4,2,1,85,0,1
142057,-83.3333333333333,4,2,1,5,0,1
142136,-125,4,2,1,85,0,1
142294,-125,4,2,1,5,0,1
142373,-83.3333333333333,4,2,1,85,0,1
142531,-83.3333333333333,4,2,1,5,0,1
142610,-125,4,2,1,85,0,1
142768,-125,4,2,1,5,0,1
142847,-83.3333333333333,4,2,1,85,0,1
143084,-83.3333333333333,4,2,1,5,0,1
143163,-83.3333333333333,4,2,1,85,0,1
143636,-83.3333333333333,4,2,1,85,0,0
143715,-83.3333333333333,4,2,1,5,0,0
143794,-83.3333333333333,4,2,1,85,0,0
143873,-83.3333333333333,4,2,1,5,0,0
144110,-83.3333333333333,4,2,1,85,0,1
145610,-83.3333333333333,4,2,1,5,0,1
145689,-83.3333333333333,4,2,1,85,0,1
145926,-83.3333333333333,4,2,1,5,0,1
146005,-83.3333333333333,4,2,1,85,0,1
146084,-83.3333333333333,4,2,1,5,0,1
146320,-83.3333333333333,4,2,1,85,0,1
146399,-83.3333333333333,4,2,1,5,0,1
146636,-111.111111111111,4,2,1,85,0,1
149163,-90.9090909090908,4,2,1,85,0,1
150584,-90.9090909090909,4,2,1,85,0,0
152005,-200,4,2,1,65,0,0
153978,-200,4,2,1,5,0,0
154057,-200,4,2,1,65,0,0
154215,-83.3333333333333,4,2,1,75,0,1
154294,-83.3333333333333,4,2,1,75,0,0
154452,-83.3333333333333,4,2,1,5,0,0
154531,-83.3333333333333,4,2,1,75,0,0
154847,-125,4,2,1,75,0,0
155084,-125,4,2,1,5,0,0
155163,-125,4,2,1,75,0,0
155478,-83.3333333333333,4,2,1,75,0,0
155715,-83.3333333333333,4,2,1,5,0,0
155794,-83.3333333333333,4,2,1,75,0,0
156110,-125,4,2,1,75,0,0
156347,-125,4,2,1,75,0,0
156426,-125,4,2,1,75,0,0
156742,-83.3333333333333,4,2,1,75,0,0
156978,-83.3333333333333,4,2,1,5,0,0
157057,-83.3333333333333,4,2,1,75,0,0
157136,-83.3333333333333,4,2,1,5,0,0
157215,-90.9090909090909,4,2,1,75,0,0
157294,-90.9090909090909,4,2,1,5,0,0
157373,-100,4,2,1,75,0,0
157452,-100,4,2,1,5,0,0
157531,-111.111111111111,4,2,1,75,0,0
157610,-111.111111111111,4,2,1,5,0,0
157689,-125,4,2,1,75,0,0
157926,-125,4,2,1,5,0,0
158005,-83.3333333333333,4,2,1,75,0,0
158242,-83.3333333333333,4,2,1,5,0,0
158320,-166.666666666667,4,2,1,50,0,0
159110,-100,4,2,1,60,0,0
159189,-100,4,2,1,5,0,0
159268,-100,4,2,1,70,0,0
162663,-100,4,2,1,5,0,0
162742,-100,4,2,1,70,0,0
164399,-100,4,2,1,5,0,0
164478,-100,4,2,1,70,0,0
164557,-100,4,2,1,5,0,0
164636,-100,4,2,1,70,0,0
164715,-100,4,2,1,5,0,0
164794,-100,4,2,1,70,0,0
168505,-100,4,2,1,5,0,0
168584,-83.3333333333333,4,2,1,70,0,0
169452,-83.3333333333333,4,2,1,5,0,0
169531,-100,4,2,1,75,0,0
173952,-166.666666666667,4,2,1,75,0,0
174189,-166.666666666667,4,2,1,5,0,0
174268,-83.3333333333333,4,2,1,75,0,0
174505,-83.3333333333333,4,2,1,5,0,0
174584,-100,4,2,1,75,0,0
176952,-125,4,2,1,75,0,0
179005,-142.857142857143,4,2,1,65,0,0
179636,-142.857142857143,4,2,1,60,0,0
209952,-125,4,2,1,60,0,0
214215,-125,4,2,1,70,0,0
214768,-125,4,2,1,5,0,0
214847,-83.3333333333333,4,2,1,85,0,1
218794,-83.3333333333333,4,2,1,85,0,0
220215,-83.3333333333333,4,2,1,75,0,0
221163,-83.3333333333333,4,2,1,55,0,0
221952,-83.3333333333333,4,2,1,75,0,0
222031,-83.3333333333333,4,2,1,5,0,0
222110,-83.3333333333333,4,2,1,75,0,0
222189,-83.3333333333333,4,2,1,5,0,0
222899,-83.3333333333333,4,2,1,75,0,0
223136,-83.3333333333333,4,2,1,5,0,0
223215,-83.3333333333333,4,2,1,75,0,0
223689,-83.3333333333333,4,2,1,85,0,1
225110,-90.9090909090909,4,2,1,85,0,1
227478,-83.3333333333333,4,2,1,85,0,1
228584,-100,4,2,1,85,0,1
228820,-100,4,2,1,5,0,1
228899,-100,4,2,1,85,0,1
229531,-83.3333333333333,4,2,1,85,0,0
229610,-83.3333333333333,4,2,1,5,0,0
229689,-83.3333333333333,4,2,1,85,0,0
229768,-83.3333333333333,4,2,1,5,0,0
230005,-83.3333333333333,4,2,1,85,0,1
230242,-83.3333333333333,4,2,1,5,0,1
230320,-83.3333333333333,4,2,1,85,0,1
230557,-125,4,2,1,85,0,1
230794,-83.3333333333333,4,2,1,85,0,1
231031,-125,4,2,1,85,0,1
231268,-83.3333333333333,4,2,1,85,0,1
231347,-83.3333333333333,4,2,1,5,0,1
231426,-83.3333333333333,4,2,1,85,0,1
232057,-83.3333333333333,4,2,1,85,0,0
232136,-83.3333333333333,4,2,1,5,0,0
232215,-83.3333333333333,4,2,1,85,0,0
232294,-83.3333333333333,4,2,1,5,0,0
232531,-83.3333333333333,4,2,1,85,0,1
234031,-83.3333333333333,4,2,1,5,0,1
234110,-83.3333333333333,4,2,1,85,0,1
234347,-83.3333333333333,4,2,1,5,0,1
234426,-83.3333333333333,4,2,1,85,0,1
234505,-83.3333333333333,4,2,1,5,0,1
234742,-83.3333333333333,4,2,1,85,0,1
234820,-83.3333333333333,4,2,1,5,0,1
235057,-111.111111111111,4,2,1,85,0,1
237584,-90.9090909090908,4,2,1,85,0,1
239005,-90.9090909090909,4,2,1,85,0,0
240268,-200,4,2,1,70,0,0
243110,-125,4,2,1,70,0,0
243347,-125,4,2,1,5,0,0
243425,315.789473684211,4,2,1,75,1,1
243503,-100,4,2,1,75,0,0
247056,-83.3333333333333,4,2,1,75,0,0
247293,-83.3333333333333,4,2,1,5,0,0
247372,-83.3333333333333,4,2,1,75,0,0
247688,-83.3333333333333,4,2,1,75,0,0
247767,-83.3333333333333,4,2,1,5,0,0
247846,-83.3333333333333,4,2,1,75,0,0
248319,-90.9090909090909,4,2,1,75,0,0
248714,-90.9090909090909,4,2,1,5,0,0
248793,-100,4,2,1,75,0,0
250135,-100,4,2,1,5,0,0
250214,-100,4,2,1,75,0,0
250293,-100,4,2,1,5,0,0
250372,-100,4,2,1,75,0,0
251003,-111.111111111111,4,2,1,75,0,0
251082,-111.111111111111,4,2,1,5,0,0
251161,-111.111111111111,4,2,1,75,0,0
251477,-100,4,2,1,75,0,0
251556,-100,4,2,1,5,0,0
251635,-100,4,2,1,75,0,0
251951,-90.9090909090909,4,2,1,75,0,0
252030,-90.9090909090909,4,2,1,5,0,0
252109,-90.9090909090909,4,2,1,75,0,0
252425,-83.3333333333333,4,2,1,75,0,0
252503,-83.3333333333333,4,2,1,5,0,0
252582,-83.3333333333333,4,2,1,75,0,0
252898,-71.4285714285714,4,2,1,75,0,0
252977,-71.4285714285714,4,2,1,5,0,0
253056,-71.4285714285714,4,2,1,75,0,0
253214,-125,4,2,1,75,0,0
253451,-125,4,2,1,5,0,0
253530,-62.5,4,2,1,75,0,0
253688,-62.5,4,2,1,5,0,0
253767,-62.5,4,2,1,75,0,0
253925,-62.5,4,2,1,5,0,0

[Colours]
Combo1 : 234,68,118
Combo2 : 231,187,54
Combo3 : 98,243,247

[HitObjects]
256,192,5478,12,8,7531,0:0:0:0:
52,185,7847,6,0,L|135:204,1,76,6|2,0:0|0:0,0:0:0:0:
170,276,8084,1,2,0:0:0:0:
185,293,8163,2,0,L|269:268,1,76,10|2,0:0|0:0,0:0:0:0:
337,315,8399,1,2,0:0:0:0:
333,337,8478,1,2,3:2:0:0:
454,268,8636,2,0,L|463:227,2,38,0|0|8,0:0|0:0|0:0,0:0:0:0:
324,195,8952,6,0,P|297:131|326:44,1,152,2|0,0:0|0:0,0:0:0:0:
154,17,9426,2,0,P|175:49|181:93,1,76,10|0,0:0|0:0,0:0:0:0:
140,147,9663,1,0,0:0:0:0:
126,153,9742,1,2,3:2:0:0:
227,257,9899,1,2,0:0:0:0:
248,265,9978,1,2,0:0:0:0:
270,264,10057,2,0,P|310:247|343:219,1,76,8|0,0:0|0:0,0:0:0:0:
395,40,10373,5,2,3:2:0:0:
328,123,10531,2,0,L|274:108,2,38,0|0|10,0:0|0:0|0:0,0:0:0:0:
182,194,10847,1,0,0:0:0:0:
186,171,10926,1,0,0:0:0:0:
190,148,11005,1,2,3:2:0:0:
105,69,11163,2,0,L|97:20,2,38,0|0|8,0:0|0:0|0:0,0:0:0:0:
34,176,11478,6,0,P|11:243|42:311,1,136.799995825195,6|0,3:2|0:0,0:0:0:0:
96,352,11794,1,8,0:0:0:0:
113,348,11873,1,8,0:0:0:0:
130,344,11952,1,8,0:0:0:0:
147,340,12031,1,8,0:0:0:0:
164,336,12110,2,0,L|170:282,1,45.5999986083985,6|0,3:2|0:0,0:0:0:0:
249,178,12268,5,10,0:0:0:0:
284,187,12347,1,2,0:0:0:0:
319,196,12426,2,0,L|328:245,3,45.5999986083985,2|2|10|2,0:0|0:0|0:0|0:0,0:0:0:0:
361,365,12742,6,0,P|389:295|510:217,1,209.000006378174,6|0,3:2|0:0,0:0:0:0:
440,156,13215,1,10,0:0:0:0:
330,36,13373,1,0,0:0:0:0:
326,58,13452,1,0,0:0:0:0:
322,80,13531,1,2,3:2:0:0:
224,180,13689,2,0,L|173:192,2,38,0|0|8,0:0|0:0|0:0,0:0:0:0:
164,18,14005,6,0,P|102:53|41:135,1,152,2|0,0:0|0:0,0:0:0:0:
145,284,14478,2,0,P|157:263|163:234,1,38,8|0,0:0|0:0,0:0:0:0:
207,145,14636,2,0,P|213:162|223:179,1,38,2|0,0:0|0:0,0:0:0:0:
303,230,14794,2,0,L|391:247,1,76,2|0,3:2|0:0,0:0:0:0:
491,367,15110,2,0,L|448:375,2,38,10|2|2,0:0|0:0|0:0,0:0:0:0:
332,318,15426,6,0,L|295:338,1,34.1999989562989,6|0,3:2|0:0,0:0:0:0:
202,365,15584,2,0,L|213:326,3,34.1999989562989,8|8|8|8,0:0|0:0|0:0|0:0,0:0:0:0:
322,215,15899,6,0,L|285:254,1,38,6|0,3:2|0:0,0:0:0:0:
136,297,16057,1,8,0:0:0:0:
129,267,16136,1,8,0:0:0:0:
122,237,16215,1,8,0:0:0:0:
115,207,16294,1,8,0:0:0:0:
109,177,16373,6,0,L|121:125,1,45.5999986083985,6|0,3:2|0:0,0:0:0:0:
196,20,16531,1,10,0:0:0:0:
220,58,16610,1,10,0:0:0:0:
258,82,16689,6,0,P|302:79|348:54,1,91.199997216797,6|0,3:2|0:0,0:0:0:0:
409,136,16926,2,0,P|453:139|499:164,1,91.199997216797,6|0,3:2|0:0,0:0:0:0:
494,160,17952,6,0,P|460:233|447:333,1,167.200005102539,6|8,3:2|0:0,0:0:0:0:
329,363,18426,1,0,0:0:0:0:
270,295,18584,6,0,L|200:286,2,60.8,2|0|0,3:2|3:0|0:0,0:0:0:0:
128,354,19057,2,0,P|123:291|99:231,1,121.6,10|0,0:0|0:0,0:0:0:0:
3,336,19531,1,8,0:0:0:0:
16,362,19768,1,0,0:0:0:0:
21,354,19847,2,0,L|62:351,1,30.4,2|0,3:2|0:0,0:0:0:0:
167,280,20005,2,0,L|257:331,1,91.2,0|0,3:0|0:0,0:0:0:0:
347,249,20320,6,0,L|341:198,1,41.8000012756348,8|0,0:0|0:0,0:0:0:0:
268,129,20478,2,0,L|293:37,1,83.6000025512696,2|0,3:2|0:0,0:0:0:0:
482,14,20794,1,8,0:0:0:0:
393,126,20952,5,0,3:0:0:0:
399,136,21031,1,0,3:0:0:0:
405,146,21110,2,0,L|477:161,2,60.8,2|0|0,3:2|3:0|0:0,0:0:0:0:
259,233,21584,2,0,P|281:184|286:138,1,91.2,10|0,0:0|0:0,0:0:0:0:
238,86,21899,1,0,3:0:0:0:
88,164,22057,1,8,0:0:0:0:
106,182,22294,1,0,0:0:0:0:
114,179,22373,2,0,L|120:130,1,30.4,2|0,3:2|0:0,0:0:0:0:
24,230,22531,2,0,L|27:260,1,30.4,0|0,3:0|0:0,0:0:0:0:
103,372,22689,2,0,P|124:336|105:279,1,91.2,8|0,0:0|0:0,0:0:0:0:
198,342,23005,6,0,P|212:303|241:267,1,83.6000025512696,2|0,3:2|0:0,0:0:0:0:
407,328,23320,1,8,0:0:0:0:
324,221,23478,5,2,3:2:0:0:
318,210,23557,1,0,3:0:0:0:
312,199,23636,2,0,L|320:133,2,60.8,0|0|0,3:0|3:0|0:0,0:0:0:0:
175,211,24110,2,0,B|146:156|146:156|173:100,1,121.6,10|0,0:0|3:0,0:0:0:0:
314,37,24584,1,8,0:0:0:0:
326,63,24820,1,0,0:0:0:0:
334,59,24899,2,0,L|339:27,1,30.4,2|0,3:2|0:0,0:0:0:0:
436,114,25057,2,0,L|366:132,1,60.8,0|0,3:0|0:0,0:0:0:0:
272,242,25373,1,8,0:0:0:0:
190,103,25531,6,0,P|181:201|149:270,1,167.200005102539,2|8,3:2|0:0,0:0:0:0:
88,361,26005,1,2,3:2:0:0:
80,345,26084,1,0,3:0:0:0:
78,328,26163,2,0,P|121:346|170:352,1,83.6000025512696,0|0,3:0|3:0,0:0:0:0:
298,280,26478,1,10,0:0:0:0:
460,369,26636,1,0,3:0:0:0:
473,347,26715,1,0,3:0:0:0:
470,322,26794,5,10,0:0:0:0:
412,260,26952,1,0,3:0:0:0:
383,338,27110,1,0,3:0:0:0:
297,238,27268,5,10,0:0:0:0:
220,198,27426,1,0,3:0:0:0:
219,282,27584,1,0,3:0:0:0:
79,358,27742,5,10,0:0:0:0:
22,235,27899,1,8,0:0:0:0:
21,209,27978,1,8,0:0:0:0:
31,186,28057,6,0,B|87:137|87:137|117:211,1,152,6|8,3:2|0:0,0:0:0:0:
220,333,28531,1,0,0:0:0:0:
385,292,28689,2,0,P|352:289|304:272,1,76,2|0,3:2|3:0,0:0:0:0:
231,152,29005,1,8,0:0:0:0:
304,86,29163,6,0,B|372:55|372:55|433:111,1,152,2|0,3:2|3:0,0:0:0:0:
361,209,29636,1,8,0:0:0:0:
479,315,29794,1,0,3:0:0:0:
482,325,29873,1,0,3:0:0:0:
485,335,29952,2,0,L|469:376,1,38,0|0,3:0|0:0,0:0:0:0:
395,300,30110,2,0,L|301:320,1,76,2|8,3:2|0:0,0:0:0:0:
205,238,30426,1,0,3:0:0:0:
352,183,30584,6,0,P|376:113|359:27,1,152,2|8,3:2|0:0,0:0:0:0:
230,21,31057,2,0,L|241:57,2,38,0|0|2,0:0|0:0|3:2,0:0:0:0:
177,151,31373,2,0,P|141:142|114:111,1,76,0|8,3:0|0:0,0:0:0:0:
27,284,31689,6,0,P|94:264|195:265,1,152,2|0,3:2|0:0,0:0:0:0:
272,361,32163,1,8,0:0:0:0:
347,281,32320,1,0,0:0:0:0:
351,291,32399,1,0,0:0:0:0:
355,301,32478,2,0,L|375:171,1,114,2|0,3:2|0:0,0:0:0:0:
443,262,32794,2,0,L|425:374,1,114,8|0,0:0|0:0,0:0:0:0:
266,316,33110,6,0,P|234:255|269:172,1,152,6|8,3:2|0:0,0:0:0:0:
386,54,33584,2,0,L|378:9,2,38,0|0|2,0:0|0:0|3:2,0:0:0:0:
225,40,33899,2,0,P|262:53|298:74,1,76,0|8,3:0|0:0,0:0:0:0:
434,182,34215,6,0,P|462:263|467:349,1,152,2|0,3:2|3:0,0:0:0:0:
342,235,34689,1,8,0:0:0:0:
226,342,34847,2,0,B|160:309|160:309|231:264,1,152,2|0,3:2|3:0,0:0:0:0:
356,363,35320,1,8,0:0:0:0:
471,193,35478,6,0,P|468:87|422:24,1,152,6|0,3:2|0:0,0:0:0:0:
436,58,36110,2,0,P|409:57|382:45,1,38,2|0,3:2|0:0,0:0:0:0:
399,209,36584,2,0,P|376:194|358:170,1,38,2|0,3:2|0:0,0:0:0:0:
269,339,37057,6,0,P|259:317|256:295,1,45.5999986083985,2|0,3:2|0:0,0:0:0:0:
80,356,37531,2,0,P|82:329|96:297,1,45.5999986083985,2|0,3:2|0:0,0:0:0:0:
141,197,37689,5,0,3:0:0:0:
200,155,37847,1,0,3:0:0:0:
271,167,38005,1,0,3:0:0:0:
351,252,38163,6,0,P|398:270|447:267,2,91.199997216797,6|0|0,3:2|0:0|0:0,0:0:0:0:
373,176,38952,1,0,0:0:0:0:
261,255,39110,2,0,P|252:279|247:303,1,45.5999986083985,2|0,0:0|0:0,0:0:0:0:
183,343,39426,2,0,L|74:357,1,91.199997216797,2|0,0:0|0:0,0:0:0:0:
36,234,39899,1,2,0:0:0:0:
79,169,40057,2,0,P|125:179|166:207,1,91.199997216797
220,290,40531,1,2,0:0:0:0:
260,222,40689,6,0,P|302:196|358:188,1,91.199997216797,2|2,0:0|0:0,0:0:0:0:
398,132,41163,2,0,P|446:144|491:177,1,91.199997216797,2|0,0:0|0:0,0:0:0:0:
374,367,41794,1,2,0:0:0:0:
328,304,41952,2,0,L|347:197,1,91.199997216797
258,344,42426,1,2,0:0:0:0:
212,281,42584,2,0,L|231:174,1,91.199997216797
188,124,43057,1,0,0:0:0:0:
108,211,43215,6,0,P|69:232|6:224,1,91.199997216797,2|0,0:0|0:0,0:0:0:0:
14,98,43689,2,0,P|53:77|116:85,1,91.199997216797,2|0,0:0|0:0,0:0:0:0:
209,151,44163,2,0,P|231:157|266:158,1,45.5999986083985,2|0,0:0|0:0,0:0:0:0:
321,220,44478,2,0,P|333:173|366:133,1,91.199997216797,2|0,0:0|0:0,0:0:0:0:
429,108,44952,1,2,0:0:0:0:
287,39,45110,2,0,P|310:59|339:72,1,45.5999986083985,2|0,0:0|0:0,0:0:0:0:
395,36,45426,1,0,0:0:0:0:
277,200,45742,6,0,P|266:174|261:148,1,45.5999986083985,2|0,0:0|0:0,0:0:0:0:
157,123,46057,1,2,0:0:0:0:
188,51,46215,1,0,0:0:0:0:
44,13,46373,2,0,P|64:21|91:25,2,45.5999986083985,2|0|2,0:0|0:0|0:0,0:0:0:0:
89,237,47005,2,0,P|101:194|133:143,1,91.199997216797,2|0,0:0|0:0,0:0:0:0:
218,114,47478,1,0,0:0:0:0:
222,121,47557,1,0,0:0:0:0:
226,128,47636,2,0,L|277:137,1,45.5999986083985,2|0,0:0|0:0,0:0:0:0:
387,29,47952,6,0,P|402:67|411:139,1,91.2,2|0,0:3|0:0,0:0:0:0:
474,153,48268,6,0,P|455:196|433:267,1,121.6,6|2,3:2|3:2,0:0:0:0:
350,364,48742,1,0,0:0:0:0:
257,317,48899,2,0,P|202:303|132:299,1,121.6,0|0,3:0|0:0,0:0:0:0:
279,218,49373,1,8,0:0:0:0:
213,157,49531,6,0,P|207:106|215:9,1,121.6,2|0,3:2|3:0,0:0:0:0:
314,13,50005,2,0,P|310:42|286:80,1,60.8,2|0,0:0|3:0,0:0:0:0:
126,135,50320,2,0,L|62:117,1,60.8,8|0,0:0|3:0,0:0:0:0:
9,18,50636,1,8,0:0:0:0:
42,197,50794,5,2,3:2:0:0:
42,197,51110,2,0,P|29:226|22:270,1,60.8,0|0,0:0|3:0,0:0:0:0:
39,372,51426,2,0,P|77:352|127:261,1,121.6,2|0,3:2|3:0,0:0:0:0:
122,140,51899,1,8,0:0:0:0:
223,217,52057,6,0,P|292:218|353:237,1,121.6,2|2,3:2|3:2,0:0:0:0:
443,353,52531,1,0,3:0:0:0:
480,269,52689,2,0,P|479:243|468:203,2,60.8,2|0|0,3:2|0:0|3:0,0:0:0:0:
356,343,53163,1,8,0:0:0:0:
268,218,53320,6,0,P|257:161|262:116,1,91.199997216797,6|2,3:2|3:2,0:0:0:0:
313,10,53794,1,0,0:0:0:0:
411,63,53952,2,0,P|385:73|355:74,1,45.5999986083985,2|0,3:2|0:0,0:0:0:0:
478,162,54268,2,0,P|452:155|422:154,1,45.5999986083985,2|0,3:2|0:0,0:0:0:0:
344,229,54584,6,0,L|329:304,1,60.8,0|0,3:0|0:0,0:0:0:0:
442,373,54899,2,0,L|457:298,1,60.8,2|0,3:2|0:0,0:0:0:0:
276,364,55215,2,0,P|262:356|252:345,3,30.4,2|2|2|2,3:2|0:0|0:0|0:0,0:0:0:0:
179,339,55531,2,0,P|169:291|167:244,1,91.2,2|0,3:2|0:0,0:0:0:0:
92,179,55847,6,0,P|133:129|192:106,1,121.6,6|0,3:2|0:0,0:0:0:0:
285,19,56320,2,0,P|336:56|400:134,1,152,6|0,3:2|0:0,0:0:0:0:
402,299,56794,6,0,P|280:294|285:163,1,273.599991650391,6|0,3:2|0:0,0:0:0:0:
279,168,58215,6,0,P|293:240|295:313,1,136.799995825195,6|0,3:2|0:0,0:0:0:0:
207,361,58531,1,10,0:0:0:0:
185,344,58610,1,8,0:0:0:0:
171,320,58689,1,8,0:0:0:0:
170,292,58768,1,8,0:0:0:0:
176,265,58847,2,0,P|194:245|218:232,1,45.5999986083985,6|0,3:2|0:0,0:0:0:0:
378,287,59005,6,0,P|405:292|431:296,3,45.5999986083985,10|8|8|8,0:0|0:0|0:0|0:0,0:0:0:0:
496,172,59320,1,8,0:0:0:0:
469,165,59399,1,8,0:0:0:0:
444,176,59478,2,0,P|426:198|418:216,1,45.5999986083985,6|0,3:2|0:0,0:0:0:0:
331,351,59636,5,10,0:0:0:0:
306,363,59715,1,8,0:0:0:0:
278,366,59794,1,8,0:0:0:0:
251,360,59873,1,8,0:0:0:0:
231,340,59952,2,0,P|222:316|221:286,3,45.5999986083985,10|8|8|8,0:0|0:0|0:0|0:0,0:0:0:0:
282,239,60268,6,0,P|286:216|286:193,1,45.5999986083985,2|0,3:2|0:0,0:0:0:0:
130,225,60426,2,0,P|135:246|145:268,1,45.5999986083985,2|0,3:2|0:0,0:0:0:0:
137,281,60742,6,0,P|109:183|119:99,1,182.399994433594,6|2,3:2|0:0,0:0:0:0:
215,15,61215,1,8,0:0:0:0:
213,160,61373,2,0,P|273:101|384:70,1,182.399994433594,2|2,3:2|0:0,0:0:0:0:
497,123,61847,1,8,0:0:0:0:
344,174,62005,6,0,B|319:231|319:231|340:310,1,136.799995825195,6|0,3:2|0:0,0:0:0:0:
427,349,62320,1,2,0:0:0:0:
440,352,62399,1,2,0:0:0:0:
453,356,62478,2,0,P|483:316|499:275,1,91.199997216797,10|0,0:0|0:0,0:0:0:0:
371,196,62794,2,0,P|416:176|451:148,1,91.199997216797,2|0,3:2|0:0,0:0:0:0:
341,13,63110,1,8,0:0:0:0:
366,22,63189,1,8,0:0:0:0:
391,31,63268,1,8,0:0:0:0:
416,40,63347,1,8,0:0:0:0:
439,48,63426,6,0,P|355:78|264:85,1,167.200005102539,6|8,3:2|0:0,0:0:0:0:
143,12,63899,1,0,3:0:0:0:
133,20,63978,1,0,3:0:0:0:
126,30,64057,2,0,L|115:123,1,83.6000025512696,2|0,3:2|3:0,0:0:0:0:
182,219,64373,1,8,0:0:0:0:
23,329,64531,6,0,L|195:313,1,167.200005102539,2|0,3:2|3:0,0:0:0:0:
329,363,65005,1,8,0:0:0:0:
297,244,65163,2,0,P|302:200|310:157,1,83.6000025512696,2|8,3:2|0:0,0:0:0:0:
436,315,65478,2,0,P|457:296|464:278,2,41.8000012756348,2|0|8,3:2|3:0|0:0,0:0:0:0:
226,313,65794,6,0,P|153:330|43:381,1,182.399994433594,6|0,3:2|3:0,0:0:0:0:
145,250,66268,1,10,0:0:0:0:
22,162,66426,1,0,3:0:0:0:
48,169,66505,1,0,3:0:0:0:
74,175,66584,1,10,0:0:0:0:
203,142,66742,1,0,3:0:0:0:
195,129,66820,1,0,3:0:0:0:
190,117,66899,6,0,P|191:52|207:0,1,114,2|0,3:2|0:0,0:0:0:0:
308,67,67215,5,10,0:0:0:0:
318,87,67294,1,8,0:0:0:0:
321,109,67373,1,8,0:0:0:0:
311,129,67452,1,8,0:0:0:0:
294,144,67531,2,0,P|282:124|280:107,3,38,2|0|0|0,3:2|3:0|3:0|3:0,0:0:0:0:
378,12,67847,6,0,P|397:18|429:39,1,45.5999986083985,2|0,3:2|0:0,0:0:0:0:
500,166,68005,2,0,P|483:176|446:187,1,45.5999986083985,2|0,3:2|0:0,0:0:0:0:
454,201,68320,6,0,P|476:219|490:235,1,45.5999986083985,6|0,3:2|0:0,0:0:0:0:
483,347,68478,1,8,0:0:0:0:
463,366,68557,1,8,0:0:0:0:
437,375,68636,6,0,L|390:367,2,45.5999986083985,2|0|0,0:2|3:0|3:0,0:0:0:0:
380,287,68873,2,0,L|344:308,2,30.4,2|0|0,3:2|3:0|3:0,0:0:0:0:
281,236,69110,6,0,L|257:277,2,45.5999986083985,2|0|0,3:2|3:0|3:0,0:0:0:0:
182,257,69347,2,0,L|183:294,2,30.4,2|0|0,3:2|3:0|3:0,0:0:0:0:
104,339,69584,6,0,L|49:328,1,45.5999986083985,14|0,0:0|0:0,0:0:0:0:
34,216,69742,1,8,0:0:0:0:
30,188,69820,1,8,0:0:0:0:
27,160,69899,1,8,0:0:0:0:
24,132,69978,1,8,0:0:0:0:
22,104,70057,2,0,L|34:55,3,45.5999986083985,8|8|8|8,0:0|0:0|0:0|0:0,0:0:0:0:
160,31,70373,6,0,L|125:60,1,45.5999986083985,2|0,3:2|0:0,0:0:0:0:
293,66,70531,2,0,L|247:70,1,45.5999986083985,2|0,3:2|0:0,0:0:0:0:
246,53,70847,6,0,P|345:107|422:137,1,182.399994433594,6|2,3:2|0:0,0:0:0:0:
389,13,71320,1,8,0:0:0:0:
502,193,71478,2,0,P|427:220|355:296,1,182.399994433594,2|2,3:2|0:0,0:0:0:0:
470,355,71952,1,8,0:0:0:0:
308,227,72110,6,0,L|264:90,1,136.799995825195,2|0,3:2|0:0,0:0:0:0:
376,163,72426,2,0,L|332:26,1,136.799995825195,10|0,0:0|0:0,0:0:0:0:
202,17,72742,6,0,L|188:74,1,45.5999986083985,6|0,3:2|0:0,0:0:0:0:
98,249,73057,2,0,L|112:306,1,45.5999986083985,10|0,0:0|0:0,0:0:0:0:
124,303,73373,6,0,P|164:237|211:189,1,136.799995825195,6|0,3:2|0:0,0:0:0:0:
319,251,73847,2,0,P|291:272|250:267,1,68.3999979125977,2|0,0:0|3:0,0:0:0:0:
146,121,74163,1,8,0:0:0:0:
225,57,74320,2,0,L|228:12,2,34.1999989562989,2|2|2,0:0|0:0|0:0,0:0:0:0:
331,173,74636,6,0,P|360:230|386:317,1,136.799995825195,2|0,3:2|3:0,0:0:0:0:
283,367,75110,2,0,P|285:333|295:292,1,68.3999979125977,2|0,0:0|0:0,0:0:0:0:
458,232,75426,1,10,0:0:0:0:
482,134,75584,2,0,P|471:101|450:64,1,68.3999979125977,0|0,3:0|0:0,0:0:0:0:
304,11,75899,6,0,P|280:114|216:147,1,167.200005102539,2|0,3:2|3:0,0:0:0:0:
159,43,76373,2,0,B|142:39|142:39|121:53,3,41.8000012756348,10|2|2|2,0:0|0:0|3:2|0:0,0:0:0:0:
67,171,76689,5,10,0:0:0:0:
47,210,76794,2,0,L|79:273,1,55.7333350341797,8|8,0:0|0:0,0:0:0:0:
158,307,77005,5,0,3:0:0:0:
168,349,77110,2,0,L|233:376,1,55.7333350341797,0|0,3:0|3:0,0:0:0:0:
306,327,77320,5,6,3:2:0:0:
306,327,78584,2,0,B|274:184|274:184|423:226|423:226|319:375,1,475,2|0,0:0|0:0,0:0:0:0:
323,368,80636,1,0,3:0:0:0:
223,328,80794,6,0,B|177:325|177:325|209:361,1,91.2,8|0,0:0|0:0,0:0:0:0:
107,289,81110,5,6,3:2:0:0:
51,32,88689,6,0,L|42:78,1,34.1999989562989,6|0,0:0|0:0,0:0:0:0:
58,168,88847,2,0,L|87:191,3,34.1999989562989,8|8|8|8,0:0|0:0|0:0|0:0,0:0:0:0:
136,59,89163,6,0,L|143:112,1,38,6|0,3:2|0:0,0:0:0:0:
186,214,89320,2,0,L|230:197,3,38,8|8|8|8,0:0|0:0|0:0|0:0,0:0:0:0:
228,26,89636,6,0,L|264:75,1,41.8000012756348,6|0,3:2|0:0,0:0:0:0:
345,121,89794,1,8,0:0:0:0:
364,127,89873,1,8,0:0:0:0:
383,133,89952,1,8,0:0:0:0:
402,139,90031,1,8,0:0:0:0:
421,145,90110,6,0,L|406:200,1,45.5999986083985,6|0,3:2|0:0,0:0:0:0:
311,314,90268,1,10,0:0:0:0:
304,286,90347,1,8,0:0:0:0:
298,258,90426,1,8,0:0:0:0:
291,231,90505,1,8,0:0:0:0:
286,204,90584,6,0,L|228:196,1,53.1999983764649,6|0,3:2|0:0,0:0:0:0:
44,325,90742,1,10,0:0:0:0:
76,351,90820,1,2,0:0:0:0:
118,351,90899,2,0,P|138:336|159:305,3,53.1999983764649,2|2|10|2,0:0|0:0|0:0|0:0,0:0:0:0:
95,261,91215,6,0,P|86:220|82:161,1,91.199997216797,2|0,3:2|0:0,0:0:0:0:
165,108,91452,2,0,P|168:62|178:18,1,91.199997216797,2|0,3:2|0:0,0:0:0:0:
177,18,92320,6,0,P|225:40|301:35,1,113.999996520996,8|0,0:0|0:0,0:0:0:0:
352,10,92794,5,2,0:0:0:0:
402,31,92899,1,0,3:0:0:0:
426,80,93005,1,8,0:0:0:0:
417,130,93110,6,0,P|404:143|382:155,1,38,8|0,0:0|0:0,0:0:0:0:
258,141,93268,2,0,P|271:128|293:116,1,38,0|0,3:0|3:0,0:0:0:0:
265,154,93584,1,8,0:0:0:0:
122,114,93742,6,0,P|79:100|18:92,1,91.199997216797,2|0,3:2|0:0,0:0:0:0:
117,193,93978,2,0,P|160:207|221:215,1,91.199997216797,2|0,3:2|0:0,0:0:0:0:
244,284,94215,5,2,0:0:0:0:
362,367,94531,6,0,L|368:341,3,15.1999995361328,2|2|2|2,0:3|0:3|0:3|0:3,0:0:0:0:
503,306,95005,5,0,3:0:0:0:
473,221,95163,1,8,0:0:0:0:
473,221,95478,1,8,0:0:0:0:
479,199,95557,1,8,0:0:0:0:
485,177,95636,1,2,3:2:0:0:
394,282,95794,2,0,L|404:317,2,22.7999993041992,0|0|0,3:0|3:0|3:0,0:0:0:0:
297,212,96110,1,0,3:0:0:0:
197,337,96268,6,0,L|96:325,1,91.199997216797,2|0,3:2|0:0,0:0:0:0:
220,256,96505,2,0,L|157:176,1,91.199997216797,2|0,3:2|0:0,0:0:0:0:
297,212,96742,5,2,0:0:0:0:
297,212,97057,2,0,L|278:129,1,68.3999979125977,8|0,0:0|0:0,0:0:0:0:
326,88,97373,2,0,L|335:54,2,22.7999993041992,2|0|0,3:2|3:0|3:0,0:0:0:0:
510,18,97847,5,10,0:0:0:0:
421,37,98005,1,0,3:0:0:0:
421,37,98320,1,0,3:2:0:0:
510,18,98478,1,0,3:0:0:0:
332,56,98636,1,8,0:0:0:0:
407,198,98794,6,0,P|384:244|325:295,1,114,6|0,3:2|0:0,0:0:0:0:
240,278,99110,6,0,P|244:259|254:240,3,38,2|0|0|0,3:2|3:0|3:0|3:0,0:0:0:0:
202,158,99426,6,0,P|214:143|233:132,1,38,2|0,3:2|3:0,0:0:0:0:
194,148,99584,2,0,P|206:133|225:122,1,38,0|0,3:0|3:0,0:0:0:0:
328,106,99742,5,10,0:0:0:0:
362,120,99820,1,8,0:0:0:0:
386,149,99899,1,8,0:0:0:0:
396,185,99978,1,8,0:0:0:0:
418,154,100057,5,6,3:2:0:0:
418,154,101320,6,0,P|389:93|416:13,1,152,6|8,3:2|0:0,0:0:0:0:
316,135,101794,1,0,0:0:0:0:
192,45,101952,2,0,P|233:41|278:29,1,76,2|0,3:2|3:0,0:0:0:0:
109,100,102268,1,8,0:0:0:0:
219,196,102426,6,0,P|222:246|201:368,1,152,2|0,3:2|3:0,0:0:0:0:
118,364,102820,1,0,3:0:0:0:
114,353,102899,2,0,P|121:311|150:273,1,76,8|0,0:0|0:0,0:0:0:0:
318,372,103215,1,2,3:2:0:0:
389,321,103373,2,0,L|468:308,1,76,0|8,3:0|0:0,0:0:0:0:
303,234,103689,1,0,3:0:0:0:
447,174,103847,6,0,P|467:94|478:17,1,152,2|8,0:0|0:0,0:0:0:0:
360,127,104320,1,0,3:0:0:0:
351,119,104399,1,0,3:0:0:0:
346,108,104478,2,0,P|340:73|339:27,2,76,2|0|8,3:2|3:0|0:0,0:0:0:0:
191,43,104952,6,0,P|122:19|34:15,1,152,2|0,3:2|3:0,0:0:0:0:
114,220,105426,1,8,0:0:0:0:
17,159,105584,1,0,3:0:0:0:
21,148,105663,1,0,3:0:0:0:
26,137,105742,2,0,L|145:111,1,114,2|0,3:2|0:0,0:0:0:0:
201,186,106057,2,0,L|320:212,1,114,8|0,0:0|0:0,0:0:0:0:
355,307,106373,6,0,P|412:255|507:278,1,152,6|8,3:2|0:0,0:0:0:0:
279,357,106847,2,0,P|270:333|268:314,2,38,0|0|2,3:0|3:0|3:2,0:0:0:0:
321,201,107163,2,0,P|329:165|323:125,1,76,0|8,3:0|0:0,0:0:0:0:
159,248,107478,6,0,P|93:222|-4:222,1,152,2|0,3:2|3:0,0:0:0:0:
107,326,107952,1,8,0:0:0:0:
232,373,108110,2,0,P|234:339|248:289,1,76,2|0,3:2|0:0,0:0:0:0:
362,242,108426,1,0,3:0:0:0:
307,78,108584,1,8,0:0:0:0:
488,196,108742,6,0,P|431:175|325:163,1,152,6|0,3:2|0:0,0:0:0:0:
346,150,109373,2,0,P|323:155|292:177,1,38,2|0,3:2|0:0,0:0:0:0:
228,29,109847,2,0,P|215:48|208:86,1,38,2|0,3:2|0:0,0:0:0:0:
50,111,110320,6,0,P|56:133|73:164,1,45.5999986083985,2|0,3:2|0:0,0:0:0:0:
30,316,110794,2,0,P|50:327|84:337,1,45.5999986083985,2|0,3:2|0:0,0:0:0:0:
179,269,110952,5,0,3:1:0:0:
252,248,111110,1,0,3:1:0:0:
304,304,111268,1,0,3:1:0:0:
405,364,111426,6,0,P|446:349|496:317,2,91.199997216797,6|0|0,3:2|0:0|0:0,0:0:0:0:
380,290,112215,1,0,0:0:0:0:
478,216,112373,2,0,P|485:196|483:153,1,45.5999986083985,2|0,0:0|0:0,0:0:0:0:
455,100,112689,2,0,P|428:65|392:32,1,91.199997216797,2|0,0:0|0:0,0:0:0:0:
302,155,113320,2,0,P|254:158|200:130,1,91.199997216797,2|0,0:0|0:0,0:0:0:0:
179,73,113794,1,2,0:0:0:0:
115,114,113952,6,0,P|102:160|96:220,1,91.199997216797,2|2,0:0|0:0,0:0:0:0:
137,271,114426,1,0,0:0:0:0:
291,338,114742,1,2,0:0:0:0:
82,368,115057,1,2,0:0:0:0:
30,310,115215,2,0,P|21:263|23:210,1,91.199997216797
204,152,115847,2,0,P|237:183|267:235,1,91.199997216797,2|0,0:0|0:0,0:0:0:0:
248,298,116320,1,0,0:0:0:0:
355,361,116478,6,0,P|376:325|382:260,1,91.199997216797,2|0,0:0|0:0,0:0:0:0:
444,225,116952,2,0,P|423:189|417:124,1,91.199997216797
457,13,117426,1,2,0:0:0:0:
480,88,117584,1,0,0:0:0:0:
337,148,117742,2,0,P|294:132|238:122,1,91.199997216797,2|0,0:0|0:0,0:0:0:0:
185,166,118215,1,2,0:0:0:0:
189,20,118373,2,0,P|198:42|203:82,1,45.5999986083985,2|0,0:0|0:0,0:0:0:0:
124,66,118689,1,0,0:0:0:0:
124,66,119005,6,0,L|77:58,1,45.5999986083985,2|0,0:0|0:0,0:0:0:0:
216,140,119320,2,0,L|169:132,1,45.5999986083985,2|0,0:0|0:0,0:0:0:0:
304,26,119636,1,2,0:0:0:0:
304,26,119952,1,2,0:0:0:0:
367,76,120110,1,0,0:0:0:0:
472,20,120268,2,0,P|451:61|443:114,1,91.199997216797,2|0,0:0|0:0,0:0:0:0:
478,176,120742,1,0,0:0:0:0:
483,182,120820,1,0,0:0:0:0:
487,189,120899,2,0,L|476:248,1,45.5999986083985
467,374,121215,6,0,P|444:339|398:300,1,91.2,2|0,0:3|0:0,0:0:0:0:
320,279,121531,6,0,P|264:296|198:351,1,121.6,6|0,3:2|3:0,0:0:0:0:
171,226,122005,1,0,0:0:0:0:
75,297,122163,2,0,P|33:256|6:187,1,121.6,2|0,3:2|3:0,0:0:0:0:
112,100,122636,1,8,0:0:0:0:
198,32,122794,6,0,P|196:80|209:168,1,121.6,2|2,3:2|3:2,0:0:0:0:
326,45,123268,2,0,P|297:55|275:75,1,60.8,0|0,0:0|3:0,0:0:0:0:
331,217,123584,2,0,B|335:184|335:184|356:145,1,60.8,8|0,0:0|3:0,0:0:0:0:
454,33,123899,1,8,0:0:0:0:
498,119,124057,5,2,3:2:0:0:
498,119,124373,2,0,P|472:122|424:135,1,60.8,0|0,3:0|0:0,0:0:0:0:
349,23,124689,2,0,P|317:68|296:144,1,121.6,2|0,3:2|3:0,0:0:0:0:
374,259,125163,1,8,0:0:0:0:
432,358,125320,6,0,P|449:298|477:239,1,121.6,2|2,3:2|3:2,0:0:0:0:
311,331,125794,1,0,0:0:0:0:
248,266,125952,2,0,P|220:258|180:253,2,60.8,2|0|0,3:2|0:0|3:0,0:0:0:0:
50,356,126426,1,8,0:0:0:0:
87,220,126584,6,0,P|83:167|67:126,1,91.199997216797,6|2,3:2|3:2,0:0:0:0:
130,308,127057,1,0,0:0:0:0:
231,162,127215,2,0,P|206:168|185:179,1,45.5999986083985,2|0,3:2|0:0,0:0:0:0:
354,244,127531,2,0,P|332:230|309:223,1,45.5999986083985,2|0,3:2|0:0,0:0:0:0:
225,335,127847,6,0,L|279:374,1,60.8,0|0,3:0|0:0,0:0:0:0:
392,323,128163,2,0,L|446:362,1,60.8,2|0,3:2|0:0,0:0:0:0:
449,202,128478,2,0,P|447:180|442:163,3,30.4,2|2|2|2,3:2|0:0|0:0|0:0,0:0:0:0:
384,74,128794,2,0,P|372:114|367:169,1,91.2,2|0,3:2|0:0,0:0:0:0:
298,233,129110,6,0,P|248:237|164:250,1,121.6,6|0,3:2|0:0,0:0:0:0:
240,135,129584,2,0,P|164:148|97:188,1,152,6|0,3:2|0:0,0:0:0:0:
145,36,130057,6,0,P|40:103|4:257,1,273.599991650391,6|0,3:2|0:0,0:0:0:0:
1,240,131794,6,0,P|19:233|59:228,1,45.5999986083985,6|0,3:2|0:0,0:0:0:0:
122,335,131952,1,10,0:0:0:0:
145,348,132031,1,8,0:0:0:0:
172,350,132110,1,8,0:0:0:0:
199,347,132189,1,8,0:0:0:0:
222,332,132268,1,8,0:0:0:0:
244,315,132347,1,8,0:0:0:0:
269,306,132426,2,0,P|296:319|307:335,3,45.5999986083985,8|8|8|8,0:0|0:0|0:0|0:0,0:0:0:0:
399,365,132742,6,0,P|384:342|387:306,1,45.5999986083985,6|0,3:2|0:0,0:0:0:0:
449,167,132899,1,10,0:0:0:0:
473,179,132978,1,8,0:0:0:0:
486,202,133057,1,8,0:0:0:0:
491,228,133136,1,8,0:0:0:0:
486,254,133215,2,0,P|465:270|438:276,3,45.5999986083985,10|8|8|8,0:0|0:0|0:0|0:0,0:0:0:0:
352,216,133531,6,0,P|339:237|332:272,1,45.5999986083985,2|0,3:2|0:0,0:0:0:0:
260,362,133689,2,0,P|253:340|241:321,1,45.5999986083985,2|0,3:2|0:0,0:0:0:0:
239,308,134005,6,0,P|172:345|63:347,1,182.399994433594,6|2,3:2|0:0,0:0:0:0:
21,211,134478,1,8,0:0:0:0:
174,251,134636,2,0,P|186:175|164:71,1,182.399994433594,2|2,3:2|0:0,0:0:0:0:
286,170,135110,1,8,0:0:0:0:
406,112,135268,6,0,P|341:105|282:66,1,136.799995825195,6|0,3:2|0:0,0:0:0:0:
369,4,135584,1,2,0:0:0:0:
395,8,135663,1,2,0:0:0:0:
421,13,135742,2,0,P|463:34|505:60,1,91.199997216797,10|0,0:0|0:0,0:0:0:0:
447,195,136057,2,0,P|402:209|354:221,1,91.199997216797,2|0,3:2|0:0,0:0:0:0:
150,253,136373,1,8,0:0:0:0:
164,276,136452,1,8,0:0:0:0:
182,295,136531,1,8,0:0:0:0:
205,308,136610,1,8,0:0:0:0:
228,315,136689,6,0,P|247:226|297:142,1,167.200005102539,6|8,3:2|0:0,0:0:0:0:
149,10,137163,1,0,3:0:0:0:
154,21,137242,1,0,3:0:0:0:
159,31,137320,2,0,P|155:71|143:127,1,83.6000025512696,2|0,3:2|3:0,0:0:0:0:
48,140,137636,1,8,0:0:0:0:
182,283,137794,6,0,P|106:229|6:236,1,167.200005102539,2|0,3:2|3:0,0:0:0:0:
118,365,138268,1,8,0:0:0:0:
274,274,138426,2,0,L|293:184,1,83.6000025512696,2|8,3:2|0:0,0:0:0:0:
396,356,138742,2,0,L|382:301,2,41.8000012756348,2|0|8,3:2|3:0|0:0,0:0:0:0:
407,193,139057,6,0,P|443:105|500:37,1,182.399994433594,6|0,3:2|3:0,0:0:0:0:
350,91,139531,1,10,0:0:0:0:
256,1,139689,1,0,3:0:0:0:
261,27,139768,1,0,3:0:0:0:
266,53,139847,1,10,0:0:0:0:
335,215,140005,1,0,3:0:0:0:
322,220,140084,1,0,3:0:0:0:
311,224,140163,6,0,P|258:209|192:192,1,114,2|10,3:2|0:0,0:0:0:0:
101,236,140478,5,10,0:0:0:0:
103,257,140557,1,8,0:0:0:0:
112,277,140636,1,8,0:0:0:0:
130,290,140715,1,8,0:0:0:0:
150,299,140794,2,0,P|163:283|177:263,3,38,2|0|0|0,3:2|3:0|3:0|3:0,0:0:0:0:
185,373,141110,6,0,P|158:379|134:381,1,45.5999986083985,2|0,3:2|0:0,0:0:0:0:
15,357,141268,2,0,P|42:351|66:349,1,45.5999986083985,2|0,3:2|0:0,0:0:0:0:
11,339,141584,6,0,P|63:302|74:224,1,136.799995825195,6|0,3:2|0:0,0:0:0:0:
31,169,141899,6,0,L|16:75,1,91.199997216797,10|0,0:0|0:0,0:0:0:0:
105,118,142136,2,0,L|113:57,1,60.8,10|0,0:0|0:0,0:0:0:0:
214,145,142373,6,0,L|263:66,1,91.199997216797,10|0,0:0|0:0,0:0:0:0:
303,152,142610,2,0,L|370:133,1,60.8,10|0,0:0|0:0,0:0:0:0:
398,272,142847,6,0,L|262:252,1,136.799995825195,14|0,0:0|0:0,0:0:0:0:
195,327,143163,1,8,0:0:0:0:
168,334,143242,1,8,0:0:0:0:
142,341,143320,1,10,0:0:0:0:
115,349,143399,1,8,0:0:0:0:
88,357,143478,1,8,0:0:0:0:
62,365,143557,1,8,0:0:0:0:
36,374,143636,6,0,L|40:322,1,45.5999986083985,2|0,3:2|0:0,0:0:0:0:
141,256,143794,2,0,L|169:203,1,45.5999986083985,2|0,3:2|0:0,0:0:0:0:
122,244,144110,6,0,P|202:211|302:187,1,182.399994433594,6|2,3:2|0:0,0:0:0:0:
401,274,144584,1,10,0:0:0:0:
376,103,144742,2,0,P|412:181|515:211,1,182.399994433594,2|2,3:2|0:0,0:0:0:0:
369,350,145215,1,8,0:0:0:0:
218,299,145373,6,0,P|201:242|198:149,1,136.799995825195,2|0,3:2|0:0,0:0:0:0:
256,50,145689,2,0,P|273:107|276:200,1,136.799995825195,10|0,0:0|0:0,0:0:0:0:
118,242,146005,6,0,L|72:224,1,45.5999986083985,6|0,3:2|0:0,0:0:0:0:
287,357,146320,2,0,L|333:339,1,45.5999986083985,10|0,0:0|0:0,0:0:0:0:
278,343,146636,6,0,P|331:312|339:228,1,136.799995825195,6|0,3:2|0:0,0:0:0:0:
195,304,147110,2,0,P|180:334|178:380,1,68.3999979125977,2|0,0:0|3:0,0:0:0:0:
40,228,147426,1,8,0:0:0:0:
74,309,147584,2,0,L|34:320,2,34.1999989562989,2|2|2,0:0|0:0|0:0,0:0:0:0:
190,199,147899,6,0,P|247:232|329:242,1,136.799995825195,2|0,3:2|0:0,0:0:0:0:
426,304,148373,2,0,P|431:271|431:225,1,68.3999979125977,2|0,0:0|3:0,0:0:0:0:
320,156,148689,1,10,0:0:0:0:
419,42,148847,2,0,P|454:55|486:80,1,68.3999979125977,0|0,3:0|0:0,0:0:0:0:
211,97,149163,6,0,P|270:86|322:-9,1,167.200005102539,2|0,3:2|0:0,0:0:0:0:
153,35,149636,2,0,B|137:50|137:50|130:79,3,41.8000012756348,10|2|2|2,0:0|0:0|3:2|0:0,0:0:0:0:
202,185,149952,5,10,0:0:0:0:
188,227,150057,2,0,L|122:251,1,55.7333350341797,8|8,0:0|0:0,0:0:0:0:
164,340,150268,5,0,3:0:0:0:
124,359,150373,2,0,L|60:329,1,55.7333350341797,0|0,3:0|3:0,0:0:0:0:
23,252,150584,5,6,3:2:0:0:
23,252,152005,2,0,B|64:128|64:128|187:246|187:246|11:310,1,475,6|0,0:0|0:0,0:0:0:0:
23,305,154057,1,0,0:0:0:0:
171,349,154215,6,0,P|243:352|324:378,1,136.799995825195,6|0,3:2|0:0,0:0:0:0:
404,333,154531,1,10,0:0:0:0:
410,306,154610,1,10,0:0:0:0:
416,279,154689,1,10,0:0:0:0:
421,252,154768,1,10,0:0:0:0:
425,225,154847,6,0,L|410:132,1,91.2,2|0,3:2|0:0,0:0:0:0:
320,219,155163,2,0,L|348:253,3,30.4,10|10|10|10,0:0|0:0|0:0|0:0,0:0:0:0:
230,275,155478,6,0,P|177:256|79:241,1,136.799995825195,6|0,3:2|0:0,0:0:0:0:
26,149,155794,1,10,0:0:0:0:
50,161,155873,1,10,0:0:0:0:
77,164,155952,1,10,0:0:0:0:
103,156,156031,1,2,0:0:0:0:
122,141,156110,6,0,P|137:91|141:40,1,91.2,2|0,3:2|0:0,0:0:0:0:
65,8,156426,2,0,P|64:23|74:53,3,30.4,10|10|10|10,0:0|0:0|0:0|0:0,0:0:0:0:
215,105,156742,6,0,P|288:82|360:78,1,136.799995825195,6|0,3:2|0:0,0:0:0:0:
455,146,157057,6,0,B|433:154|395:147,1,45.5999986083985,2|0,0:0|0:0,0:0:0:0:
426,27,157215,2,0,P|445:31|469:41,1,41.8000012756348,2|0,0:0|0:0,0:0:0:0:
465,165,157373,2,0,P|444:176|411:173,1,38,2|0,0:0|0:0,0:0:0:0:
448,8,157531,2,0,P|468:18|488:35,1,34.1999989562989,2|2,0:0|0:0,0:0:0:0:
362,85,157689,1,2,0:0:0:0:
347,82,157768,1,2,0:0:0:0:
332,79,157847,1,10,0:0:0:0:
163,21,158005,6,0,L|-3:49,1,136.799995825195,2|0,3:2|0:0,0:0:0:0:
16,125,158320,6,0,L|113:108,2,91.199997216797,2|2|2,0:0|0:0|0:0,0:0:0:0:
176,181,159110,2,0,L|231:191,1,38,8|0,0:0|0:0,0:0:0:0:
301,270,159268,6,0,P|328:188|321:109,1,152,6|2,3:2|0:0,0:0:0:0:
235,92,159663,1,2,0:0:0:0:
227,84,159742,2,0,L|218:5,2,76,8|0|2,0:0|0:0|3:2,0:0:0:0:
139,196,160215,1,2,3:2:0:0:
128,192,160294,1,0,3:0:0:0:
117,188,160373,1,0,3:0:0:0:
16,123,160531,6,0,P|93:102|141:13,1,152,10|0,0:0|3:0,0:0:0:0:
273,154,161005,1,8,0:0:0:0:
345,58,161163,2,0,P|341:39|331:22,2,38,2|0|0,3:2|3:0|3:0,0:0:0:0:
468,103,161478,2,0,P|469:62|483:23,1,76,0|0,3:0|0:0,0:0:0:0:
496,222,161794,6,0,P|479:295|419:355,1,152,10|2,0:0|0:0,0:0:0:0:
306,283,162268,1,8,0:0:0:0:
328,277,162347,1,8,0:0:0:0:
350,271,162426,1,10,0:0:0:0:
186,352,162584,2,0,L|238:364,1,38,0|0,3:0|0:0,0:0:0:0:
143,277,162742,2,0,L|164:190,1,76,2|0,3:2|0:0,0:0:0:0:
24,92,163057,6,0,P|48:168|28:256,1,152,10|2,0:0|3:2,0:0:0:0:
104,361,163531,1,8,0:0:0:0:
243,275,163689,2,0,L|237:228,2,38,2|2|2,0:0|0:0|3:2,0:0:0:0:
327,340,164005,1,0,3:0:0:0:
153,276,164163,2,0,B|144:210|144:210|174:153,1,114,8|0,0:0|0:0,0:0:0:0:
222,87,164478,6,0,L|214:39,1,38,6|0,3:2|0:0,0:0:0:0:
237,94,164636,2,0,L|229:46,1,38,0|0,3:0|0:0,0:0:0:0:
314,153,164794,2,0,L|408:168,1,76,8|0,0:0|0:0,0:0:0:0:
496,22,165110,1,2,3:2:0:0:
393,78,165268,2,0,P|371:47|362:7,1,76,2|0,3:2|0:0,0:0:0:0:
231,95,165584,6,0,P|214:173|170:251,1,152,10|2,0:0|3:2,0:0:0:0:
61,125,166057,1,10,0:0:0:0:
72,144,166136,1,2,0:0:0:0:
78,165,166215,1,2,0:0:0:0:
50,342,166373,2,0,P|69:309|83:262,2,76,2|0|2,3:2|3:0|0:0,0:0:0:0:
205,326,166847,6,0,P|277:343|371:375,1,152,10|0,0:0|0:0,0:0:0:0:
279,252,167320,2,0,P|320:246|358:221,1,76,10|0,0:0|0:0,0:0:0:0:
464,113,167636,1,2,3:2:0:0:
373,47,167794,2,0,P|370:28|370:4,2,38,0|0|10,3:0|3:0|0:0,0:0:0:0:
288,167,168110,1,2,3:2:0:0:
139,44,168268,6,0,P|99:28|26:18,1,114,14|0,0:0|0:0,0:0:0:0:
46,126,168584,1,8,0:0:0:0:
72,119,168663,1,8,0:0:0:0:
98,113,168742,1,6,3:2:0:0:
242,20,168899,1,2,3:2:0:0:
267,29,168978,1,2,3:2:0:0:
292,38,169057,2,0,L|308:89,3,45.5999986083985,2|0|0|0,3:2|3:0|3:0|3:0,0:0:0:0:
376,124,169373,2,0,L|392:175,1,45.5999986083985,8|0,0:0|0:0,0:0:0:0:
473,276,169531,5,14,0:0:0:0:
483,296,169610,1,2,0:0:0:0:
482,318,169689,1,2,0:0:0:0:
475,339,169768,1,2,0:0:0:0:
458,354,169847,2,0,P|440:348|414:343,3,38,14|2|2|2,0:0|0:0|0:0|0:0,0:0:0:0:
365,285,170163,6,0,L|360:239,2,38,10|0|0,0:0|0:0|0:0,0:0:0:0:
263,356,170478,1,10,0:0:0:0:
249,362,170557,1,0,0:0:0:0:
235,368,170636,1,0,0:0:0:0:
92,308,170794,5,10,0:0:0:0:
221,237,170952,2,0,L|236:280,2,38,2|2|8,0:0|0:0|0:0,0:0:0:0:
126,155,171268,1,2,0:0:0:0:
136,134,171347,1,2,0:0:0:0:
242,69,171505,1,2,0:0:0:0:
261,55,171584,1,2,0:0:0:0:
371,108,171742,1,10,0:0:0:0:
394,105,171820,2,0,L|432:124,2,38,2|0|0,0:0|0:0|0:0,0:0:0:0:
451,198,172057,6,0,L|500:183,3,38,10|0|0|0,0:0|0:0|0:0|0:0,0:0:0:0:
463,279,172373,1,10,0:0:0:0:
454,300,172452,1,0,0:0:0:0:
445,321,172531,1,0,0:0:0:0:
316,250,172689,5,8,0:0:0:0:
303,231,172768,2,0,L|321:113,1,114,2|10,0:0|0:0,0:0:0:0:
225,4,173163,1,2,0:0:0:0:
222,19,173242,1,0,0:0:0:0:
220,33,173320,6,0,L|178:52,3,38,8|0|2|2,0:0|0:0|0:0|0:0,0:0:0:0:
156,123,173636,1,8,0:0:0:0:
137,136,173715,1,0,0:0:0:0:
114,141,173794,1,2,0:0:0:0:
91,138,173873,1,2,0:0:0:0:
75,128,173952,6,0,P|66:96|63:52,1,68.3999979125977,8|0,0:0|0:0,0:0:0:0:
79,221,174268,2,0,P|74:278|44:359,1,136.799995825195,10|0,0:0|0:0,0:0:0:0:
152,314,174584,6,0,P|187:299|227:285,1,76,6|0,3:2|0:0,0:0:0:0:
304,161,174899,2,0,P|339:176|379:190,1,76,8|0,0:0|0:0,0:0:0:0:
495,98,175215,1,10,0:0:0:0:
492,86,175294,1,0,0:0:0:0:
489,74,175373,1,0,0:0:0:0:
486,62,175452,1,0,0:0:0:0:
483,50,175531,2,0,P|457:15|432:-10,1,76,10|0,0:0|0:0,0:0:0:0:
293,70,175847,5,10,0:0:0:0:
180,22,176005,2,0,L|138:11,2,38,0|0|2,3:0|3:0|0:0,0:0:0:0:
56,96,176320,2,0,L|10:116,1,38,0|0,3:0|3:0,0:0:0:0:
7,187,176478,1,10,0:0:0:0:
23,202,176557,1,0,3:0:0:0:
32,222,176636,1,0,3:0:0:0:
33,244,176715,1,0,3:0:0:0:
25,265,176794,1,10,0:0:0:0:
140,372,176952,6,0,P|175:315|249:300,1,121.6,6|0,3:2|3:0,0:0:0:0:
355,372,177426,2,0,L|343:300,1,60.8,0|2,3:0|0:0,0:0:0:0:
436,209,177742,2,0,L|448:281,2,60.8,8|2|2,0:0|0:0|3:2,0:0:0:0:
285,139,178215,1,0,3:0:0:0:
278,128,178294,1,0,3:0:0:0:
273,116,178373,6,0,P|293:55|358:19,1,121.6,6|8,0:0|0:0,0:0:0:0:
494,78,178847,1,2,3:2:0:0:
364,186,179005,1,2,3:2:0:0:
438,158,179163,1,0,3:0:0:0:
465,233,179320,1,0,3:0:0:0:
391,260,179478,1,0,3:0:0:0:
465,331,179636,5,4,0:0:0:0:
69,352,199847,5,4,3:2:0:0:
209,242,200163,6,0,L|327:233,2,106.39999675293,2|2|2,3:2|3:2|3:2,0:0:0:0:
229,164,200952,1,0,0:0:0:0:
303,133,201110,2,0,P|315:78|312:15,2,106.39999675293,2|2|2,3:2|3:2|3:2,0:0:0:0:
363,186,201899,1,0,0:0:0:0:
363,186,202215,6,0,P|382:222|442:269,1,106.39999675293,2|2,0:0|0:0,0:0:0:0:
502,227,202689,1,0,3:0:0:0:
502,227,202847,1,2,0:0:0:0:
388,71,203163,2,0,P|382:46|381:7,1,53.1999983764649,2|0,0:0|3:0,0:0:0:0:
498,48,203478,2,0,P|479:104|432:140,1,106.39999675293,2|2,0:0|0:0,0:0:0:0:
422,211,203952,2,0,P|394:216|357:223,1,53.1999983764649,2|0,3:2|0:0,0:0:0:0:
323,286,204268,1,2,3:2:0:0:
157,358,204584,2,0,P|170:328|171:295,1,53.1999983764649,2|0,3:2|0:0,0:0:0:0:
41,278,204899,6,0,P|89:260|143:229,1,106.39999675293,2|2,3:2|3:2,0:0:0:0:
329,166,205531,2,0,P|282:139|232:121,1,106.39999675293,2|2,3:2|3:2,0:0:0:0:
82,27,206163,2,0,P|73:56|65:86,2,53.1999983764649,2|2|0,3:2|0:0|3:0,0:0:0:0:
142,114,206636,2,0,P|105:163|45:185,1,106.39999675293,2|2,0:0|0:0,0:0:0:0:
90,349,207110,1,0,3:0:0:0:
17,248,207268,6,0,P|68:265|133:270,1,106.39999675293,2|0,0:0|0:0,0:0:0:0:
234,353,207742,1,2,3:2:0:0:
288,294,207899,2,0,P|292:270|296:235,2,53.1999983764649,0|2|0,0:0|3:2|0:0,0:0:0:0:
372,216,208373,2,0,P|357:168|343:109,2,106.39999675293,2|2|2,3:2|3:2|3:2,0:0:0:0:
467,369,209320,1,0,3:0:0:0:
489,292,209478,1,8,0:0:0:0:
298,338,209794,1,0,0:0:0:0:
294,328,209873,1,0,0:0:0:0:
290,318,209952,6,0,P|228:296|165:280,2,121.6,4|2|2,3:2|3:2|3:2,0:0:0:0:
89,205,210899,1,2,3:2:0:0:
167,181,211057,1,2,0:0:0:0:
229,128,211215,2,0,P|246:63|245:1,1,121.6,0|2,3:0|3:2,0:0:0:0:
16,69,211847,1,2,3:2:0:0:
73,127,212005,2,0,P|106:121|141:117,1,60.8,0|0,0:0|3:0,0:0:0:0:
265,172,212320,6,0,P|264:230|254:301,1,121.6,2|2,0:0|0:0,0:0:0:0:
349,253,212794,1,0,3:0:0:0:
459,218,212952,2,0,P|445:281|401:326,1,121.6,2|2,0:0|0:0,0:0:0:0:
349,253,213426,1,0,3:0:0:0:
216,361,213584,2,0,P|183:361|88:380,1,121.6,2|2,0:0|0:0,0:0:0:0:
43,289,214057,1,0,3:0:0:0:
194,150,214215,6,0,L|145:164,3,30.4,8|8|8|8,0:0|0:0|0:0|0:0,0:0:0:0:
119,230,214531,1,8,0:0:0:0:
129,244,214610,1,8,0:0:0:0:
142,255,214689,2,0,L|185:268,1,30.4,8|0,0:0|0:0,0:0:0:0:
298,369,214847,6,0,P|268:275|329:225,1,182.399994433594,6|0,3:2|0:0,0:0:0:0:
423,294,215320,1,8,0:0:0:0:
506,133,215478,1,0,3:0:0:0:
485,151,215557,1,0,3:0:0:0:
464,169,215636,2,0,P|381:139|272:112,1,182.399994433594,10|8,0:0|0:0,0:0:0:0:
109,171,216110,1,0,3:0:0:0:
118,196,216189,1,0,3:0:0:0:
137,215,216268,6,0,P|177:200|229:189,2,91.199997216797,10|0|8,0:0|0:0|0:0,0:0:0:0:
196,43,216742,1,0,3:0:0:0:
116,85,216899,1,10,0:0:0:0:
16,202,217057,2,0,P|39:242|47:294,1,91.199997216797,0|8,3:0|0:0,0:0:0:0:
182,371,217373,6,0,P|161:366|124:364,2,45.5999986083985,0|0|10,3:0|3:0|0:0,0:0:0:0:
282,256,217689,1,2,0:0:0:0:
294,250,217768,1,2,0:0:0:0:
306,243,217847,2,0,P|327:238|364:236,3,45.5999986083985,10|2|2|2,0:0|0:0|0:0|0:0,0:0:0:0:
415,330,218163,5,10,0:0:0:0:
463,326,218268,2,0,L|483:269,1,60.7999981445313,8|8,0:0|0:0,0:0:0:0:
433,176,218478,5,0,3:0:0:0:
467,142,218584,2,0,L|445:85,1,60.7999981445313,0|0,3:0|3:0,0:0:0:0:
347,46,218794,5,6,3:2:0:0:
256,192,220215,12,2,221163,0:3:0:0:
351,37,221952,6,0,P|362:55|370:86,1,45.5999986083985,2|0,3:2|0:0,0:0:0:0:
487,147,222110,2,0,P|476:165|468:196,1,45.5999986083985,2|0,3:2|0:0,0:0:0:0:
470,209,222899,6,0,P|450:138|424:78,1,136.799995825195,2|0,3:2|0:0,0:0:0:0:
368,143,223215,2,0,P|340:116|287:96,1,91.199997216797,2|2,3:2|0:0,0:0:0:0:
227,216,223531,1,8,0:0:0:0:
76,100,223689,6,0,P|164:99|200:-4,1,182.399994433594,6|2,3:2|0:0,0:0:0:0:
318,169,224163,1,8,0:0:0:0:
426,100,224320,2,0,L|489:86,2,45.5999986083985,2|2|10,0:0|0:0|0:0,0:0:0:0:
372,24,224636,1,0,3:0:0:0:
453,185,224794,1,8,0:0:0:0:
460,211,224873,1,8,0:0:0:0:
460,238,224952,1,8,0:0:0:0:
447,262,225031,1,8,0:0:0:0:
427,278,225110,6,0,P|379:246|246:208,1,167.200005102539,6|8,3:2|0:0,0:0:0:0:
142,315,225584,1,0,3:0:0:0:
151,323,225663,1,0,3:0:0:0:
162,328,225742,2,0,P|209:303|243:295,1,83.6000025512696,2|0,3:2|3:0,0:0:0:0:
152,230,226057,1,8,0:0:0:0:
318,365,226215,6,0,P|343:256|378:195,1,167.200005102539,2|0,3:2|3:0,0:0:0:0:
469,266,226689,1,10,0:0:0:0:
313,140,226847,2,0,P|352:127|399:121,1,83.6000025512696,0|10,3:0|0:0,0:0:0:0:
266,50,227163,2,0,P|247:36|237:13,2,41.8000012756348,0|0|10,3:0|3:0|0:0,0:0:0:0:
15,29,227478,6,0,P|106:62|191:107,1,182.399994433594,6|0,3:2|3:0,0:0:0:0:
86,277,227952,1,10,0:0:0:0:
16,179,228110,1,0,3:0:0:0:
26,153,228189,1,0,3:0:0:0:
37,127,228268,1,10,0:0:0:0:
177,201,228426,1,0,3:0:0:0:
183,212,228505,1,0,3:0:0:0:
188,224,228584,6,0,P|238:238|294:276,1,114,2|0,3:2|0:0,0:0:0:0:
339,374,228899,1,10,0:0:0:0:
361,371,228978,1,8,0:0:0:0:
380,359,229057,1,8,0:0:0:0:
397,344,229136,1,8,0:0:0:0:
400,321,229215,2,0,P|384:316|354:323,3,38,2|0|0|0,3:2|3:0|3:0|3:0,0:0:0:0:
259,352,229531,6,0,L|190:336,1,45.5999986083985,2|0,3:2|0:0,0:0:0:0:
373,240,229689,2,0,L|340:176,1,45.5999986083985,2|0,3:2|0:0,0:0:0:0:
390,238,230005,6,0,P|388:167|407:96,1,136.799995825195,6|0,3:2|0:0,0:0:0:0:
471,9,230320,6,0,L|457:70,2,45.5999986083985,2|0|0,3:2|3:0|3:0,0:0:0:0:
355,11,230557,2,0,L|387:27,2,30.4,2|0|0,3:2|3:0|3:0,0:0:0:0:
318,103,230794,6,0,L|260:121,2,45.5999986083985,2|0|0,3:2|3:0|3:0,0:0:0:0:
310,191,231031,2,0,L|302:230,2,30.4,2|0|0,3:2|3:0|3:0,0:0:0:0:
205,160,231268,6,0,P|196:141|189:116,1,45.5999986083985,6|0,3:2|0:0,0:0:0:0:
77,20,231426,1,8,0:0:0:0:
97,38,231505,1,8,0:0:0:0:
110,61,231584,1,8,0:0:0:0:
111,88,231663,1,8,0:0:0:0:
100,113,231742,2,0,P|79:130|60:136,3,45.5999986083985,8|8|8|8,0:0|0:0|0:0|0:0,0:0:0:0:
66,211,232057,6,0,P|49:213|16:199,1,45.5999986083985,2|0,3:2|0:0,0:0:0:0:
106,352,232215,2,0,P|127:343|149:345,1,45.5999986083985,2|0,3:2|0:0,0:0:0:0:
93,337,232531,6,0,P|195:354|275:384,1,182.399994433594,6|2,3:2|0:0,0:0:0:0:
222,158,233005,1,10,0:0:0:0:
179,268,233163,2,0,P|93:298|3:312,1,182.399994433594,2|2,3:2|0:0,0:0:0:0:
78,207,233636,1,8,0:0:0:0:
238,359,233794,6,0,L|281:229,1,136.799995825195,2|0,3:2|0:0,0:0:0:0:
353,161,234110,2,0,L|396:31,1,136.799995825195,10|0,0:0|0:0,0:0:0:0:
443,134,234426,6,0,L|457:189,1,45.5999986083985,6|0,3:2|0:0,0:0:0:0:
260,17,234742,2,0,L|274:72,1,45.5999986083985,10|0,0:0|0:0,0:0:0:0:
246,27,235057,6,0,L|218:169,1,136.799995825195,6|0,3:2|0:0,0:0:0:0:
129,245,235531,2,0,P|124:213|107:179,1,68.3999979125977,2|0,0:0|3:0,0:0:0:0:
54,342,235847,1,8,0:0:0:0:
179,366,236005,2,0,P|195:363|224:352,2,34.1999989562989,2|2|2,0:0|0:0|0:0,0:0:0:0:
322,320,236320,6,0,P|398:330|461:357,1,136.799995825195,2|0,3:2|0:0,0:0:0:0:
411,250,236794,2,0,P|379:226|361:199,1,68.3999979125977,2|0,0:0|3:0,0:0:0:0:
233,298,237110,1,10,0:0:0:0:
150,210,237268,2,0,P|139:177|143:132,1,68.3999979125977,0|0,3:0|0:0,0:0:0:0:
257,6,237584,6,0,P|279:68|278:173,1,167.200005102539,2|0,3:2|3:0,0:0:0:0:
376,304,238057,2,0,B|360:304|360:304|338:318,3,41.8000012756348,10|2|2|2,0:0|0:0|3:2|0:0,0:0:0:0:
268,353,238373,5,8,0:0:0:0:
233,323,238478,2,0,L|214:264,1,55.7333350341797,8|8,0:0|0:0,0:0:0:0:
286,200,238689,5,0,3:0:0:0:
315,166,238794,2,0,L|323:105,1,55.7333350341797,0|0,3:0|3:0,0:0:0:0:
256,27,239005,5,0,3:0:0:0:
256,27,240268,2,0,B|83:13|83:13|162:245|162:245|281:93,1,608,2|0,0:0|0:0,0:0:0:0:
371,180,242952,1,0,3:0:0:0:
491,34,243110,6,0,B|445:19|445:19|413:65,1,91.2,8|0,0:0|0:0,0:0:0:0:
472,150,243425,6,0,P|490:183|491:237,1,76,6|2,3:2|0:0,0:0:0:0:
456,295,243661,1,2,0:0:0:0:
452,317,243740,2,0,P|416:344|388:358,1,76,8|2,0:0|0:0,0:0:0:0:
325,306,243977,1,2,0:0:0:0:
304,298,244056,1,2,3:2:0:0:
177,352,244214,2,0,L|135:357,2,38,0|0|8,0:0|0:0|0:0,0:0:0:0:
62,267,244530,6,0,P|24:223|33:123,1,152,2|0,0:0|0:0,0:0:0:0:
53,8,245003,2,0,P|78:38|122:60,1,76,10|0,0:0|0:0,0:0:0:0:
182,40,245240,1,0,0:0:0:0:
190,32,245319,1,2,3:2:0:0:
320,16,245477,1,2,0:0:0:0:
315,38,245556,1,2,0:0:0:0:
310,60,245635,2,0,L|337:138,1,76,8|0,0:0|0:0,0:0:0:0:
473,281,245951,5,2,3:2:0:0:
371,226,246109,2,0,L|328:237,2,38,0|0|10,0:0|0:0|0:0,0:0:0:0:
432,103,246425,1,0,0:0:0:0:
452,111,246503,1,0,0:0:0:0:
473,119,246582,1,2,3:2:0:0:
320,143,246740,2,0,L|299:105,2,38,0|0|8,0:0|0:0|0:0,0:0:0:0:
299,327,247056,6,0,P|235:346|155:380,1,136.799995825195,6|0,3:2|0:0,0:0:0:0:
96,333,247372,1,8,0:0:0:0:
89,315,247451,1,8,0:0:0:0:
83,297,247530,1,8,0:0:0:0:
77,279,247609,1,8,0:0:0:0:
71,261,247688,2,0,L|83:211,1,45.5999986083985,6|0,3:2|0:0,0:0:0:0:
202,154,247846,5,10,0:0:0:0:
233,172,247925,1,2,0:0:0:0:
245,205,248003,2,0,P|234:233|216:256,3,45.5999986083985,2|2|10|2,0:0|0:0|0:0|0:0,0:0:0:0:
210,363,248319,6,0,P|309:289|405:271,1,209.000006378174,6|0,3:2|0:0,0:0:0:0:
433,338,248793,1,10,0:0:0:0:
339,194,248951,1,0,0:0:0:0:
344,171,249030,1,0,0:0:0:0:
349,148,249109,1,2,3:2:0:0:
225,245,249267,2,0,P|208:237|187:230,2,38,0|0|8,0:0|0:0|0:0,0:0:0:0:
100,351,249582,6,0,P|90:280|71:193,1,152,2|0,0:0|0:0,0:0:0:0:
152,54,250056,2,0,P|163:33|180:6,1,38,8|8,0:0|0:0,0:0:0:0:
236,137,250214,2,0,L|177:124,1,38,2|0,0:0|0:0,0:0:0:0:
254,266,250372,2,0,P|279:234|298:186,1,76,2|0,3:2|0:0,0:0:0:0:
395,84,250688,2,0,P|403:100|423:117,2,38,10|2|2,0:0|0:0|0:0,0:0:0:0:
237,28,251003,6,0,L|185:36,1,34.1999989562989,6|0,3:2|0:0,0:0:0:0:
126,66,251161,2,0,L|92:60,3,34.1999989562989,8|8|8|8,0:0|0:0|0:0|0:0,0:0:0:0:
17,163,251477,6,0,L|27:200,1,38,6|0,3:2|0:0,0:0:0:0:
93,267,251635,2,0,L|83:304,3,38,8|8|8|8,0:0|0:0|0:0|0:0,0:0:0:0:
202,366,251951,6,0,L|260:359,1,41.8000012756348,6|0,3:2|0:0,0:0:0:0:
310,284,252109,1,8,0:0:0:0:
329,290,252188,1,8,0:0:0:0:
348,296,252267,1,8,0:0:0:0:
367,303,252346,1,8,0:0:0:0:
384,309,252425,6,0,L|394:261,1,45.5999986083985,6|0,3:2|0:0,0:0:0:0:
300,137,252582,1,10,0:0:0:0:
289,101,252661,1,10,0:0:0:0:
307,69,252740,1,10,0:0:0:0:
341,56,252819,1,10,0:0:0:0:
377,64,252898,6,0,P|394:88|397:120,1,53.1999983764649,6|0,3:2|0:0,0:0:0:0:
267,214,253056,1,10,0:0:0:0:
215,199,253135,1,10,0:0:0:0:
165,185,253214,6,0,L|70:197,1,91.2,8|0,0:0|0:0,0:0:0:0:
80,346,253530,6,0,P|128:288|166:262,1,121.6,2|0,3:2|0:0,0:0:0:0:
176,111,253767,6,0,P|110:73|78:40,1,121.6,2|0,3:2|0:0,0:0:0:0:
