osu file format v14

[General]
AudioFilename: audio.mp3
AudioLeadIn: 0
PreviewTime: 57584
Countdown: 0
SampleSet: Soft
StackLeniency: 0.5
Mode: 0
LetterboxInBreaks: 0
WidescreenStoryboard: 1

[Editor]
Bookmarks: 7847,17952,28057,38163,48268,58215,68320,81110,91215,101320,111426,121531,131794,141584,154215,159268,169531,179636,189584,199847,209952,218794,230005,243425,253530
DistanceSpacing: 1
BeatDivisor: 4
GridSize: 32
TimelineZoom: 0.7999998

[Metadata]
Title:Senjou no Utahime
TitleUnicode:戦場の歌姫
Artist:La priere
ArtistUnicode:La prière
Creator:Hinsvar
Version:Easy
Source:
Tags:らぷりえーる Diva of the battlefield 棗いつき Natsume Itsuki 藍月なくる Aitsuki Nakuru なゆた nayuta Galaxy Triangle かそかそ Kasokaso Prismagic Japanese Pop J-Pop JPop Rock J-Rock JRock
BeatmapID:2910084
BeatmapSetID:1398580

[Difficulty]
HPDrainRate:3
CircleSize:2
OverallDifficulty:3
ApproachRate:4.5
SliderMultiplier:0.96
SliderTickRate:1

[Events]
//Background and Video events
0,0,"utahime.jpg",0,0
//Break Periods
2,81310,87429
2,179836,198587
//Storyboard Layer 0 (Background)
//Storyboard Layer 1 (Fail)
//Storyboard Layer 2 (Pass)
//Storyboard Layer 3 (Foreground)
//Storyboard Layer 4 (Overlay)
//Storyboard Sound Samples

[TimingPoints]
-2258,315.789473684211,4,2,1,65,1,0
7847,-100,4,2,1,75,0,0
17952,-100,4,2,1,65,0,0
28057,-100,4,2,1,70,0,0
37689,-100,4,2,1,65,0,0
38163,-100,4,2,1,55,0,0
45110,-100,4,2,1,65,0,0
45426,-100,4,2,1,55,0,0
48268,-100,4,2,1,65,0,0
55847,-100,4,2,1,75,0,0
58215,-100,4,2,1,85,0,1
60268,-100,4,2,1,85,0,0
60742,-100,4,2,1,85,0,1
67847,-100,4,2,1,85,0,0
68320,-100,4,2,1,85,0,1
70373,-100,4,2,1,85,0,0
70847,-100,4,2,1,85,0,1
77320,-100,4,2,1,85,0,0
78584,-125,4,2,1,65,0,0
81110,-100,4,2,1,75,0,1
81189,-100,4,2,1,75,0,0
92320,-100,4,2,1,65,0,0
93742,-100,4,2,1,75,0,0
94215,-100,4,2,1,65,0,0
96268,-100,4,2,1,75,0,0
96742,-100,4,2,1,65,0,0
99110,-100,4,2,1,55,0,0
100057,-100,4,2,1,65,0,0
101320,-100,4,2,1,70,0,0
110952,-100,4,2,1,65,0,0
111426,-100,4,2,1,55,0,0
121531,-100,4,2,1,65,0,0
129110,-100,4,2,1,75,0,0
131794,-100,4,2,1,85,0,1
133531,-100,4,2,1,85,0,0
134005,-100,4,2,1,85,0,1
141110,-100,4,2,1,85,0,0
141584,-100,4,2,1,85,0,1
143636,-100,4,2,1,85,0,0
144110,-100,4,2,1,85,0,1
150584,-100,4,2,1,85,0,0
152005,-125,4,2,1,65,0,0
154215,-100,4,2,1,75,0,1
154294,-100,4,2,1,75,0,0
159268,-100,4,2,1,70,0,0
169531,-100,4,2,1,75,0,0
179005,-100,4,2,1,65,0,0
179636,-100,4,2,1,60,0,0
199847,-100,4,2,1,60,0,0
209952,-100,4,2,1,60,0,0
214215,-100,4,2,1,70,0,0
214847,-100,4,2,1,85,0,1
218794,-100,4,2,1,85,0,0
220215,-100,4,2,1,75,0,0
223689,-100,4,2,1,85,0,1
229531,-100,4,2,1,85,0,0
230005,-100,4,2,1,85,0,1
232057,-100,4,2,1,85,0,0
232531,-100,4,2,1,85,0,1
240268,-125,4,2,1,70,0,0
243425,315.789473684211,4,2,1,75,1,1
243503,-100,4,2,1,75,0,0

[Colours]
Combo1 : 234,68,118
Combo2 : 231,187,54
Combo3 : 98,243,247

[HitObjects]
63,138,7847,6,0,L|71:37,2,96,6|10|2,0:0|0:0|3:2,0:0:0:0:
110,289,8952,2,0,P|169:246|246:228,1,144,2|10,0:0|0:0,0:0:0:0:
307,293,9742,1,2,3:2:0:0:
398,321,10057,1,8,0:0:0:0:
466,254,10373,6,0,B|472:205|472:205|454:145,2,96,2|10|2,3:2|0:0|3:2,0:0:0:0:
331,169,11478,2,0,P|268:138|143:163,1,192,6|6,3:2|3:2,0:0:0:0:
103,240,12426,1,2,0:0:0:0:
15,199,12742,6,0,P|4:137|21:55,1,144,6|10,3:2|0:0,0:0:0:0:
106,17,13531,1,2,3:2:0:0:
232,112,14005,2,0,P|304:103|377:76,1,144,2|8,0:0|0:0,0:0:0:0:
444,17,14794,1,2,3:2:0:0:
494,98,15110,1,10,0:0:0:0:
465,189,15426,6,0,P|460:264|469:333,2,144,6|6|6,3:2|3:2|3:2,0:0:0:0:
396,121,16689,2,0,P|361:111|310:116,1,72,6|2,3:2|3:2,0:0:0:0:
94,316,17952,6,0,P|60:277|9:251,2,96,6|8|2,3:2|0:0|3:2,0:0:0:0:
247,354,19057,2,0,B|315:315|315:315|389:331,1,144,10|8,0:0|0:0,0:0:0:0:
463,376,19847,1,2,3:2:0:0:
497,187,20478,6,0,P|487:142|467:86,1,96,2|8,3:2|0:0,0:0:0:0:
405,23,21110,2,0,P|350:53|266:65,1,144,2|10,3:2|0:0,0:0:0:0:
117,22,22057,1,8,0:0:0:0:
55,95,22373,2,0,B|35:138|35:138|56:196,1,96,2|8,3:2|0:0,0:0:0:0:
122,249,23005,6,0,P|216:198|313:189,1,192,2|0,3:2|3:0,0:0:0:0:
387,319,24110,2,0,B|431:346|431:346|494:340,2,96,10|0|0,0:0|3:0|0:0,0:0:0:0:
415,227,25057,1,0,3:0:0:0:
285,135,25531,6,0,P|239:128|180:133,1,96,2|8,3:2|0:0,0:0:0:0:
103,174,26163,1,0,3:0:0:0:
72,264,26478,1,10,0:0:0:0:
128,341,26794,2,0,B|187:354|187:354|210:344|210:344|272:357,2,144,10|10|10,0:0|0:0|0:0,0:0:0:0:
131,244,28057,6,0,P|174:227|232:224,1,96,6|8,3:2|0:0,0:0:0:0:
317,243,28689,1,2,3:2:0:0:
442,340,29163,2,0,P|474:287|472:196,1,144,2|8,3:2|0:0,0:0:0:0:
437,118,29952,1,0,3:0:0:0:
372,47,30268,1,0,0:0:0:0:
292,104,30584,6,0,B|270:145|270:145|288:201,2,96,2|8|2,3:2|0:0|3:2,0:0:0:0:
154,25,31689,2,0,P|100:68|9:92,1,144,2|8,3:2|0:0,0:0:0:0:
89,177,32478,1,2,3:2:0:0:
45,262,32794,1,8,0:0:0:0:
105,336,33110,6,0,P|154:334|202:316,2,96,6|8|2,3:2|0:0|3:2,0:0:0:0:
195,205,34215,2,0,P|212:157|219:102,1,96,2|0,3:2|3:0,0:0:0:0:
277,36,34847,1,2,3:2:0:0:
350,97,35163,1,0,3:0:0:0:
438,60,35478,5,6,3:2:0:0:
480,247,36110,2,0,P|431:305|396:371,1,144,2|2,3:2|3:2,0:0:0:0:
268,273,37057,2,0,P|317:215|352:149,1,144,2|2,3:2|3:2,0:0:0:0:
316,64,37847,1,0,3:0:0:0:
231,110,38163,6,0,P|134:131|26:114,1,192,6|0,3:2|0:0,0:0:0:0:
22,25,39110,1,2,0:0:0:0:
213,15,39742,2,0,P|265:19|317:34,2,96,2|0|0,0:0|0:0|0:0,0:0:0:0:
150,88,40689,6,0,P|135:136|128:245,2,144,2|0|0,0:0|0:0|0:0,0:0:0:0:
239,123,41952,2,0,P|280:194|277:318,1,192,2|2,0:0|0:0,0:0:0:0:
363,352,42899,1,0,0:0:0:0:
439,294,43215,6,0,P|459:211|490:140,2,144,2|2|0,0:0|0:0|0:0,0:0:0:0:
355,246,44478,1,2,0:0:0:0:
200,357,45110,1,2,0:0:0:0:
125,296,45426,6,0,P|106:256|99:194,2,96,0|2|2,0:0|0:0|0:0,0:0:0:0:
208,248,46373,2,0,P|223:205|259:161,1,96,2|2,0:0|0:0,0:0:0:0:
334,112,47005,1,2,0:0:0:0:
334,112,48268,5,6,3:2:0:0:
295,200,48584,2,0,P|250:219|200:223,1,96,2|0,3:2|3:0,0:0:0:0:
129,284,49215,2,0,P|57:231|33:123,1,192,0|0,0:0|3:0,0:0:0:0:
64,44,50163,1,2,3:2:0:0:
152,79,50478,1,0,3:0:0:0:
247,91,50794,5,2,3:2:0:0:
293,175,51110,2,0,P|286:240|270:288,2,96,0|2|0,0:0|3:2|3:0,0:0:0:0:
362,109,52057,2,0,P|403:88|465:93,1,96,2|2,3:2|3:2,0:0:0:0:
505,169,52689,1,2,3:2:0:0:
418,340,53320,6,0,P|336:296|275:203,1,192,6|2,3:2|3:2,0:0:0:0:
261,121,54268,1,2,3:2:0:0:
200,45,54584,2,0,P|161:27|101:25,2,96,0|2|2,3:0|3:2|3:2,0:0:0:0:
261,121,55531,1,2,3:2:0:0:
340,66,55847,6,0,B|394:52|394:52|429:61|429:61|491:45,2,144,6|6|6,3:2|3:2|3:2,0:0:0:0:
340,66,58215,6,0,P|369:148|341:263,1,192,6|6,3:2|3:2,0:0:0:0:
276,312,59163,1,8,0:0:0:0:
214,238,59478,2,0,B|156:202|156:202|62:229,1,144,6|10,3:2|0:0,0:0:0:0:
25,300,60268,2,0,L|54:358,1,48,2|2,3:2|3:2,0:0:0:0:
136,376,60742,6,0,P|232:361|307:287,1,192,6|2,3:2|3:2,0:0:0:0:
260,213,61689,1,2,0:0:0:0:
166,233,62005,2,0,B|138:168|138:168|167:93,1,144,6|10,3:2|0:0,0:0:0:0:
243,44,62794,1,2,3:2:0:0:
307,115,63110,1,8,0:0:0:0:
390,67,63426,6,0,L|486:47,2,96,6|8|2,3:2|0:0|3:2,0:0:0:0:
449,202,64531,2,0,P|439:251|418:305,1,96,2|0,3:2|3:0,0:0:0:0:
351,357,65163,1,2,3:2:0:0:
267,311,65478,1,2,3:2:0:0:
177,346,65794,6,0,B|120:306|120:306|129:225,1,144,6|10,3:2|0:0,0:0:0:0:
192,160,66584,1,10,0:0:0:0:
203,64,66899,2,0,P|175:32|25:49,1,192,2|2,3:2|3:2,0:0:0:0:
41,134,67847,2,0,L|20:191,1,48,2|2,3:2|3:2,0:0:0:0:
52,271,68320,5,6,3:2:0:0:
119,338,68636,2,0,P|181:318|276:311,1,144,2|2,0:2|3:2,0:0:0:0:
406,250,69584,2,0,P|344:213|290:165,1,144,14|8,0:0|0:0,0:0:0:0:
253,76,70373,2,0,L|265:14,1,48,2|2,3:2|3:2,0:0:0:0:
357,16,70847,6,0,P|415:50|446:167,1,192,6|2,3:2|3:2,0:0:0:0:
378,232,71794,1,2,0:0:0:0:
285,257,72110,2,0,L|273:356,1,96,2|10,3:2|0:0,0:0:0:0:
177,361,72742,1,6,3:2:0:0:
108,294,73057,1,10,0:0:0:0:
178,228,73373,6,0,P|204:159|212:75,1,144,6|2,3:2|0:0,0:0:0:0:
159,8,74163,1,8,0:0:0:0:
27,95,74636,2,0,P|-3:212|1:339,1,240,2|10,0:0|0:0,0:0:0:0:
91,356,75742,1,2,0:0:0:0:
184,333,76057,2,0,B|233:322|233:322|284:357,2,96,2|10|10,0:0|0:0|0:0,0:0:0:0:
117,261,77005,1,2,3:2:0:0:
179,188,77320,5,6,3:2:0:0:
179,188,78584,2,0,B|232:48|232:48|386:183|386:183|224:271,1,537.6,2|8,0:0|0:0,0:0:0:0:
137,309,81110,5,6,3:2:0:0:
63,359,88689,6,0,P|92:292|118:212,1,144,6|6,0:0|3:2,0:0:0:0:
262,168,89636,2,0,P|235:100|196:25,2,144,6|6|6,3:2|3:2|3:2,0:0:0:0:
332,233,90899,1,2,0:0:0:0:
417,188,91215,6,0,P|433:146|435:100,1,72,2|2,3:2|3:2,0:0:0:0:
184,27,92320,2,0,P|202:99|202:201,1,144,8|2,0:0|0:0,0:0:0:0:
139,238,93110,2,0,L|81:257,1,48,8|0,0:0|3:0,0:0:0:0:
27,108,93742,6,0,L|15:36,2,72,2|2|2,3:2|3:2|0:0,0:0:0:0:
179,352,95163,2,0,P|245:348|320:313,1,144,8|0,0:0|0:0,0:0:0:0:
372,240,95952,1,0,3:0:0:0:
412,152,96268,6,0,B|414:114|414:114|407:60,2,72,2|2|2,3:2|3:2|0:0,0:0:0:0:
317,135,97057,2,0,P|241:106|164:86,2,144,8|0|0,0:0|0:0|3:0,0:0:0:0:
284,294,98478,1,0,3:0:0:0:
199,339,98794,5,6,3:2:0:0:
118,287,99110,2,0,P|103:240|97:193,2,96,2|2|10,3:2|3:2|0:0,0:0:0:0:
37,339,100057,1,6,3:2:0:0:
37,339,101320,6,0,P|67:304|79:251,1,96,6|8,3:2|0:0,0:0:0:0:
44,166,101952,1,2,3:2:0:0:
154,52,102426,2,0,P|215:94|250:161,1,144,2|8,3:2|0:0,0:0:0:0:
196,235,103215,1,2,3:2:0:0:
240,320,103531,1,0,0:0:0:0:
328,356,103847,6,0,P|379:353|423:340,2,96,2|8|2,0:0|0:0|3:2,0:0:0:0:
394,212,104952,2,0,P|432:143|437:65,1,144,2|8,3:2|0:0,0:0:0:0:
361,21,105742,1,2,3:2:0:0:
285,80,106057,1,8,0:0:0:0:
200,34,106373,6,0,B|153:17|153:17|106:12,2,96,6|8|2,3:2|0:0|3:2,0:0:0:0:
123,173,107478,2,0,P|107:221|104:279,1,96,2|0,3:2|3:0,0:0:0:0:
172,333,108110,1,2,3:2:0:0:
255,285,108426,1,0,3:0:0:0:
243,189,108742,5,6,3:2:0:0:
360,15,109373,2,0,P|428:42|488:109,1,144,2|2,3:2|3:2,0:0:0:0:
471,249,110320,2,0,P|413:294|325:312,1,144,2|2,3:2|3:2,0:0:0:0:
290,233,111110,1,0,3:1:0:0:
210,179,111426,6,0,P|147:235|121:354,1,192,6|0,3:2|0:0,0:0:0:0:
210,367,112373,1,2,0:0:0:0:
390,300,113005,2,0,P|445:305|492:317,2,96,2|0|0,0:0|0:0|0:0,0:0:0:0:
334,221,113952,6,0,P|261:230|188:258,2,144,2|0|0,0:0|0:0|0:0,0:0:0:0:
379,136,115215,2,0,P|341:56|244:32,1,192,2|2,0:0|0:0,0:0:0:0:
201,117,116163,1,0,0:0:0:0:
140,190,116478,6,0,P|60:162|-4:109,2,144,2|0|0,0:0|0:0|0:0,0:0:0:0:
188,273,117742,1,2,0:0:0:0:
331,145,118373,1,2,0:0:0:0:
385,224,118689,6,0,P|428:236|482:235,2,96,0|2|2,0:0|0:0|0:0,0:0:0:0:
290,238,119636,2,0,P|255:263|208:327,1,96,2|2,0:0|0:0,0:0:0:0:
155,373,120268,1,2,0:0:0:0:
155,373,121531,5,6,3:2:0:0:
203,289,121847,2,0,P|219:244|220:178,1,96,0|2,3:0|3:2,0:0:0:0:
278,118,122478,2,0,P|367:111|444:177,1,192,0|2,3:0|3:2,0:0:0:0:
459,268,123426,1,2,3:2:0:0:
381,325,123742,1,0,3:0:0:0:
305,266,124057,5,2,3:2:0:0:
233,330,124373,2,0,B|197:355|197:355|125:323,2,96,0|2|0,3:0|3:2|3:0,0:0:0:0:
188,244,125320,2,0,P|176:201|169:143,1,96,2|2,3:2|3:2,0:0:0:0:
198,58,125952,1,2,3:2:0:0:
43,172,126584,6,0,P|21:252|69:349,1,192,6|2,3:2|3:2,0:0:0:0:
151,302,127531,1,2,3:2:0:0:
232,353,127847,2,0,P|282:354|335:369,2,96,0|2|2,3:0|3:2|3:2,0:0:0:0:
284,261,128794,1,2,3:2:0:0:
307,167,129110,6,0,B|305:110|305:110|293:78|293:78|292:8,2,144,6|6|6,3:2|3:2|3:2,0:0:0:0:
307,167,131794,6,0,P|323:121|352:64,1,96,6|8,3:2|0:0,0:0:0:0:
439,89,132426,1,8,0:0:0:0:
497,165,132742,2,0,P|513:233|511:323,1,144,6|10,3:2|0:0,0:0:0:0:
431,357,133531,2,0,P|416:343|386:326,1,48,2|2,3:2|3:2,0:0:0:0:
311,276,134005,6,0,P|233:329|107:331,1,192,6|2,3:2|3:2,0:0:0:0:
78,262,134952,1,2,0:0:0:0:
163,218,135268,2,0,B|188:140|188:140|146:58,1,144,6|10,3:2|0:0,0:0:0:0:
67,57,136057,1,2,3:2:0:0:
26,143,136373,1,8,0:0:0:0:
60,232,136689,6,0,P|49:284|3:326,2,96,6|8|2,3:2|0:0|3:2,0:0:0:0:
210,181,137794,2,0,P|256:183|326:205,1,96,2|0,3:2|3:0,0:0:0:0:
347,281,138426,1,2,3:2:0:0:
436,315,138742,1,2,3:2:0:0:
486,234,139057,6,0,P|487:172|474:79,1,144,6|10,3:2|0:0,0:0:0:0:
398,34,139847,1,10,0:0:0:0:
309,71,140163,2,0,B|257:145|257:145|299:237,1,192,2|2,3:2|3:2,0:0:0:0:
331,327,141110,2,0,L|305:375,1,48,2|2,3:2|3:2,0:0:0:0:
212,358,141584,5,6,3:2:0:0:
139,295,141899,2,0,L|150:139,1,144,10|10,0:0|0:0,0:0:0:0:
266,67,142847,2,0,L|317:214,1,144,14|10,0:0|0:0,0:0:0:0:
398,246,143636,2,0,L|451:257,1,48,2|2,3:2|3:2,0:0:0:0:
478,346,144110,6,0,L|278:372,1,192,6|2,3:2|3:2,0:0:0:0:
240,287,145057,1,2,0:0:0:0:
322,237,145373,2,0,P|341:192|341:144,1,96,2|10,3:2|0:0,0:0:0:0:
304,56,146005,1,6,3:2:0:0:
213,24,146320,1,10,0:0:0:0:
119,46,146636,6,0,P|67:114|54:189,1,144,6|2,3:2|0:0,0:0:0:0:
107,249,147426,1,8,0:0:0:0:
240,163,147899,2,0,P|342:129|471:189,1,240,2|10,0:0|0:0,0:0:0:0:
491,267,149005,1,2,0:0:0:0:
430,341,149320,2,0,B|378:359|378:359|323:342,2,96,2|10|10,0:0|0:0|0:0,0:0:0:0:
376,260,150268,1,2,3:2:0:0:
435,184,150584,5,6,3:2:0:0:
435,184,152005,2,0,B|357:322|357:322|221:183|221:183|371:120,1,499.2,6|0,0:0|0:0,0:0:0:0:
346,79,154215,5,6,3:2:0:0:
159,29,154847,2,0,P|113:32|35:57,1,96,2|10,3:2|0:0,0:0:0:0:
28,133,155478,2,0,P|77:181|116:304,1,192,6|2,3:2|3:2,0:0:0:0:
189,358,156426,1,10,0:0:0:0:
262,296,156742,6,0,B|326:268|326:268|418:296,1,144,6|2,3:2|0:0,0:0:0:0:
466,223,157531,2,0,P|457:157|474:57,1,144,2|2,0:0|3:2,0:0:0:0:
466,80,159268,6,0,B|408:25|408:25|330:55,1,144,6|8,3:2|0:0,0:0:0:0:
321,140,160057,1,2,3:2:0:0:
244,278,160531,2,0,P|189:310|78:301,1,144,10|8,0:0|0:0,0:0:0:0:
38,249,161320,2,0,P|31:216|34:189,1,48,2|0,3:2|3:0,0:0:0:0:
116,156,161794,6,0,P|123:91|166:15,1,144,10|8,0:0|0:0,0:0:0:0:
247,62,162584,1,2,3:2:0:0:
322,200,163057,2,0,B|395:211|395:211|469:175,1,144,10|8,0:0|0:0,0:0:0:0:
507,97,163847,1,2,3:2:0:0:
441,26,164163,1,8,0:0:0:0:
350,56,164478,6,0,P|307:46|258:6,2,96,6|8|2,3:2|0:0|3:2,0:0:0:0:
418,199,165584,2,0,P|374:247|338:350,1,144,10|10,0:0|0:0,0:0:0:0:
259,365,166373,1,2,3:2:0:0:
104,329,166847,6,0,B|78:265|78:265|106:190,1,144,10|10,0:0|0:0,0:0:0:0:
184,141,167636,1,2,3:2:0:0:
249,211,167952,1,10,0:0:0:0:
335,252,168268,2,0,P|411:221|449:170,1,144,14|6,0:0|3:2,0:0:0:0:
429,78,169057,1,2,3:2:0:0:
280,23,169531,6,0,P|223:72|233:200,1,192,14|10,0:0|0:0,0:0:0:0:
289,250,170478,1,10,0:0:0:0:
289,346,170794,1,8,0:0:0:0:
196,373,171110,2,0,P|150:354|107:321,2,96,8|8|10,0:0|0:0|0:0,0:0:0:0:
289,346,172057,6,0,B|333:324|333:324|394:324,1,96,10|10,0:0|0:0,0:0:0:0:
407,231,172689,2,0,B|422:184|422:184|465:141,1,96,8|10,0:0|0:0,0:0:0:0:
407,68,173320,1,8,0:0:0:0:
321,24,173636,2,0,L|218:6,2,96,8|8|10,0:0|0:0|0:0,0:0:0:0:
275,113,174584,6,0,P|279:197|314:341,1,192,6|10,3:2|0:0,0:0:0:0:
383,351,175531,1,10,0:0:0:0:
466,306,175847,2,0,P|486:212|491:116,1,192,10|10,0:0|0:0,0:0:0:0:
347,182,176952,6,0,P|258:203|113:164,1,240,6|8,3:2|0:0,0:0:0:0:
64,85,178057,1,2,3:2:0:0:
148,38,178373,2,0,B|221:25|221:25|291:50,2,144,6|2|0,0:0|3:2|3:0,0:0:0:0:
64,85,179636,5,4,0:0:0:0:
39,210,199847,6,0,P|130:182|232:183,1,192,4|2,3:2|3:2,0:0:0:0:
290,253,200794,1,2,3:2:0:0:
358,320,201110,2,0,P|442:290|440:186,1,192,2|2,3:2|3:2,0:0:0:0:
331,45,202373,6,0,P|240:47|127:57,1,192,2|2,3:2|3:2,0:0:0:0:
72,124,203320,1,0,3:0:0:0:
115,209,203636,2,0,P|206:207|319:197,1,192,2|2,3:2|3:2,0:0:0:0:
381,260,204584,1,2,3:2:0:0:
328,340,204899,6,0,P|285:358|230:366,2,96,2|2|2,3:2|3:2|3:2,0:0:0:0:
302,149,206163,2,0,P|200:179|131:232,1,192,2|2,3:2|3:2,0:0:0:0:
73,305,207110,1,0,3:0:0:0:
11,231,207426,6,0,P|3:182|12:126,2,96,2|2|2,3:2|3:2|3:2,0:0:0:0:
73,305,208373,1,2,3:2:0:0:
257,358,209005,2,0,B|335:364|335:364|394:316,1,144,2|8,3:2|0:0,0:0:0:0:
450,177,209952,5,4,3:2:0:0:
396,97,210268,2,0,P|423:53|467:23,2,96,2|2|2,3:2|3:2|3:2,0:0:0:0:
309,55,211215,1,0,3:0:0:0:
113,76,211847,2,0,P|97:119|86:184,1,96,2|0,3:2|3:0,0:0:0:0:
180,193,212478,6,0,P|166:283|112:386,1,192,2|2,3:2|3:2,0:0:0:0:
31,338,213426,1,0,3:0:0:0:
17,241,213742,2,0,P|24:195|38:140,1,96,2|0,3:2|3:0,0:0:0:0:
124,109,214373,1,8,0:0:0:0:
183,255,214847,6,0,B|247:293|247:293|310:263,1,144,6|8,3:2|0:0,0:0:0:0:
354,178,215636,1,10,0:0:0:0:
312,88,215952,1,8,0:0:0:0:
382,23,216268,2,0,B|434:18|434:18|481:51,1,96,0|8,0:0|0:0,0:0:0:0:
504,132,216899,2,0,B|509:184|509:184|476:231,1,96
387,216,217531,6,0,P|300:247|217:318,1,192,0|10,0:0|0:0,0:0:0:0:
141,359,218478,1,0,3:0:0:0:
64,300,218794,5,6,3:2:0:0:
64,300,220215,2,0,P|123:203|128:67,1,240,2|0,0:0|0:0,0:0:0:0:
415,34,221952,6,0,L|480:53,1,48,2|2,3:2|3:2,0:0:0:0:
497,309,222899,5,2,3:2:0:0:
419,365,223215,1,2,3:2:0:0:
284,281,223689,6,0,P|225:257|122:246,1,144,6|8,3:2|0:0,0:0:0:0:
73,309,224478,1,10,0:0:0:0:
7,238,224794,1,8,0:0:0:0:
57,156,225110,6,0,P|71:106|72:49,2,96,6|8|2,3:2|0:0|3:2,0:0:0:0:
180,255,226215,2,0,P|222:290|240:341,1,96,2|2,3:2|3:2,0:0:0:0:
324,370,226847,1,2,3:2:0:0:
402,315,227163,1,2,3:2:0:0:
345,237,227478,6,0,P|323:175|336:93,1,144,6|10,3:2|0:0,0:0:0:0:
414,47,228268,1,10,0:0:0:0:
484,111,228584,2,0,B|503:206|503:206|471:307,1,192,2|2,3:2|3:2,0:0:0:0:
389,341,229531,2,0,L|328:351,1,48,2|2,3:2|3:2,0:0:0:0:
257,301,230005,5,6,3:2:0:0:
172,345,230320,2,0,L|7:380,1,144,2|2,3:2|3:2,0:0:0:0:
38,215,231268,2,0,L|203:180,1,144,6|8,3:2|0:0,0:0:0:0:
259,237,232057,2,0,L|266:292,1,48,2|2,3:2|3:2,0:0:0:0:
325,359,232531,6,0,P|422:354|469:262,1,192,6|2,3:2|3:2,0:0:0:0:
408,204,233478,1,2,0:0:0:0:
460,123,233794,2,0,B|471:77|471:77|438:18,1,96,2|10,3:2|0:0,0:0:0:0:
358,72,234426,1,6,3:2:0:0:
269,35,234742,1,10,0:0:0:0:
233,124,235057,6,0,B|182:168|182:168|79:173,1,144,6|2,3:2|0:0,0:0:0:0:
67,83,235847,1,8,0:0:0:0:
214,24,236320,2,0,P|353:25|458:54,1,240,2|10,0:0|0:0,0:0:0:0:
498,137,237426,1,2,0:0:0:0:
435,210,237742,2,0,B|417:255|417:255|444:320,2,96,2|10|8,0:0|0:0|0:0,0:0:0:0:
361,149,238689,1,2,3:2:0:0:
284,206,239005,5,0,3:0:0:0:
284,206,240268,2,0,B|159:140|159:140|48:358|48:358|350:291,1,691.2,2|8,0:0|0:0,0:0:0:0:
400,212,243425,6,0,B|444:226|444:226|486:274,2,96,6|8|2,3:2|0:0|3:2,0:0:0:0:
286,100,244530,2,0,P|214:106|125:163,1,144,2|10,0:0|0:0,0:0:0:0:
100,220,245319,1,2,3:2:0:0:
183,266,245635,1,8,0:0:0:0:
225,351,245951,6,0,P|276:362|342:355,2,96,2|10|2,3:2|0:0|3:2,0:0:0:0:
288,205,247056,2,0,P|390:173|477:215,1,192,6|6,3:2|3:2,0:0:0:0:
498,294,248003,1,2,0:0:0:0:
431,363,248319,6,0,B|358:372|358:372|315:290,1,144,6|10,3:2|0:0,0:0:0:0:
300,216,249109,1,2,3:2:0:0:
411,104,249582,2,0,P|370:34|295:3,1,144,2|8,0:0|0:0,0:0:0:0:
255,81,250372,1,2,3:2:0:0:
161,102,250688,1,10,0:0:0:0:
87,40,251003,6,0,P|27:77|29:156,2,144,6|6|6,3:2|3:2|3:2,0:0:0:0:
215,132,252425,2,0,P|210:201|151:236,1,144,6|6,3:2|3:2,0:0:0:0:
76,297,253214,1,8,0:0:0:0:
145,362,253530,6,0,P|192:367|231:353,1,72,2|2,3:2|3:2,0:0:0:0:
