osu file format v14

[General]
AudioFilename: audio.mp3
AudioLeadIn: 0
PreviewTime: 152307
Countdown: 0
SampleSet: Soft
StackLeniency: 0.7
Mode: 0
LetterboxInBreaks: 0
WidescreenStoryboard: 1

[Editor]
Bookmarks: 15550,30550,115862,142112,153362,164612,178675,201175,246175,249925
DistanceSpacing: 1.1
BeatDivisor: 4
GridSize: 32
TimelineZoom: 1.6

[Metadata]
Title:Kyouzou no Canon
TitleUnicode:鏡像のカノン
Artist:La priere
ArtistUnicode:La prière
Creator:-Aqua
Version:Hard
Source:
Tags:Gemini Syndrome 1st アルバム Album 棗いつき Natsume Itsuki 藍月なくる Aitsuki Nakuru nayuta Japanese Pop Jpop J-pop Full Version Idols Kyōzō Kyozo らぷりえーる なゆた sky_delta ラプリエール
BeatmapID:3040027
BeatmapSetID:1475603

[Difficulty]
HPDrainRate:5
CircleSize:3.7
OverallDifficulty:6
ApproachRate:7
SliderMultiplier:1.4
SliderTickRate:1

[Events]
//Background and Video events
0,0,"bg.jpg",0,0
//Break Periods
//Storyboard Layer 0 (Background)
//Storyboard Layer 1 (Fail)
//Storyboard Layer 2 (Pass)
//Storyboard Layer 3 (Foreground)
//Storyboard Layer 4 (Overlay)
//Storyboard Sound Samples

[TimingPoints]
550,468.75,4,2,1,45,1,0
550,-117.647058823529,4,2,1,45,0,0
8050,-117.647058823529,4,2,1,45,0,0
9456,-117.647058823529,4,2,1,45,0,0
10628,-117.647058823529,4,2,1,15,0,0
10862,-117.647058823529,4,2,1,45,0,0
11800,-117.647058823529,4,2,1,45,0,0
12503,-117.647058823529,4,2,1,45,0,0
13206,-117.647058823529,4,2,1,45,0,0
14495,-117.647058823529,4,2,1,5,0,0
14612,-117.647058823529,4,2,1,45,0,0
15550,-117.647058823529,4,2,1,55,0,0
40862,-117.647058823529,4,2,1,55,0,0
41800,-117.647058823529,4,2,1,55,0,0
43089,-117.647058823529,4,2,1,5,0,0
43206,-117.647058823529,4,2,1,55,0,0
44612,-117.647058823529,4,2,1,55,0,0
44671,-117.647058823529,4,2,1,40,0,0
45550,468.75,6,2,1,70,1,0
45550,-117.647058823529,4,2,1,60,0,0
68050,-100,4,2,1,75,0,1
90550,-111.111111111111,4,2,1,45,0,0
93362,468.75,4,2,1,55,1,0
93362,-117.647058823529,4,2,1,55,0,0
100862,-111.111111111111,4,2,1,60,0,0
101448,-111.111111111111,4,2,1,5,0,0
101565,-111.111111111111,4,2,1,60,0,0
108948,-111.111111111111,4,2,1,5,0,0
109065,-111.111111111111,4,2,1,60,0,0
116448,-111.111111111111,4,2,1,5,0,0
116565,-111.111111111111,4,2,1,60,0,0
126175,-111.111111111111,4,2,1,60,0,0
126878,-111.111111111111,4,2,1,60,0,0
128401,-111.111111111111,4,2,1,5,0,0
128518,-111.111111111111,4,2,1,60,0,0
129925,-111.111111111111,4,2,1,60,0,0
130862,468.75,6,2,1,70,1,0
130862,-111.111111111111,6,2,1,60,0,0
142112,-111.111111111111,6,2,1,70,0,0
153362,-90.9090909090909,6,2,1,85,0,1
164494,-90.9090909090909,6,2,1,85,0,0
164612,-90.9090909090909,6,2,1,85,0,1
175862,-111.111111111111,6,2,1,85,0,0
177268,-111.111111111111,6,2,1,60,0,0
177737,-111.111111111111,6,2,1,70,0,0
178206,-111.111111111111,6,2,1,80,0,0
178675,-100,6,2,1,70,0,0
203050,-100,6,2,1,70,0,0
203987,-111.111111111111,6,2,1,60,0,0
215237,-86.9565217391304,6,2,1,95,0,1
226369,-86.9565217391304,6,2,1,95,0,0
226487,-86.9565217391304,6,2,1,95,0,1
237737,-111.111111111111,6,2,1,95,0,0
239143,-111.111111111111,6,2,1,65,0,0
241253,-111.111111111111,6,2,1,50,0,0
246175,-111.111111111111,6,2,1,35,0,0
248050,-111.111111111111,6,2,1,15,0,0
249925,-111.111111111111,6,2,1,5,0,0

[Colours]
Combo1 : 168,168,255
Combo2 : 255,168,255
Combo3 : 255,255,168

[HitObjects]
77,347,550,6,0,P|115:352|151:367,2,59.5000011348725,2|0|0,0:0|0:0|0:0,0:0:0:0:
0,291,1253,2,0,P|50:302|88:242,1,119.000002269745,2|0,0:0|0:0,0:0:0:0:
174,217,1956,1,2,0:0:0:0:
285,309,2425,5,0,0:0:0:0:
358,376,2659,2,0,P|425:353|491:340,1,119.000002269745,2|0,0:0|0:0,0:0:0:0:
471,342,3362,1,2,0:0:0:0:
291,155,4300,6,0,P|325:166|360:171,2,59.5000011348725,2|0|0,0:0|0:0|0:0,0:0:0:0:
250,237,5003,2,0,B|177:248|219:278|122:282,1,119.000002269745,2|0,0:0|0:0,0:0:0:0:
71,226,5706,2,0,P|30:186|47:133,1,119.000002269745,2|0,0:0|0:0,0:0:0:0:
107,65,6409,5,2,0:0:0:0:
263,110,6878,1,0,0:0:0:0:
263,110,7112,1,2,0:0:0:0:
180,205,8050,6,0,P|169:293|154:384,1,178.500003404617,2|2,0:0|0:0,0:0:0:0:
378,119,9456,6,0,B|361:94|325:83|325:83|374:76|448:115|403:166|466:214|531:186,1,297.500005674362,2|0,0:0|0:0,0:0:0:0:
512,191,10862,1,2,0:0:0:0:
475,312,11096,2,0,P|427:270|373:295,1,119.000002269745,2|0,0:0|0:0,0:0:0:0:
271,208,11800,6,0,B|199:216|239:246|146:254,1,119.000002269745,2|0,0:0|0:0,0:0:0:0:
100,329,12503,2,0,P|44:280|59:238,1,119.000002269745,0|0,0:0|0:0,0:0:0:0:
125,134,13206,5,2,0:0:0:0:
125,134,14612,6,0,P|108:88|93:53,1,59.5000011348725,0|0,0:0|0:0,0:0:0:0:
187,0,15081,2,0,P|204:46|219:81,1,59.5000011348725,0|0,0:0|0:0,0:0:0:0:
332,83,15550,6,0,P|386:60|444:43,1,119.000002269745,2|0,0:0|0:0,0:0:0:0:
444,43,16253,1,2,0:0:0:0:
512,141,16487,2,0,P|454:157|399:180,1,119.000002269745,2|0,0:0|0:0,0:0:0:0:
368,266,17190,1,2,0:0:0:0:
324,366,17425,5,2,0:0:0:0:
237,347,17659,2,0,P|178:302|206:250,1,119.000002269745,2|0,0:0|0:0,0:0:0:0:
100,196,18362,2,0,P|100:252|49:275,1,119.000002269745,2|0,0:0|0:0,0:0:0:0:
48,274,19065,1,0,0:0:0:0:
0,192,19300,6,0,P|8:157|29:48,1,119.000002269745,2|0,0:0|0:0,0:0:0:0:
109,44,20003,2,0,B|193:58|141:86|239:92,1,119.000002269745,2|0,0:0|0:0,0:0:0:0:
256,184,20706,1,2,0:0:0:0:
193,318,21175,5,0,0:0:0:0:
265,380,21409,2,0,P|323:364|393:349,1,119.000002269745,2|0,0:0|0:0,0:0:0:0:
503,275,22112,2,0,P|444:291|405:235,1,119.000002269745,2|0,0:0|0:0,0:0:0:0:
439,172,22815,1,0,0:0:0:0:
362,123,23050,6,0,P|300:144|229:165,1,119.000002269745,2|0,0:0|0:0,0:0:0:0:
195,245,23753,2,0,P|133:224|62:203,1,119.000002269745,2|0,0:0|0:0,0:0:0:0:
31,113,24456,2,0,B|33:53|33:53|101:18,1,119.000002269745,2|0,0:0|0:0,0:0:0:0:
173,69,25159,1,2,0:0:0:0:
321,19,25628,5,0,0:0:0:0:
384,88,25862,2,0,P|368:144|352:221,1,119.000002269745,2|0,0:0|0:0,0:0:0:0:
355,203,26565,1,0,0:0:0:0:
280,260,26800,6,0,P|288:302|370:305,1,119.000002269745,2|0,0:0|0:0,0:0:0:0:
435,374,27503,2,0,P|491:369|510:316,1,119.000002269745,2|0,0:0|0:0,0:0:0:0:
448,249,28206,1,2,0:0:0:0:
512,114,28675,5,0,0:0:0:0:
437,50,28909,2,0,B|387:62|387:62|372:81|372:81|322:95,1,119.000002269745,2|0,0:0|0:0,0:0:0:0:
292,221,29612,2,0,P|262:227|234:235,1,59.5000011348725,2|0,0:0|0:0,0:0:0:0:
161,179,30081,2,0,P|132:187|103:193,1,59.5000011348725,0|0,0:0|0:0,0:0:0:0:
63,285,30550,6,0,B|39:341|39:341|88:395,1,119.000002269745,2|0,0:0|0:0,0:0:0:0:
161,338,31253,1,2,0:0:0:0:
236,384,31487,2,0,P|289:358|348:342,1,119.000002269745,2|0,0:0|0:0,0:0:0:0:
373,254,32190,1,2,0:0:0:0:
373,254,32425,5,2,0:0:0:0:
463,287,32659,2,0,P|515:242|496:177,1,119.000002269745,2|0,0:0|0:0,0:0:0:0:
438,115,33362,2,0,P|386:129|310:145,1,119.000002269745,2|0,0:0|0:0,0:0:0:0:
263,215,34065,1,0,0:0:0:0:
300,315,34300,6,0,P|248:300|172:284,1,119.000002269745,2|0,0:0|0:0,0:0:0:0:
104,339,35003,2,0,P|60:308|82:235,1,119.000002269745,2|0,0:0|0:0,0:0:0:0:
1,176,35706,1,2,0:0:0:0:
128,100,36175,5,0,0:0:0:0:
50,32,36409,2,0,P|108:18|169:-3,1,119.000002269745,2|0,0:0|0:0,0:0:0:0:
232,81,37112,2,0,P|290:94|351:116,1,119.000002269745,2|0,0:0|0:0,0:0:0:0:
413,49,37815,1,0,0:0:0:0:
413,49,38050,6,0,P|463:95|441:152,1,119.000002269745,2|2,0:0|0:0,0:0:0:0:
364,246,38987,1,2,0:0:0:0:
463,315,39456,1,2,0:0:0:0:
463,315,40628,5,0,0:0:0:0:
396,384,40862,2,0,P|354:373|316:369,1,59.5000011348725,2|0,0:0|0:0,0:0:0:0:
205,295,41565,1,0,0:0:0:0:
205,295,41800,6,0,P|163:334|108:320,1,119.000002269745,2|2,0:0|0:0,0:0:0:0:
57,201,42737,2,0,P|25:210|-3:215,1,59.5000011348725,2|0,0:0|0:0,0:0:0:0:
131,136,43206,6,0,P|218:158|324:174,1,178.500003404617,2|0,0:0|0:0,0:0:0:0:
358,321,44378,1,0,0:0:0:0:
358,321,44495,1,0,0:0:0:0:
358,321,44612,2,0,L|407:308,7,29.7500005674362,2|0|0|0|0|0|0|0,0:0|0:0|0:0|0:0|0:0|0:0|0:0|0:0,0:0:0:0:
404,280,45550,5,2,0:0:0:0:
512,188,46018,2,0,P|493:143|488:106,1,59.5000011348725,2|2,0:0|0:0,0:0:0:0:
490,132,46487,1,2,0:0:0:0:
421,78,46721,1,0,0:0:0:0:
488,18,46956,6,0,P|434:34|380:-16,1,119.000002269745,2|2,0:0|0:0,0:0:0:0:
242,150,47893,1,2,0:0:0:0:
345,260,48362,2,0,P|377:235|463:246,2,119.000002269745,2|2|2,0:0|0:0|0:0,0:0:0:0:
274,351,49768,6,0,P|216:365|160:384,1,119.000002269745,2|2,0:0|0:0,0:0:0:0:
160,384,50706,1,2,0:0:0:0:
42,269,51175,5,2,0:0:0:0:
177,173,51643,1,2,0:0:0:0:
110,121,51878,2,0,L|135:258,1,119.000002269745,0|0,0:0|0:0,0:0:0:0:
229,270,52581,2,0,P|270:310|327:303,1,119.000002269745,2|0,0:0|0:0,0:0:0:0:
339,214,53284,5,2,0:0:0:0:
426,208,53518,2,0,P|454:220|508:234,1,59.5000011348725,0|0,0:0|0:0,0:0:0:0:
373,96,53987,2,0,B|324:79|290:117|290:117|274:164|221:166,1,178.500003404617,2|2,0:0|0:0,0:0:0:0:
125,285,55159,5,0,0:0:0:0:
37,247,55393,2,0,B|12:199|12:199|53:132,1,119.000002269745,2|0,0:0|0:0,0:0:0:0:
126,89,56096,2,0,B|201:100|156:133|248:144,1,119.000002269745,2|0,0:0|0:0,0:0:0:0:
324,249,56800,6,0,P|395:225|440:214,1,119.000002269745,2|2,0:0|0:0,0:0:0:0:
498,144,57503,2,0,P|481:94|473:62,1,59.5000011348725,2|2,0:0|0:0,0:0:0:0:
397,42,57971,1,0,0:0:0:0:
338,117,58206,6,0,P|279:121|248:176,1,119.000002269745,2|2,0:0|0:0,0:0:0:0:
375,277,59143,1,2,0:0:0:0:
214,352,59612,2,0,P|278:366|333:386,2,119.000002269745,2|2|2,0:0|0:0|0:0,0:0:0:0:
75,384,61018,6,0,P|35:341|61:273,1,119.000002269745,2|2,0:0|0:0,0:0:0:0:
46,286,61956,1,2,0:0:0:0:
189,203,62425,5,2,0:0:0:0:
69,100,62893,2,0,B|116:101|135:58|135:58|170:15|233:41,1,178.500003404617,2|0,0:0|0:0,0:0:0:0:
280,102,63831,1,2,0:0:0:0:
443,56,64300,6,0,P|432:93|424:131,1,59.5000011348725,2|0,0:0|0:0,0:0:0:0:
479,185,64768,1,0,0:0:0:0:
325,209,65237,2,0,P|266:243|270:297,1,119.000002269745,2|2,0:0|0:0,0:0:0:0:
328,355,65940,1,0,0:0:0:0:
198,384,66175,6,0,P|154:372|111:362,1,89.2500017023087,2|0,0:0|0:0,0:0:0:0:
100,341,66643,1,2,0:0:0:0:
242,213,67112,5,0,0:0:0:0:
242,213,67346,1,0,0:0:0:0:
166,152,67581,2,0,P|127:165|94:172,1,59.5000011348725,0|0,0:0|0:0,0:0:0:0:
55,243,68050,6,0,P|-5:210|24:127,1,140,2|0,0:0|0:0,0:0:0:0:
0,146,68753,1,0,0:0:0:0:
81,76,68987,2,0,P|128:91|177:101,1,70,0|0,0:0|0:0,0:0:0:0:
206,227,69456,6,0,B|251:220|277:245|277:245|294:284|336:283,1,140,2|2,0:0|0:0,0:0:0:0:
390,219,70159,1,0,0:0:0:0:
461,284,70393,1,2,0:0:0:0:
461,284,70628,1,2,0:0:0:0:
512,207,70862,2,0,P|492:147|464:51,1,140,2|2,0:0|0:0,0:0:0:0:
470,73,71565,1,0,0:0:0:0:
344,9,71800,6,0,P|338:42|314:95,1,70,2|0,0:0|0:0,0:0:0:0:
227,120,72268,2,0,P|212:184|267:221,1,140,2|2,0:0|0:0,0:0:0:0:
375,337,73206,1,2,0:0:0:0:
375,337,73440,1,0,0:0:0:0:
293,384,73675,6,0,P|257:367|209:353,1,70,2|0,0:0|0:0,0:0:0:0:
129,273,74143,2,0,B|47:278|93:317|-4:329,1,140,2|0,0:0|0:0,0:0:0:0:
4,327,74846,1,0,0:0:0:0:
70,196,75081,6,0,P|118:150|180:176,1,140,2|2,0:0|0:0,0:0:0:0:
229,249,75784,1,0,0:0:0:0:
282,317,76018,2,0,P|329:332|375:352,1,70,0|2,0:0|0:0,0:0:0:0:
429,294,76487,2,0,B|474:255|474:255|468:160,1,140,2|0,0:0|0:0,0:0:0:0:
469,174,77190,1,2,0:0:0:0:
392,111,77425,5,0,0:0:0:0:
468,15,77659,1,2,0:0:0:0:
392,111,77893,2,0,B|346:96|320:122|320:122|301:153|248:148,1,140,2|2,0:0|0:0,0:0:0:0:
176,105,78596,1,2,0:0:0:0:
106,164,78831,2,0,P|121:210|122:249,1,70,0|0,0:0|0:0,0:0:0:0:
240,319,79300,6,0,P|254:238|283:155,1,140,2|0,0:0|0:0,0:0:0:0:
271,183,80003,1,0,0:0:0:0:
199,126,80237,2,0,P|177:103|179:58,1,70,0|0,0:0|0:0,0:0:0:0:
293,24,80706,6,0,P|367:11|436:0,1,140,2|2,0:0|0:0,0:0:0:0:
402,105,81409,1,0,0:0:0:0:
498,135,81643,1,2,0:0:0:0:
498,135,81878,1,2,0:0:0:0:
463,229,82112,2,0,P|482:296|504:362,1,140,2|2,0:0|0:0,0:0:0:0:
504,362,82815,1,0,0:0:0:0:
375,346,83050,6,0,P|362:308|350:275,1,70,2|0,0:0|0:0,0:0:0:0:
261,227,83518,2,0,P|196:212|159:267,1,140,2|2,0:0|0:0,0:0:0:0:
333,123,84456,1,2,0:0:0:0:
333,123,84690,1,0,0:0:0:0:
278,29,84925,6,0,P|244:18|213:2,1,70,2|0,0:0|0:0,0:0:0:0:
137,75,85393,2,0,B|55:80|101:119|4:131,1,140,2|0,0:0|0:0,0:0:0:0:
12,129,86096,1,0,0:0:0:0:
137,210,86331,6,0,B|198:250|198:250|181:314,1,140,2|2,0:0|0:0,0:0:0:0:
180,314,87034,1,0,0:0:0:0:
245,254,87268,2,0,P|284:260|304:292,1,70,2|0,0:0|0:0,0:0:0:0:
360,364,87737,2,0,P|399:358|419:326,1,70,2|2,0:0|0:0,0:0:0:0:
497,236,88206,6,0,P|468:178|435:96,1,140,2|0,0:0|0:0,0:0:0:0:
459,18,88909,1,2,0:0:0:0:
357,0,89143,2,0,P|309:27|349:117,1,140,2|2,0:0|0:0,0:0:0:0:
318,102,89846,1,2,0:0:0:0:
253,179,90081,2,0,P|207:164|168:163,1,70,0|0,0:0|0:0,0:0:0:0:
132,91,90550,5,2,0:0:0:0:
26,284,91721,1,0,0:0:0:0:
26,284,91956,2,0,P|86:266|148:258,2,125.999996154785,2|0|0,0:0|0:0|0:0,0:0:0:0:
171,372,93362,6,0,P|200:375|228:383,2,59.5000011348725,2|0|0,0:0|0:0|0:0,0:0:0:0:
254,300,94065,2,0,B|314:290|314:290|361:336,1,119.000002269745,2|0,0:0|0:0,0:0:0:0:
355,330,94768,1,2,0:0:0:0:
504,384,95237,5,0,0:0:0:0:
458,322,95471,2,0,P|481:255|494:189,1,119.000002269745,2|0,0:0|0:0,0:0:0:0:
491,208,96174,1,2,0:0:0:0:
312,130,97112,6,0,P|308:103|296:73,2,59.5000011348725,2|0|0,0:0|0:0|0:0,0:0:0:0:
321,214,97815,2,0,P|288:167|231:172,1,119.000002269745,2|0,0:0|0:0,0:0:0:0:
188,270,98518,2,0,P|148:311|95:294,1,119.000002269745,2|0,0:0|0:0,0:0:0:0:
32,210,99221,1,2,0:0:0:0:
135,103,99690,1,0,0:0:0:0:
135,103,99925,6,0,P|177:93|216:81,1,59.5000011348725,2|0,0:0|0:0,0:0:0:0:
231,172,100393,2,0,P|273:182|312:194,1,59.5000011348725,0|0,0:0|0:0,0:0:0:0:
368,125,100862,6,0,P|359:94|352:63,1,62.9999980773926,2|0,0:0|0:0,0:0:0:0:
480,184,101331,1,0,0:0:0:0:
440,271,101565,1,2,0:0:0:0:
440,271,101799,6,0,P|376:258|311:249,1,125.999996154785,2|0,0:0|0:0,0:0:0:0:
271,174,102502,1,2,0:0:0:0:
271,174,102737,1,2,0:0:0:0:
217,60,102971,2,0,P|145:57|126:106,1,125.999996154785,2|0,0:0|0:0,0:0:0:0:
34,152,103675,2,0,P|92:140|125:190,1,125.999996154785,2|0,0:0|0:0,0:0:0:0:
125,190,104377,1,0,0:0:0:0:
69,261,104612,6,0,P|56:325|42:389,1,125.999996154785,2|0,0:0|0:0,0:0:0:0:
163,384,105315,2,0,P|175:319|189:255,1,125.999996154785,2|0,0:0|0:0,0:0:0:0:
261,205,106018,1,2,0:0:0:0:
344,306,106487,5,0,0:0:0:0:
397,371,106721,2,0,P|455:355|525:340,1,125.999996154785,2|0,0:0|0:0,0:0:0:0:
512,243,107424,2,0,P|464:199|410:216,1,125.999996154785,2|0,0:0|0:0,0:0:0:0:
411,215,108127,1,0,0:0:0:0:
344,144,108362,6,0,P|306:156|264:169,1,62.9999980773926,2|0,0:0|0:0,0:0:0:0:
208,283,108831,1,0,0:0:0:0:
208,283,109065,2,0,P|146:262|75:241,1,125.999996154785,2|0,0:0|0:0,0:0:0:0:
13,177,109768,2,0,P|68:194|122:133,1,125.999996154785,2|0,0:0|0:0,0:0:0:0:
214,85,110471,6,0,P|187:43|137:44,1,104.999996795654,2|0,0:0|0:0,0:0:0:0:
146,23,111174,2,0,P|192:20|222:79,1,104.999996795654
334,169,111877,5,0,0:0:0:0:
388,107,112112,2,0,P|447:125|521:140,1,125.999996154785,2|0,0:0|0:0,0:0:0:0:
479,246,112815,2,0,P|417:258|357:277,1,125.999996154785,2|0,0:0|0:0,0:0:0:0:
357,277,113518,1,2,0:0:0:0:
254,174,113987,5,0,0:0:0:0:
190,233,114221,2,0,P|129:237|92:189,1,125.999996154785,2|0,0:0|0:0,0:0:0:0:
16,128,114924,6,0,P|24:97|30:66,1,62.9999980773926,2|0,0:0|0:0,0:0:0:0:
123,13,115393,2,0,P|129:43|137:74,1,62.9999980773926,0|0,0:0|0:0,0:0:0:0:
226,130,115862,6,0,P|217:160|211:191,1,62.9999980773926,2|0,0:0|0:0,0:0:0:0:
105,279,116331,1,0,0:0:0:0:
166,346,116565,1,2,0:0:0:0:
166,346,116799,6,0,B|253:348|205:378|290:381,1,125.999996154785,2|0,0:0|0:0,0:0:0:0:
337,314,117502,1,2,0:0:0:0:
337,314,117737,1,2,0:0:0:0:
442,374,117971,2,0,B|480:333|480:333|460:261,1,125.999996154785,2|0,0:0|0:0,0:0:0:0:
354,228,118675,2,0,B|316:187|316:187|336:115,1,125.999996154785,2|0,0:0|0:0,0:0:0:0:
334,119,119377,1,0,0:0:0:0:
398,52,119612,6,0,P|357:13|267:34,1,125.999996154785,2|0,0:0|0:0,0:0:0:0:
214,97,120315,2,0,P|227:162|239:235,1,125.999996154785,2|0,0:0|0:0,0:0:0:0:
324,262,121018,1,2,0:0:0:0:
173,348,121487,1,0,0:0:0:0:
173,348,121721,2,0,P|111:343|65:384,1,125.999996154785,2|0,0:0|0:0,0:0:0:0:
0,313,122425,2,0,P|12:251|22:189,1,125.999996154785,2|0,0:0|0:0,0:0:0:0:
22,189,123128,1,0,0:0:0:0:
146,131,123362,6,0,P|184:143|227:152,1,62.9999980773926,2|0,0:0|0:0,0:0:0:0:
256,234,123831,2,0,P|294:222|337:213,1,62.9999980773926,2|0,0:0|0:0,0:0:0:0:
344,137,124300,1,2,0:0:0:0:
483,241,124768,1,2,0:0:0:0:
483,241,125003,2,0,P|527:201|505:136,1,125.999996154785,0|0,0:0|0:0,0:0:0:0:
442,76,125706,2,0,P|454:41|465:5,1,62.9999980773926,0|0,0:0|0:0,0:0:0:0:
335,69,126175,6,0,P|324:98|315:128,1,62.9999980773926,2|0,0:0|0:0,0:0:0:0:
375,272,126877,1,0,0:0:0:0:
293,242,127112,2,0,B|208:246|253:274|170:280,1,125.999996154785,2|2,0:0|0:0,0:0:0:0:
59,132,128050,6,0,P|119:127|155:175,1,125.999996154785,2|2,0:0|0:0,0:0:0:0:
155,175,128753,1,0,0:0:0:0:
267,76,129221,1,0,0:0:0:0:
267,76,129456,2,0,P|303:89|335:96,1,62.9999980773926,0|0,0:0|0:0,0:0:0:0:
390,186,129925,2,0,L|377:235,7,31.4999990386963,2|0|0|0|0|0|0|0,0:0|0:0|0:0|0:0|0:0|0:0|0:0|0:0,0:0:0:0:
354,226,130862,5,2,0:0:0:0:
494,146,131331,2,0,P|480:100|477:62,1,62.9999980773926,2|2,0:0|0:0,0:0:0:0:
404,32,131800,1,2,0:0:0:0:
343,91,132034,1,0,0:0:0:0:
259,40,132269,6,0,B|177:53|217:72|143:86,1,125.999996154785,2|2,0:0|0:0,0:0:0:0:
278,193,133206,1,2,0:0:0:0:
138,273,133675,2,0,P|78:278|6:307,2,125.999996154785,2|2|2,0:0|0:0|0:0,0:0:0:0:
256,356,135081,6,0,P|315:361|387:390,1,125.999996154785,2|2,0:0|0:0,0:0:0:0:
377,384,136019,1,2,0:0:0:0:
501,284,136487,5,2,0:0:0:0:
378,153,136956,1,2,0:0:0:0:
378,153,137190,2,0,P|318:158|246:187,1,125.999996154785
184,240,137893,2,0,P|136:196|148:133,1,125.999996154785,2|0,0:0|0:0,0:0:0:0:
216,62,138597,1,2,0:0:0:0:
216,62,138831,2,0,P|245:73|275:83,1,62.9999980773926,0|0,0:0|0:0,0:0:0:0:
348,206,139300,6,0,B|467:209|397:272|516:283,1,188.999994232178,2|2,0:0|0:0,0:0:0:0:
349,381,140472,1,0,0:0:0:0:
349,381,140706,2,0,P|313:339|233:360,1,125.999996154785,2|0,0:0|0:0,0:0:0:0:
188,222,141409,2,0,P|152:264|72:243,1,125.999996154785,2|0,0:0|0:0,0:0:0:0:
32,337,142112,5,10,0:0:0:0:
32,337,142346,1,0,3:0:0:0:
66,249,142581,2,0,P|53:210|47:177,1,62.9999980773926,2|2,3:2|3:2,0:0:0:0:
0,115,143050,1,2,3:2:0:0:
0,115,143167,1,0,3:0:0:0:
0,115,143284,1,0,3:0:0:0:
117,36,143518,6,0,B|164:51|164:51|181:80|181:80|245:99,1,125.999996154785,10|2,0:0|3:2,0:0:0:0:
222,92,144222,1,0,3:0:0:0:
285,188,144456,2,0,P|266:237|258:271,1,62.9999980773926,2|0,3:2|3:0,0:0:0:0:
183,293,144925,5,10,0:0:0:0:
183,293,145159,1,0,3:0:0:0:
240,361,145393,2,0,P|270:370|299:382,1,62.9999980773926,2|0,3:2|3:0,0:0:0:0:
362,319,145862,1,2,3:2:0:0:
362,319,145979,1,0,3:0:0:0:
362,319,146096,1,0,3:0:0:0:
471,377,146331,6,0,P|508:354|498:265,1,125.999996154785,10|2,0:0|3:2,0:0:0:0:
437,209,147034,1,0,3:0:0:0:
437,209,147268,2,0,P|392:224|349:231,1,62.9999980773926,2|0,3:2|3:0,0:0:0:0:
269,322,147737,6,0,P|202:298|133:284,1,125.999996154785,10|2,0:2|3:2,0:0:0:0:
97,212,148440,1,0,3:0:0:0:
190,158,148675,1,2,3:2:0:0:
190,158,148792,1,0,3:0:0:0:
190,158,148909,1,0,3:0:0:0:
95,99,149143,2,0,P|87:55|72:14,1,62.9999980773926,10|0,0:2|3:0,0:0:0:0:
211,0,149612,6,0,P|247:-4|280:35,1,62.9999980773926,2|0,3:2|3:0,0:0:0:0:
317,97,150081,2,0,P|353:101|386:62,1,62.9999980773926,2|0,3:2|3:0,0:0:0:0:
264,210,150550,5,2,1:2:0:0:
264,210,150784,1,0,1:0:0:0:
335,281,151018,2,0,P|321:329|314:368,1,62.9999980773926,10|8,0:0|0:0,0:0:0:0:
187,384,151487,2,0,P|179:353|170:323,1,62.9999980773926,10|8,0:0|0:0,0:0:0:0:
82,263,151956,1,2,0:0:0:0:
82,263,152425,6,0,P|56:238|65:195,1,62.9999980773926,8|4,3:0|3:0,0:0:0:0:
132,115,152893,2,0,P|158:140|149:183,1,62.9999980773926,0|0,1:0|0:0,0:0:0:0:
230,223,153362,6,0,B|271:220|289:183|289:183|322:146|386:168,1,154.000004699707,6|2,1:2|0:0,0:0:0:0:
444,222,154065,1,2,0:0:0:0:
512,155,154299,2,0,P|499:118|490:81,1,77.0000023498536,2|0,0:0|1:0,0:0:0:0:
374,18,154768,6,0,B|299:-1|299:-1|243:64,1,154.000004699707,10|2,0:0|0:0,0:0:0:0:
160,14,155471,1,0,3:0:0:0:
160,14,155589,1,0,3:0:0:0:
160,14,155705,1,0,1:0:0:0:
53,114,155940,5,2,0:0:0:0:
53,114,156174,2,0,P|79:194|98:261,1,154.000004699707,2|2,1:2|0:0,0:0:0:0:
178,293,156877,1,0,0:0:0:0:
230,218,157112,2,0,P|268:209|316:188,1,77.0000023498536,2|0,0:0|1:0,0:0:0:0:
395,281,157581,6,0,P|487:289|502:340,1,154.000004699707,10|2,0:2|0:0,0:0:0:0:
341,384,158518,5,0,3:0:0:0:
341,384,158752,1,2,0:0:0:0:
255,311,158987,2,0,P|219:328|171:342,1,77.0000023498536,2|2,1:2|0:0,0:0:0:0:
98,384,159456,2,0,B|41:333|41:333|63:237,1,154.000004699707,2|2,0:0|0:0,0:0:0:0:
137,134,160158,5,2,0:0:0:0:
137,134,160276,1,2,0:0:0:0:
137,134,160393,2,0,B|243:133|182:181|286:181,1,154.000004699707,10|2,0:0|0:0,0:0:0:0:
331,260,161096,1,0,3:0:0:0:
386,325,161330,2,0,P|433:340|479:360,1,77.0000023498536,0|0,3:0|0:0,0:0:0:0:
512,279,161799,2,0,B|534:201|534:201|473:145,1,154.000004699707,2|2,1:2|0:0,0:0:0:0:
480,151,162502,1,0,0:0:0:0:
398,209,162737,1,2,0:0:0:0:
285,119,162971,5,0,1:0:0:0:
285,119,163089,1,0,1:0:0:0:
285,119,163205,2,0,B|300:78|312:32|312:32,1,77.0000023498536,8|0,0:0|1:0,0:0:0:0:
419,200,163675,5,2,0:0:0:0:
419,200,163909,1,10,0:0:0:0:
340,230,164143,2,0,B|325:271|313:317|313:317,1,77.0000023498536,8|8,0:0|3:0,0:0:0:0:
325,384,164612,6,0,P|269:314|186:335,1,154.000004699707,6|2,1:2|0:0,0:0:0:0:
136,271,165315,1,2,0:0:0:0:
49,302,165549,2,0,P|27:279|29:234,1,77.0000023498536,2|0,0:0|1:0,0:0:0:0:
89,119,166018,6,0,P|170:104|246:92,1,154.000004699707,10|2,0:0|0:0,0:0:0:0:
310,170,166721,1,0,3:0:0:0:
310,170,166839,1,0,3:0:0:0:
310,170,166956,1,0,1:0:0:0:
257,249,167190,1,2,0:0:0:0:
348,350,167425,6,0,P|424:362|499:375,1,154.000004699707,2|2,1:2|0:0,0:0:0:0:
499,375,168127,1,0,0:0:0:0:
512,280,168362,2,0,P|499:245|480:183,1,77.0000023498536,2|0,0:0|1:0,0:0:0:0:
376,120,168831,6,0,P|334:179|263:162,1,154.000004699707,10|2,0:0|0:0,0:0:0:0:
205,316,169768,5,0,3:0:0:0:
119,281,170003,1,0,3:0:0:0:
119,281,170120,1,0,3:0:0:0:
119,281,170237,2,0,P|101:224|82:186,1,77.0000023498536,2|2,1:2|0:0,0:0:0:0:
0,119,170706,6,0,P|41:59|112:76,1,154.000004699707,2|0,0:0|3:0,0:0:0:0:
112,76,171408,1,2,0:0:0:0:
183,156,171643,2,0,B|278:168|230:217|319:228,1,154.000004699707,10|2,0:0|0:0,0:0:0:0:
389,163,172346,1,0,3:0:0:0:
389,163,172464,1,0,3:0:0:0:
389,163,172581,2,0,P|378:125|362:74,1,77.0000023498536,0|0,3:0|0:0,0:0:0:0:
486,161,173050,2,0,P|496:198|509:234,1,77.0000023498536,2|0,1:2|0:0,0:0:0:0:
392,308,173518,6,0,B|340:327|340:327|319:361|319:361|265:383,1,154.000004699707,2|2,0:0|0:0,0:0:0:0:
264,383,174221,1,0,1:0:0:0:
227,282,174456,2,0,P|186:273|142:260,1,77.0000023498536,8|0,0:0|1:0,0:0:0:0:
8,366,174925,2,0,P|49:375|93:388,1,77.0000023498536,2|2,0:0|1:2,0:0:0:0:
164,353,175393,1,8,0:0:0:0:
164,353,175510,1,8,0:0:0:0:
164,353,175628,1,8,0:0:0:0:
242,384,175862,5,2,0:0:0:0:
242,384,177268,6,0,P|261:353|249:315,1,62.9999980773926,8|8,0:0|0:0,0:0:0:0:
173,240,177737,1,8,0:0:0:0:
173,240,177971,1,8,0:0:0:0:
274,168,178206,1,8,0:0:0:0:
274,168,178440,1,8,0:0:0:0:
221,84,178675,6,0,P|273:129|350:99,1,140,6|0,1:2|3:0,0:0:0:0:
429,72,179378,1,0,0:0:0:0:
488,159,179612,2,0,P|471:213|466:257,1,70,0|0,3:0|1:0,0:0:0:0:
370,328,180081,6,0,B|330:318|304:342|304:342|276:381|237:364,1,140,10|2,0:0|3:2,0:0:0:0:
192,287,180784,1,0,3:0:0:0:
192,287,180901,1,0,3:0:0:0:
192,287,181018,1,2,1:2:0:0:
114,348,181253,1,0,0:0:0:0:
10,271,181487,6,0,B|-10:203|-10:203|63:157,1,140,2|2,1:2|0:0,0:0:0:0:
101,73,182190,1,0,0:0:0:0:
101,73,182425,2,0,P|134:84|179:89,1,70,2|0,0:0|1:0,0:0:0:0:
187,209,182893,6,0,B|242:224|242:224|260:253|260:253|327:271,1,140,10|2,0:0|0:0,0:0:0:0:
307,265,183596,1,0,1:0:0:0:
370,196,183831,1,2,0:0:0:0:
472,287,184065,5,0,3:0:0:0:
472,287,184182,1,0,3:0:0:0:
472,287,184300,2,0,P|521:250|492:162,1,140,2|0,1:2|3:0,0:0:0:0:
435,118,185003,1,0,0:0:0:0:
435,118,185237,2,0,P|447:79|461:44,1,70,2|0,0:0|1:0,0:0:0:0:
318,89,185706,6,0,P|291:174|260:251,1,140,10|0,0:0|3:0,0:0:0:0:
332,303,186409,1,0,3:0:0:0:
332,303,186526,1,0,3:0:0:0:
332,303,186643,1,2,1:2:0:0:
248,365,186878,1,0,0:0:0:0:
248,365,187112,6,0,B|202:362|186:337|186:337|151:304|95:320,1,140,2|2,1:2|0:0,0:0:0:0:
53,366,187815,1,2,0:0:0:0:
0,294,188050,2,0,P|8:260|14:225,1,70,2|2,3:2|1:2,0:0:0:0:
156,140,188518,6,0,P|147:173|141:208,1,70,10|2,0:0|1:2,0:0:0:0:
141,208,188987,1,2,0:0:0:0:
203,284,189221,1,2,3:2:0:0:
292,247,189456,1,2,1:2:0:0:
376,356,189690,5,2,3:2:0:0:
376,356,189807,1,0,3:0:0:0:
376,356,189925,2,0,P|434:311|398:241,1,140,6|2,1:2|0:0,0:0:0:0:
508,207,190628,1,0,0:0:0:0:
455,112,190862,2,0,P|420:104|374:84,1,70,0|0,3:0|1:0,0:0:0:0:
309,197,191331,6,0,B|265:189|242:221|242:221|228:260|173:257,1,140,10|2,0:0|0:0,0:0:0:0:
149,342,192034,1,0,3:2:0:0:
149,342,192151,1,0,3:0:0:0:
149,342,192268,1,2,0:0:0:0:
50,306,192503,1,2,1:2:0:0:
50,306,192737,2,0,P|26:283|43:230,1,70,2|2,1:2|0:0,0:0:0:0:
134,172,193206,6,0,P|116:110|90:39,1,140,2|0,0:2|0:0,0:0:0:0:
90,39,193909,1,0,1:2:0:0:
257,106,194143,2,0,P|276:173|300:238,1,140,10|2,0:0|0:0,0:0:0:0:
300,238,194846,1,0,1:0:0:0:
254,322,195081,1,0,3:2:0:0:
254,322,195198,1,0,3:0:0:0:
254,322,195315,1,0,3:0:0:0:
388,325,195550,6,0,B|440:339|440:339|463:371|463:371|534:390,1,140,2|0,1:2|3:0,0:0:0:0:
459,303,196253,1,0,0:0:0:0:
459,303,196487,2,0,P|480:274|531:290,1,70,2|0,0:0|1:0,0:0:0:0:
442,160,196956,6,0,P|374:160|338:102,1,140,10|2,0:0|0:0,0:0:0:0:
265,179,197659,1,0,3:2:0:0:
265,179,197776,1,0,3:0:0:0:
265,179,197893,1,2,0:0:0:0:
184,228,198128,1,0,1:0:0:0:
184,228,198362,2,0,P|119:207|87:198,1,70,2|0,3:2|0:0,0:0:0:0:
33,111,198831,6,0,B|20:61|20:61|86:-7,1,140,2|0,0:0|3:0,0:0:0:0:
81,0,199534,1,2,0:0:0:0:
164,83,199768,2,0,P|206:96|248:110,1,70,10|0,0:2|0:0,0:0:0:0:
136,224,200237,1,2,1:2:0:0:
136,224,200354,1,2,0:0:0:0:
136,224,200471,2,0,P|102:233|69:244,1,70,10|0,0:0|0:0,0:0:0:0:
201,309,200940,1,0,1:0:0:0:
201,309,201175,5,2,0:0:0:0:
145,87,202581,1,2,0:0:0:0:
233,225,203050,6,0,P|260:246|300:244,1,70,0|0,0:0|0:0,0:0:0:0:
332,161,203518,2,0,P|359:140|399:141,1,70,0|0,0:0|0:0,0:0:0:0:
472,206,203987,6,0,P|463:259|457:294,1,62.9999980773926,2|0,0:0|0:0,0:0:0:0:
394,320,204456,1,2,0:0:0:0:
394,320,204690,1,0,0:0:0:0:
302,275,204925,6,0,B|218:288|276:324|164:337,1,125.999996154785,2|2,0:0|0:0,0:0:0:0:
193,332,205628,1,0,0:0:0:0:
100,384,205862,2,0,B|86:379|38:371,1,62.9999980773926,2|0,0:0|0:0,0:0:0:0:
0,266,206331,2,0,B|13:270|61:278,1,62.9999980773926,2|2,0:0|0:0,0:0:0:0:
140,212,206800,6,0,P|181:188|166:98,1,125.999996154785,2|2,0:0|0:0,0:0:0:0:
183,115,207503,1,0,0:0:0:0:
242,177,207737,2,0,P|251:206|275:226,1,62.9999980773926,2|0,0:0|0:0,0:0:0:0:
345,292,208206,6,0,P|408:280|491:269,1,125.999996154785,2|0,0:0|0:0,0:0:0:0:
469,271,208909,1,0,0:0:0:0:
512,191,209143,2,0,P|501:159|498:107,1,62.9999980773926,2|2,0:0|0:0,0:0:0:0:
433,65,209612,1,2,0:0:0:0:
433,65,209846,1,2,0:0:0:0:
360,138,210081,6,0,B|315:150|315:150|290:175|290:175|232:190,1,125.999996154785,2|2,0:0|0:0,0:0:0:0:
181,128,210784,1,0,0:0:0:0:
228,38,211018,2,0,P|193:20|156:34,1,62.9999980773926,2|0,0:0|0:0,0:0:0:0:
88,91,211487,2,0,P|65:111|34:113,2,62.9999980773926,2|2|2,0:0|0:0|0:0,0:0:0:0:
88,91,212190,1,2,0:0:0:0:
181,128,212425,6,0,B|195:200|209:264,1,125.999996154785,2|2,0:0|0:0,0:0:0:0:
125,370,213362,1,2,0:0:0:0:
138,363,214300,6,0,P|176:373|219:388,1,62.9999980773926,0|0,0:0|0:0,0:0:0:0:
281,310,214768,2,0,P|319:300|362:285,1,62.9999980773926,0|0,0:0|0:0,0:0:0:0:
461,365,215237,6,0,B|501:297|501:297|437:224,1,161.000003070831,6|2,1:2|0:0,0:0:0:0:
483,144,215940,1,2,0:0:0:0:
403,81,216174,2,0,P|363:98|325:109,1,80.5000015354157,2|0,0:0|1:0,0:0:0:0:
284,227,216643,6,0,B|235:222|210:258|210:258|194:303|141:298,1,161.000003070831,10|2,0:0|0:0,0:0:0:0:
59,352,217346,1,0,3:0:0:0:
59,352,217464,1,0,3:0:0:0:
59,352,217580,1,0,1:0:0:0:
0,221,217815,5,2,0:0:0:0:
0,221,218049,2,0,P|55:237|166:260,1,161.000003070831,2|2,1:2|0:0,0:0:0:0:
200,339,218752,1,0,0:0:0:0:
281,384,218987,2,0,P|316:367|367:354,1,80.5000015354157,2|0,0:0|1:0,0:0:0:0:
423,238,219456,6,0,P|415:146|334:133,1,161.000003070831,10|2,0:0|0:0,0:0:0:0:
286,273,220393,5,0,3:0:0:0:
286,273,220627,1,2,0:0:0:0:
210,333,220862,2,0,P|174:316|126:302,1,80.5000015354157,2|2,1:2|0:0,0:0:0:0:
44,220,221331,2,0,P|124:205|211:175,1,161.000003070831,2|2,0:0|0:0,0:0:0:0:
311,298,222033,5,2,0:0:0:0:
311,298,222151,1,2,0:0:0:0:
311,298,222268,2,0,P|390:312|467:334,1,161.000003070831,10|2,0:0|0:0,0:0:0:0:
467,334,222971,1,0,3:0:0:0:
512,260,223205,2,0,P|517:216|485:184,1,80.5000015354157,0|0,3:0|0:0,0:0:0:0:
378,126,223674,6,0,B|334:106|295:136|295:136|273:182|201:173,1,161.000003070831,2|2,1:2|0:0,0:0:0:0:
236,174,224377,1,0,0:0:0:0:
177,259,224612,1,2,0:0:0:0:
49,236,224846,5,0,1:0:0:0:
49,236,224964,1,0,1:0:0:0:
49,236,225080,2,0,P|13:210|22:149,1,80.5000015354157,8|0,0:0|1:0,0:0:0:0:
79,98,225550,1,2,0:0:0:0:
166,148,225784,1,10,0:0:0:0:
236,81,226018,2,0,B|225:83|271:71|312:56,1,80.5000015354157,8|8,0:0|3:0,0:0:0:0:
408,159,226487,6,0,B|441:129|445:77|445:77|440:126|475:172,1,161.000003070831,6|2,1:2|0:0,0:0:0:0:
458,144,227190,1,2,0:0:0:0:
512,229,227424,2,0,P|512:266|453:295,1,80.5000015354157,2|0,0:0|1:0,0:0:0:0:
377,377,227893,6,0,P|296:362|189:344,1,161.000003070831,10|2,0:0|0:0,0:0:0:0:
166,268,228596,1,0,3:0:0:0:
166,268,228714,1,0,3:0:0:0:
166,268,228831,1,0,1:0:0:0:
96,327,229065,1,2,0:0:0:0:
39,217,229300,6,0,B|5:148|5:148|66:77,1,161.000003070831,2|2,1:2|0:0,0:0:0:0:
59,84,230002,1,0,0:0:0:0:
137,160,230237,2,0,P|172:147|234:128,1,80.5000015354157,2|0,0:0|1:0,0:0:0:0:
268,248,230706,6,0,P|349:238|396:307,1,161.000003070831,10|2,0:0|0:0,0:0:0:0:
471,232,231409,1,0,1:0:0:0:
471,232,231643,1,0,3:0:0:0:
440,140,231878,1,0,3:0:0:0:
440,140,231995,1,0,3:0:0:0:
440,140,232112,2,0,P|451:96|469:45,1,80.5000015354157,2|2,1:2|0:0,0:0:0:0:
313,93,232581,6,0,P|293:172|260:264,1,161.000003070831,2|0,0:0|3:0,0:0:0:0:
327,333,233283,1,2,0:0:0:0:
239,381,233518,2,0,B|144:369|192:320|84:307,1,161.000003070831,10|2,0:0|0:0,0:0:0:0:
32,237,234221,1,0,3:0:0:0:
32,237,234339,1,0,3:0:0:0:
32,237,234456,2,0,P|43:198|55:159,1,80.5000015354157,0|0,3:0|0:0,0:0:0:0:
147,95,234925,2,0,P|158:133|170:172,1,80.5000015354157,2|0,1:2|0:0,0:0:0:0:
278,263,235393,6,0,B|330:282|330:282|358:323|358:323|431:343,1,161.000003070831,2|2,0:0|0:0,0:0:0:0:
411,337,236096,1,0,1:0:0:0:
491,292,236331,2,0,P|500:251|513:207,1,80.5000015354157,8|0,0:0|1:0,0:0:0:0:
409,122,236800,1,2,0:0:0:0:
409,122,237034,2,0,P|400:163|387:207,1,80.5000015354157,2|8,1:2|0:0,0:0:0:0:
406,226,237385,1,8,0:0:0:0:
406,226,237503,1,8,0:0:0:0:
491,292,237737,5,2,0:0:0:0:
300,384,239143,5,2,0:0:0:0:
288,370,241253,6,0,B|215:357|258:322|167:311,1,125.999996154785,2|0,0:0|0:0,0:0:0:0:
104,358,241956,1,2,0:0:0:0:
0,180,242659,6,0,B|73:167|30:132|121:121,1,125.999996154785,2|0,0:0|0:0,0:0:0:0:
180,183,243362,1,2,0:0:0:0:
281,41,244065,1,2,0:0:0:0:
436,274,246233,5,0,0:0:0:0:
256,192,246292,12,0,249925,0:0:0:0:
